osu file format v14

[General]
AudioFilename: audio.mp3
AudioLeadIn: 0
PreviewTime: 53643
Countdown: 0
SampleSet: Soft
StackLeniency: 0.7
Mode: 0
LetterboxInBreaks: 0
WidescreenStoryboard: 1

[Editor]
Bookmarks: 10326,20581,30377,40020,48132,52724,53643,86704,96500,106296,119765,147928,153745,157571,162469,171194,204561
DistanceSpacing: 1.6
BeatDivisor: 4
GridSize: 32
TimelineZoom: 2.5

[Metadata]
Title:Gambling
TitleUnicode:ギャンブル
Artist:syudou
ArtistUnicode:syudou
Creator:DMK7
Version:Simple's Hard
Source:月が導く異世界道中
Tags:Vanya Vanya2 Simple- Gamble japanese rock jrock j-rock ツキミチ Tsukimichi: Tsukimichi Moonlit Fantasy -Moonlit Fantasy- tsuki ga michibiku isekai douchuu anime op opening male vocal
BeatmapID:4396319
BeatmapSetID:1912881

[Difficulty]
HPDrainRate:4
CircleSize:4
OverallDifficulty:6
ApproachRate:8
SliderMultiplier:1.3
SliderTickRate:1

[Events]
//Background and Video events
0,0,"keepgambling3new.jpg",0,0
//Break Periods
2,157772,161720
//Storyboard Layer 0 (Background)
//Storyboard Layer 1 (Fail)
//Storyboard Layer 2 (Pass)
//Storyboard Layer 3 (Foreground)
//Storyboard Layer 4 (Overlay)
//Storyboard Sound Samples

[TimingPoints]
990,306.122448979592,4,2,1,45,1,0
990,-125,4,2,1,45,0,0
8336,-125,4,2,1,55,0,0
10326,-125,4,2,1,75,0,0
10709,-125,4,2,1,5,0,0
10785,-111.111111111111,4,2,1,75,0,0
20581,-125,4,2,1,60,0,0
30377,-111.111111111111,4,2,1,65,0,0
30607,-111.111111111111,4,2,1,5,0,0
30683,-111.111111111111,4,2,1,65,0,0
31219,-111.111111111111,4,2,1,5,0,0
31296,-111.111111111111,4,2,1,65,0,0
33362,-111.111111111111,4,2,1,5,0,0
33438,-111.111111111111,4,2,1,65,0,0
33668,-111.111111111111,4,2,1,5,0,0
33745,-111.111111111111,4,2,1,65,0,0
35505,-111.111111111111,4,2,1,5,0,0
35581,-111.111111111111,4,2,1,65,0,0
36117,-111.111111111111,4,2,1,5,0,0
36194,-111.111111111111,4,2,1,65,0,0
37954,-111.111111111111,4,2,1,5,0,0
38030,-111.111111111111,4,2,1,65,0,0
38260,-111.111111111111,4,2,1,5,0,0
38336,-111.111111111111,4,2,1,65,0,0
38566,-111.111111111111,4,2,1,5,0,0
38642,-111.111111111111,4,2,1,65,0,0
38872,-111.111111111111,4,2,1,5,0,0
38949,-111.111111111111,4,2,1,65,0,0
40020,-125,4,2,1,50,0,0
40990,-125,4,2,1,5,0,0
41092,-125,4,2,1,50,0,0
43438,-125,4,2,1,5,0,0
43541,-125,4,2,1,50,0,0
44918,-111.111111111111,4,2,1,60,0,0
47367,-111.111111111111,4,2,1,65,0,0
48821,-111.111111111111,4,2,1,5,0,0
48898,-111.111111111111,4,2,1,65,0,0
48974,-111.111111111111,4,2,1,5,0,0
49051,-111.111111111111,4,2,1,65,0,0
49127,-111.111111111111,4,2,1,5,0,0
49204,-111.111111111111,4,2,1,65,0,0
49816,-111.111111111111,4,2,1,75,0,0
52648,-111.111111111111,4,2,1,5,0,0
52724,-111.111111111111,4,2,1,75,0,0
52954,-111.111111111111,4,2,1,5,0,0
53030,-111.111111111111,4,2,1,45,0,0
53183,-111.111111111111,4,2,1,55,0,0
53336,-111.111111111111,4,2,1,65,0,0
53490,-111.111111111111,4,2,1,75,0,0
53643,-111.111111111111,4,2,1,60,0,0
54408,-111.111111111111,4,2,1,75,0,0
54791,-111.111111111111,4,2,1,5,0,0
54867,-100,4,2,1,80,0,1
55709,-100,4,2,1,5,0,1
55785,-100,4,2,1,80,0,1
56321,-100,4,2,1,5,0,1
56397,-100,4,2,1,80,0,1
57546,-100,4,2,1,5,0,1
57622,-100,4,2,1,80,0,1
58464,-100,4,2,1,5,0,1
58541,-100,4,2,1,80,0,1
61525,-100,4,2,1,5,0,1
61602,-100,4,2,1,80,0,1
62291,-100,4,2,1,5,0,1
62367,-100,4,2,1,85,0,1
62444,-100,4,2,1,5,0,1
62520,-100,4,2,1,85,0,1
63515,-100,4,2,1,5,0,1
63592,-100,4,2,1,85,0,1
65505,-100,4,2,1,5,0,1
65581,-100,4,2,1,80,0,1
67342,-100,4,2,1,5,0,1
67418,-100,4,2,1,80,0,1
68566,-100,4,2,1,5,0,1
68643,-100,4,2,1,80,0,1
71627,-100,4,2,1,5,0,1
71704,-100,4,2,1,80,0,1
72086,-100,4,2,1,5,0,1
72163,-100,4,2,1,85,0,1
72240,-100,4,2,1,5,0,1
72316,-100,4,2,1,85,0,1
73311,-100,4,2,1,5,0,1
73387,-100,4,2,1,85,0,1
75301,-100,4,2,1,5,0,1
75377,-100,4,2,1,80,0,1
77750,-100,4,2,1,5,0,1
77826,-100,4,2,1,80,0,1
81729,-100,4,2,1,5,0,1
81806,-100,4,2,1,80,0,1
86245,-100,4,2,1,75,0,1
86627,-100,4,2,1,5,0,1
86704,-111.111111111111,4,2,1,75,0,0
96500,-125,4,2,1,50,0,0
97954,-125,4,2,1,5,0,0
98030,-125,4,2,1,50,0,0
103541,-125,4,2,1,55,0,0
103847,-125,4,2,1,60,0,0
106296,-111.111111111111,4,2,1,65,0,0
106525,-111.111111111111,4,2,1,5,0,0
106602,-111.111111111111,4,2,1,65,0,0
107137,-111.111111111111,4,2,1,5,0,0
107214,-111.111111111111,4,2,1,65,0,0
109281,-111.111111111111,4,2,1,5,0,0
109357,-111.111111111111,4,2,1,65,0,0
109587,-111.111111111111,4,2,1,5,0,0
109664,-111.111111111111,4,2,1,65,0,0
111041,-111.111111111111,4,2,1,60,0,0
112265,-111.111111111111,4,2,1,65,0,0
112495,-111.111111111111,4,2,1,5,0,0
112571,-111.111111111111,4,2,1,65,0,0
113490,-111.111111111111,4,2,1,70,0,0
114714,-111.111111111111,4,2,1,75,0,0
116015,-111.111111111111,4,2,1,5,0,0
116092,-111.111111111111,4,2,1,70,0,0
118541,-111.111111111111,4,2,1,75,0,0
118770,-111.111111111111,4,2,1,5,0,0
118846,-111.111111111111,4,2,1,75,0,0
119076,-111.111111111111,4,2,1,5,0,0
119153,-111.111111111111,4,2,1,45,0,0
119306,-111.111111111111,4,2,1,55,0,0
119459,-111.111111111111,4,2,1,65,0,0
119613,-111.111111111111,4,2,1,75,0,0
119765,-111.111111111111,4,2,1,60,0,0
120530,-111.111111111111,4,2,1,75,0,0
120913,-111.111111111111,4,2,1,5,0,0
120990,-100,4,2,1,80,0,1
121831,-100,4,2,1,5,0,1
121908,-100,4,2,1,80,0,1
122444,-100,4,2,1,5,0,1
122520,-100,4,2,1,80,0,1
123668,-100,4,2,1,5,0,1
123745,-100,4,2,1,80,0,1
124586,-100,4,2,1,5,0,1
124663,-100,4,2,1,80,0,1
127648,-100,4,2,1,5,0,1
127724,-100,4,2,1,80,0,1
128336,-100,4,2,1,85,0,1
128413,-100,4,2,1,5,0,1
128489,-100,4,2,1,85,0,1
128566,-100,4,2,1,5,0,1
128642,-100,4,2,1,85,0,1
129637,-100,4,2,1,5,0,1
129714,-100,4,2,1,85,0,1
130785,-100,4,2,1,80,0,1
131627,-100,4,2,1,5,0,1
131704,-100,4,2,1,80,0,1
132622,-100,4,2,1,85,0,1
132852,-100,4,2,1,5,0,1
132928,-100,4,2,1,85,0,1
133158,-100,4,2,1,5,0,1
133234,-100,4,2,1,80,0,1
134688,-100,4,2,1,5,0,1
134765,-100,4,2,1,80,0,1
137750,-100,4,2,1,5,0,1
137826,-100,4,2,1,80,0,1
138132,-100,4,2,1,85,0,1
138209,-100,4,2,1,5,0,1
138285,-100,4,2,1,85,0,1
138362,-100,4,2,1,5,0,1
138438,-100,4,2,1,85,0,1
139433,-100,4,2,1,5,0,1
139510,-100,4,2,1,85,0,1
140581,-100,4,2,1,80,0,1
141423,-100,4,2,1,5,0,1
141500,-100,4,2,1,80,0,1
143872,-100,4,2,1,5,0,1
143949,-100,4,2,1,80,0,1
147928,-111.111111111111,4,2,1,75,0,0
149076,-111.111111111111,4,2,1,5,0,0
149153,-111.111111111111,4,2,1,75,0,0
151525,-111.111111111111,4,2,1,5,0,0
151602,-111.111111111111,4,2,1,45,0,0
151908,-111.111111111111,4,2,1,55,0,0
152214,-111.111111111111,4,2,1,75,0,0
152520,-111.111111111111,4,2,1,65,0,0
153056,-111.111111111111,4,2,1,5,0,0
153132,-111.111111111111,4,2,1,75,0,0
157571,-111.111111111111,4,2,1,35,0,0
162469,-111.111111111111,4,2,1,60,0,0
163694,-111.111111111111,4,2,1,60,0,0
163770,-111.111111111111,4,2,1,5,0,0
163847,-111.111111111111,4,2,1,60,0,0
164612,-111.111111111111,4,2,1,75,0,0
164689,-111.111111111111,4,2,1,5,0,0
164765,-111.111111111111,4,2,1,75,0,0
164842,-111.111111111111,4,2,1,5,0,0
164918,-111.111111111111,4,2,1,75,0,0
164995,-111.111111111111,4,2,1,5,0,0
165071,-111.111111111111,4,2,1,65,0,0
165913,-111.111111111111,4,2,1,5,0,0
166143,-111.111111111111,4,2,1,65,0,0
166220,-111.111111111111,4,2,1,5,0,0
166296,-111.111111111111,4,2,1,65,0,0
167138,-111.111111111111,4,2,1,5,0,0
167214,-111.111111111111,4,2,1,65,0,0
167367,-111.111111111111,4,2,1,75,0,0
170199,-111.111111111111,4,2,1,5,0,0
170275,-111.111111111111,4,2,1,75,0,0
170505,-111.111111111111,4,2,1,5,0,0
170581,-111.111111111111,4,2,1,45,0,0
170734,-111.111111111111,4,2,1,55,0,0
170887,-111.111111111111,4,2,1,65,0,0
171041,-111.111111111111,4,2,1,75,0,0
171194,-111.111111111111,4,2,1,60,0,0
172342,-111.111111111111,4,2,1,5,0,0
172418,-111.111111111111,4,2,1,60,0,0
173030,-111.111111111111,4,2,1,75,0,0
173643,-99.9999999999999,4,2,1,80,0,1
173872,-99.9999999999999,4,2,1,5,0,1
173949,-99.9999999999999,4,2,1,80,0,1
174484,-99.9999999999999,4,2,1,5,0,1
174561,-99.9999999999999,4,2,1,80,0,1
175097,-99.9999999999999,4,2,1,5,0,1
175173,-99.9999999999999,4,2,1,80,0,1
176321,-99.9999999999999,4,2,1,5,0,1
176398,-99.9999999999999,4,2,1,80,0,1
177240,-99.9999999999999,4,2,1,5,0,1
177316,-99.9999999999999,4,2,1,80,0,1
180301,-99.9999999999999,4,2,1,5,0,1
180377,-99.9999999999999,4,2,1,80,0,1
180990,-99.9999999999999,4,2,1,85,0,1
181067,-99.9999999999999,4,2,1,5,0,1
181143,-99.9999999999999,4,2,1,85,0,1
181220,-99.9999999999999,4,2,1,5,0,1
181296,-99.9999999999999,4,2,1,85,0,1
182291,-99.9999999999999,4,2,1,5,0,1
182368,-99.9999999999999,4,2,1,85,0,1
183438,-99.9999999999999,4,2,1,80,0,1
184280,-99.9999999999999,4,2,1,5,0,1
184357,-99.9999999999999,4,2,1,80,0,1
186117,-99.9999999999999,4,2,1,5,0,1
186194,-99.9999999999999,4,2,1,80,0,1
187342,-99.9999999999999,4,2,1,5,0,1
187418,-99.9999999999999,4,2,1,80,0,1
190403,-99.9999999999999,4,2,1,5,0,1
190479,-99.9999999999999,4,2,1,80,0,1
190785,-99.9999999999999,4,2,1,85,0,1
190862,-99.9999999999999,4,2,1,5,0,1
190938,-99.9999999999999,4,2,1,85,0,1
191015,-99.9999999999999,4,2,1,5,0,1
191091,-99.9999999999999,4,2,1,85,0,1
193234,-99.9999999999999,4,2,1,80,0,1
194076,-99.9999999999999,4,2,1,5,0,1
194153,-99.9999999999999,4,2,1,80,0,1
196525,-99.9999999999999,4,2,1,5,0,1
196602,-99.9999999999999,4,2,1,80,0,1
200505,-99.9999999999999,4,2,1,5,0,1
200581,-99.9999999999999,4,2,1,80,0,1
204561,-99.9999999999999,4,2,1,80,0,0
206704,-125,4,2,1,35,0,0
211602,-125,4,2,1,55,0,0
215275,-125,4,2,1,55,0,0

[Colours]
Combo1 : 152,87,67
Combo2 : 202,181,26
Combo3 : 112,112,58
Combo4 : 57,113,113

[HitObjects]
24,76,990,6,0,P|78:47|158:93,1,156,2|0,2:2|0:0,0:0:0:0:
86,134,1602,2,0,B|90:177|90:177|100:186|100:186|106:247,1,104,2|2,2:2|1:2,0:0:0:0:
73,310,2061,1,0,1:2:0:0:
145,350,2215,6,0,P|201:343|255:378,2,104,2|2|2,1:2|2:2|1:2,0:0:0:0:
73,310,2980,1,0,1:2:0:0:
104,233,3133,2,0,P|139:236|165:225,1,52,2|0,1:2|1:2,0:0:0:0:
223,184,3439,6,0,B|263:192|263:192|286:213|286:213|334:225,1,104,2|2,1:2|2:2,0:0:0:0:
376,279,3898,1,0,0:0:0:0:
459,283,4051,2,0,P|473:255|471:219,1,52,2|0,2:2|1:2,0:0:0:0:
419,179,4357,1,2,1:2:0:0:
419,179,4510,1,0,1:2:0:0:
456,104,4664,6,0,B|441:59|441:59|367:40,2,104,2|2|2,2:2|1:2|2:2,0:0:0:0:
374,118,5429,1,0,1:2:0:0:
299,81,5582,2,0,L|229:92,1,52,2|0,1:2|1:2,0:0:0:0:
186,33,5888,6,0,P|155:61|169:137,1,104,2|2,1:2|2:2,0:0:0:0:
211,181,6347,1,0,0:0:0:0:
134,211,6500,2,0,L|19:195,1,104,2|2,2:2|1:2,0:0:0:0:
5,275,6959,1,0,1:2:0:0:
41,349,7112,6,0,P|88:319|94:262,2,104,2|2|2,1:2|2:2|1:2,0:0:0:0:
5,275,7878,1,0,1:2:0:0:
49,204,8031,2,0,L|41:145,1,52,2|0,1:2|1:2,0:0:0:0:
64,72,8337,6,0,P|103:94|114:117,1,52,2|0,1:2|1:2,0:0:0:0:
172,150,8643,2,0,L|169:197,2,26,10|8|0,2:2|2:2|1:2,0:0:0:0:
240,103,8949,2,0,P|258:84|282:76,1,52,10|0,2:2|1:2,0:0:0:0:
341,134,9255,2,0,L|326:223,1,78,2|0,2:2|0:0,0:0:0:0:
321,252,9561,2,0,B|242:202|165:265|165:265|131:350|40:323,1,312,2|4,2:1|2:2,0:0:0:0:
45,139,10786,6,0,L|51:67,2,58.4999982147217,4|2|10,2:1|1:2|2:2,0:0:0:0:
119,196,11245,1,2,1:2:0:0:
58,267,11398,2,0,L|53:325,3,58.4999982147217,10|2|10|2,2:2|1:2|2:2|1:2,0:0:0:0:
145,337,12010,6,0,L|150:279,2,58.4999982147217,10|2|10,2:2|1:2|2:2,0:0:0:0:
230,374,12469,1,2,1:2:0:0:
282,296,12622,2,0,L|340:301,3,58.4999982147217,10|2|10|2,2:2|1:2|2:2|1:2,0:0:0:0:
421,254,13235,6,0,P|428:206|419:178,2,58.4999982147217,10|2|10,2:2|1:2|2:2,0:0:0:0:
334,215,13694,1,2,1:2:0:0:
271,145,13847,2,0,P|264:97|273:69,3,58.4999982147217,10|2|10|2,2:2|1:2|2:2|1:2,0:0:0:0:
344,37,14459,6,0,P|399:22|455:37,3,116.999996429443,12|12|12|12,1:2|1:2|1:2|1:2,0:0:0:0:
406,218,15684,6,0,L|392:149,2,58.4999982147217,6|2|10,2:2|1:2|2:2,0:0:0:0:
335,279,16143,1,2,1:2:0:0:
249,242,16296,2,0,L|263:173,3,58.4999982147217,10|2|10|2,2:2|1:2|2:2|1:2,0:0:0:0:
187,125,16908,6,0,L|176:68,2,58.4999982147217,10|2|10,2:2|1:2|2:2,0:0:0:0:
118,189,17368,1,2,1:2:0:0:
29,160,17520,2,0,L|40:103,3,58.4999982147217,10|2|10|2,2:2|1:2|2:2|1:2,0:0:0:0:
112,42,18133,6,0,P|145:39|188:62,2,58.4999982147217,10|2|10,2:2|1:2|2:2,0:0:0:0:
134,132,18592,1,2,1:2:0:0:
225,113,18745,2,0,L|220:172,3,58.4999982147217,10|2|10|2,2:2|1:2|2:2|1:2,0:0:0:0:
161,244,19357,2,0,L|175:381,3,116.999996429443,12|12|12|12,1:2|1:2|1:2|1:2,0:0:0:0:
87,217,20582,6,0,P|112:179|179:177,1,104,6|8,1:2|2:2,0:0:0:0:
198,253,21041,1,2,1:2:0:0:
198,253,21194,2,0,B|243:260|243:260|259:271|259:271|316:281,1,104,2|10,1:2|2:2,0:0:0:0:
378,296,21653,1,2,1:2:0:0:
348,218,21806,6,0,P|343:162|372:116,2,104,2|10|2,1:2|2:2|1:2,0:0:0:0:
378,296,22572,2,0,L|435:286,1,52,0|8,1:2|2:2,0:0:0:0:
480,222,22878,1,2,1:2:0:0:
480,222,23031,6,0,P|469:174|454:99,1,104,2|10,1:2|2:2,0:0:0:0:
394,75,23490,1,2,1:2:0:0:
394,75,23643,2,0,P|321:78|291:107,1,104,2|10,1:2|2:2,0:0:0:0:
240,155,24102,1,2,1:2:0:0:
175,103,24255,6,0,L|197:0,2,104,2|10|2,1:2|2:2|1:2,0:0:0:0:
240,155,25021,2,0,L|225:226,1,52,8|8,1:1|2:1,0:0:0:0:
155,243,25327,1,2,1:2:0:0:
216,302,25480,6,0,B|259:291|259:291|282:298|282:298|339:280,1,104,2|8,1:2|2:2,0:0:0:0:
362,362,25939,1,2,1:2:0:0:
362,362,26092,2,0,P|393:335|394:263,1,104,2|10,1:2|2:2,0:0:0:0:
347,210,26551,1,2,1:2:0:0:
410,156,26704,6,0,L|421:82,1,52,2|2,1:2|1:2,0:0:0:0:
339,75,27010,2,0,L|331:126,1,52,10|0,2:2|1:2,0:0:0:0:
264,176,27316,2,0,P|201:181|162:146,1,104,2|8,1:2|2:2,0:0:0:0:
121,91,27775,1,2,1:2:0:0:
179,32,27928,2,0,P|221:47|227:69,1,52,2|2,1:2|1:2,0:0:0:0:
261,124,28234,2,0,L|264:183,1,52,10|2,2:2|1:2,0:0:0:0:
192,220,28541,2,0,L|130:212,1,52,2|0,1:2|1:2,0:0:0:0:
111,135,28847,1,10,2:2:0:0:
111,135,29000,1,2,1:2:0:0:
38,175,29153,6,0,P|27:238|46:279,2,104,10|10|10,2:2|2:2|2:2,0:0:0:0:
118,227,29919,1,2,1:2:0:0:
118,227,30072,2,0,P|156:220|187:229,1,52,10|2,2:2|1:2,0:0:0:0:
238,284,30378,6,0,B|282:287|282:287|298:301|298:301|362:310,1,116.999996429443,6|8,1:2|2:2,0:0:0:0:
430,262,30837,1,2,2:2:0:0:
430,262,30990,2,0,P|418:202|447:150,1,116.999996429443,0|8,1:2|2:2,0:0:0:0:
511,90,31449,1,2,2:2:0:0:
442,26,31602,2,0,L|364:19,1,58.4999982147217,0|2,1:2|2:2,0:0:0:0:
290,16,31908,1,8,2:2:0:0:
290,16,32061,1,2,1:2:0:0:
311,107,32215,2,0,P|319:157|313:183,1,58.4999982147217,0|2,1:2|1:2,0:0:0:0:
232,202,32521,2,0,P|231:231|239:259,1,58.4999982147217,8|2,2:2|2:2,0:0:0:0:
304,326,32827,1,0,1:2:0:0:
125,270,33133,6,0,L|-5:293,2,116.999996429443,8|0|8,2:2|1:2|2:2,0:0:0:0:
185,197,33898,1,2,2:2:0:0:
112,137,34051,6,0,L|106:86,3,29.2499991073609,8|8|10|8,2:2|2:2|2:2|2:2,0:0:0:0:
130,66,34357,2,0,P|172:53|200:59,1,58.4999982147217,8|10,2:2|2:3,0:0:0:0:
264,105,34664,2,0,L|258:156,3,29.2499991073609,8|8|10|8,2:2|2:2|2:3|2:3,0:0:0:0:
282,176,34970,2,0,P|324:189|352:183,1,58.4999982147217,8|10,2:2|2:2,0:0:0:0:
430,176,35276,6,0,L|412:299,1,116.999996429443,4|8,1:2|2:2,0:0:0:0:
341,351,35735,1,2,2:2:0:0:
341,351,35888,2,0,P|283:310|221:313,1,116.999996429443,0|8,1:2|2:2,0:0:0:0:
165,367,36347,1,2,2:2:0:0:
98,300,36500,6,0,L|112:235,1,58.4999982147217,0|2,1:2|2:2,0:0:0:0:
199,212,36806,2,0,L|185:147,1,58.4999982147217,8|2,2:2|2:2,0:0:0:0:
97,128,37112,2,0,L|108:57,1,58.4999982147217,0|2,1:2|2:2,0:0:0:0:
173,5,37418,1,8,2:2:0:0:
173,5,37571,1,2,2:2:0:0:
243,66,37724,5,4,1:2:0:0:
428,97,38031,2,0,L|419:154,1,58.4999982147217,8|2,2:2|2:2,0:0:0:0:
405,247,38337,1,6,1:2:0:0:
225,195,38643,2,0,L|236:264,1,58.4999982147217,8|2,2:2|2:2,0:0:0:0:
159,309,38949,6,0,L|129:316,2,29.2499991073609,8|8|0,2:2|2:2|1:2,0:0:0:0:
233,365,39255,2,0,P|286:329|353:354,1,116.999996429443,12|8,2:2|1:2,0:0:0:0:
418,382,39715,1,8,1:2:0:0:
500,237,40021,6,0,B|505:182|466:158|417:171|417:171|384:141|404:91,1,208,6|0,1:2|0:0,0:0:0:0:
350,32,40786,2,0,B|300:26|271:60|271:60|266:108|208:117,1,156,10|0,2:2|1:2,0:0:0:0:
163,63,41398,2,0,P|138:122|193:194,1,156,2|0,2:2|0:0,0:0:0:0:
268,203,42010,2,0,P|301:187|329:188,2,52,10|2|2,2:2|2:2|1:2,0:0:0:0:
228,277,42470,6,0,B|226:317|243:342|243:342|295:296|386:300,1,208,2|0,1:2|0:0,0:0:0:0:
435,354,43235,2,0,P|468:318|419:222,1,156,10|0,2:2|1:2,0:0:0:0:
359,190,43847,2,0,B|335:152|346:118|346:118|396:103|387:39,1,156,2|0,2:2|0:0,0:0:0:0:
306,44,44459,2,0,P|277:32|245:34,1,52,12|2,2:2|2:2,0:0:0:0:
180,65,44765,1,2,1:2:0:0:
254,122,44919,6,0,B|208:134|208:134|190:156|190:156|136:173,1,116.999996429443,6|2,1:2|1:2,0:0:0:0:
85,103,45378,2,0,P|57:141|56:168,1,58.4999982147217,10|2,2:2|1:2,0:0:0:0:
16,235,45684,2,0,B|46:250|46:272|46:272|129:288,1,116.999996429443,2|10,1:2|2:2,0:0:0:0:
178,350,46143,6,0,P|213:308|291:323,1,116.999996429443,2|2,1:2|1:2,0:0:0:0:
364,315,46602,2,0,L|356:373,1,58.4999982147217,10|6,2:2|2:3,0:0:0:0:
447,355,46908,2,0,P|453:277|412:239,1,116.999996429443,6|8,2:3|2:3,0:0:0:0:
343,218,47368,6,0,B|332:181|344:157|344:157|381:143|389:105,1,116.999996429443,6|2,1:2|1:2,0:0:0:0:
299,81,47827,2,0,P|247:84|227:98,1,58.4999982147217,10|2,2:2|1:2,0:0:0:0:
185,160,48133,2,0,B|187:181|224:195|224:195|236:219|225:256,1,116.999996429443,2|10,1:2|2:2,0:0:0:0:
159,322,48592,6,0,P|88:320|65:274,1,116.999996429443,2|2,1:2|1:2,0:0:0:0:
99,198,49051,2,0,P|91:154|83:132,1,58.4999982147217,10|2,2:2|1:2,0:0:0:0:
8,89,49357,2,0,P|56:50|125:59,1,116.999996429443,2|12,1:2|2:2,0:0:0:0:
181,109,49817,1,2,1:2:0:0:
261,61,49970,6,0,B|275:111|275:111|266:133|266:133|279:193,1,116.999996429443,14|8,1:2|1:2,0:0:0:0:
232,257,50429,1,2,1:2:0:0:
307,312,50582,2,0,P|383:303|410:263,1,116.999996429443,10|8,1:2|1:2,0:0:0:0:
439,186,51041,1,2,1:2:0:0:
373,118,51194,6,0,P|373:78|362:51,1,58.4999982147217,14|0,1:2|1:2,0:0:0:0:
280,96,51500,2,0,P|245:76|216:72,1,58.4999982147217,10|0,1:2|1:2,0:0:0:0:
193,159,51806,2,0,P|158:179|140:202,1,58.4999982147217,10|0,1:2|1:2,0:0:0:0:
218,252,52112,2,0,L|310:249,1,87.7499973220826,14|0,1:2|1:2,0:0:0:0:
345,273,52419,6,0,P|343:330|378:375,2,116.999996429443,4|0|8,1:2|1:2|1:2,0:0:0:0:
420,217,53184,1,8,1:2:0:0:
355,149,53337,2,0,L|355:102,3,29.2499991073609,8|8|8|8,1:2|1:2|1:2|1:2,0:0:0:0:
334,162,53643,6,0,B|256:165|235:106|235:106|180:59|112:103,1,233.999992858887,2|2,1:1|2:2,0:0:0:0:
64,156,54408,1,0,1:2:0:0:
66,170,54484,1,0,1:2:0:0:
69,184,54561,2,0,P|119:188|142:166,1,58.4999982147217,6|0,2:2|0:0,0:0:0:0:
222,219,54868,6,0,L|199:364,1,130,4|10,3:1|2:2,0:0:0:0:
299,381,55327,1,0,0:0:0:0:
379,315,55480,2,0,P|451:339|513:311,1,130,2|10,1:2|2:2,0:0:0:0:
442,234,55939,1,2,2:2:0:0:
442,234,56092,6,0,P|451:193|445:157,1,65,2|0,1:2|0:0,0:0:0:0:
345,180,56398,2,0,P|313:151|279:138,1,65,10|0,2:2|0:0,0:0:0:0:
255,239,56704,2,0,L|261:312,2,65,2|2|10,1:2|2:2|2:2,0:0:0:0:
225,33,57317,6,0,B|166:28|166:28|140:42|140:42|80:36,1,130,0|10,1:2|2:2,0:0:0:0:
20,105,57776,1,2,2:2:0:0:
20,105,57929,2,0,P|17:147|29:170,1,65,2|0,1:2|0:0,0:0:0:0:
125,198,58235,2,0,L|112:299,1,97.5,10|0,2:2|0:0,0:0:0:0:
142,338,58541,6,0,P|192:370|271:353,1,130,2|10,1:2|2:2,0:0:0:0:
338,292,59000,1,2,2:2:0:0:
338,292,59153,2,0,P|334:248|327:222,1,65,2|0,1:2|0:0,0:0:0:0:
253,172,59459,1,10,2:2:0:0:
253,172,59536,1,8,2:2:0:0:
253,172,59612,1,0,1:2:0:0:
313,87,59766,6,0,P|378:62|437:97,1,130,4|10,1:2|2:2,0:0:0:0:
469,182,60225,1,2,2:2:0:0:
385,244,60378,2,0,L|235:219,1,130,2|10,1:2|2:2,0:0:0:0:
162,260,60837,1,0,1:2:0:0:
162,260,60990,6,0,P|155:222|173:180,1,65,2|0,1:2|0:0,0:0:0:0:
82,129,61296,2,0,P|111:103|156:98,1,65,10|0,2:2|0:0,0:0:0:0:
228,63,61602,2,0,L|214:-12,2,65,2|2|14,1:2|2:2|2:2,0:0:0:0:
410,161,62215,6,0,P|458:179|476:264,1,130,14|0,1:2|1:2,0:0:0:0:
376,248,62674,2,0,B|304:234|312:270|237:261,1,130,14|8,1:2|1:2,0:0:0:0:
171,331,63133,1,2,1:2:0:0:
159,227,63286,6,0,L|191:88,1,130,14|2,1:2|1:2,0:0:0:0:
154,1,63745,2,0,P|108:26|101:60,1,65,10|6,1:2|1:2,0:0:0:0:
188,100,64051,2,0,L|254:82,1,65,10|0,1:2|1:2,0:0:0:0:
335,22,64357,2,0,L|372:11,3,32.5,10|0|2|0,1:2|1:2|1:2|1:2,0:0:0:0:
413,35,64664,6,0,L|394:128,1,65,6|0,1:2|0:0,0:0:0:0:
331,176,64970,2,0,P|396:211|439:190,1,97.5,10|0,1:2|0:0,0:0:0:0:
463,225,65276,2,0,L|476:296,1,65,2|0,1:2|0:0,0:0:0:0:
417,375,65582,1,10,1:2:0:0:
417,375,65735,1,2,2:2:0:0:
329,318,65888,6,0,P|279:304|225:315,1,97.5,2|0,1:2|1:2,0:0:0:0:
195,346,66194,2,0,P|152:358|109:346,1,65,10|0,1:2|0:0,0:0:0:0:
71,271,66500,2,0,L|93:161,1,97.5,2|0,1:2|0:0,0:0:0:0:
100,124,66806,2,0,P|146:143|178:134,1,65,10|0,1:2|0:0,0:0:0:0:
238,72,67112,6,0,B|285:76|285:76|306:94|306:94|374:103,1,130,0|10,1:2|1:2,0:0:0:0:
457,62,67572,1,0,0:0:0:0:
461,165,67725,2,0,P|438:207|342:211,1,130,2|10,1:2|1:2,0:0:0:0:
271,183,68184,1,2,1:2:0:0:
271,183,68337,6,0,P|278:231|262:255,1,65,2|0,1:2|0:0,0:0:0:0:
244,345,68643,2,0,P|198:327|186:301,1,65,10|2,1:2|2:2,0:0:0:0:
154,217,68949,2,0,P|118:234|78:232,1,65,2|0,1:2|0:0,0:0:0:0:
16,164,69255,1,10,1:2:0:0:
16,164,69332,1,0,1:2:0:0:
16,164,69408,1,0,1:2:0:0:
89,90,69561,6,0,L|237:66,1,130,4|10,1:2|1:2,0:0:0:0:
288,2,70021,1,2,2:2:0:0:
319,101,70174,2,0,P|281:125|302:215,1,130,2|10,1:2|1:2,0:0:0:0:
388,184,70633,1,0,0:0:0:0:
469,248,70786,6,0,P|492:307|450:378,3,130,6|10|2|14,1:2|1:2|1:2|1:2,0:0:0:0:
272,289,72010,6,0,B|218:282|218:282|189:292|189:292|138:288,1,130,14|0,1:2|1:2,0:0:0:0:
50,332,72470,2,0,P|39:250|87:208,1,130,14|10,1:2|1:2,0:0:0:0:
168,200,72929,1,2,1:2:0:0:
218,109,73082,6,0,L|78:137,1,130,14|0,1:2|1:2,0:0:0:0:
102,30,73541,2,0,L|169:16,1,65,10|4,1:2|1:2,0:0:0:0:
269,20,73847,2,0,P|307:53|313:80,3,65,10|2|10|2,1:2|1:2|1:2|1:2,0:0:0:0:
314,169,74459,6,0,L|402:151,1,65,6|0,1:2|0:0,0:0:0:0:
457,224,74766,2,0,P|469:258|469:291,1,65,10|0,2:2|0:0,0:0:0:0:
373,329,75072,2,0,L|230:306,1,130,2|10,1:2|2:2,0:0:0:0:
163,349,75531,6,0,P|147:294|158:271,1,65,2|0,1:2|1:2,0:0:0:0:
68,236,75837,1,2,2:2:0:0:
68,236,75990,2,0,P|107:194|133:192,1,65,10|2,2:2|2:2,0:0:0:0:
211,221,76296,2,0,B|282:205|258:191|359:176,2,130,2|10|2,1:2|2:2|1:2,0:0:0:0:
78,60,77215,2,0,P|66:19|80:-10,1,65,10|0,2:2|0:0,0:0:0:0:
172,28,77521,2,0,L|315:53,1,130,2|10,1:2|2:2,0:0:0:0:
403,46,77980,2,0,P|396:92|372:114,1,65,2|0,1:2|1:2,0:0:0:0:
294,153,78286,5,2,2:2:0:0:
294,153,78439,2,0,B|299:203|299:203|324:220|324:220|332:295,1,130,10|2,2:2|1:2,0:0:0:0:
285,363,78898,1,0,0:0:0:0:
217,284,79051,2,0,L|212:237,3,32.5,8|8|2|0,2:2|2:2|1:2|1:2,0:0:0:0:
168,225,79357,6,0,P|99:209|38:254,2,130,6|8|2,1:2|2:2|1:2,0:0:0:0:
254,167,80123,1,0,0:0:0:0:
254,167,80276,2,0,L|248:95,1,65,8|2,2:2|1:2,0:0:0:0:
321,28,80582,6,0,P|400:6|463:37,1,130,2|10,1:2|2:2,0:0:0:0:
384,107,81041,1,2,1:2:0:0:
384,107,81194,2,0,P|398:136|389:171,1,65,2|0,1:2|0:0,0:0:0:0:
318,241,81500,2,0,L|212:214,1,97.5,14|0,2:2|0:0,0:0:0:0:
180,245,81806,6,0,L|194:325,1,65,12|0,2:2|1:2,0:0:0:0:
98,355,82112,2,0,L|86:288,1,65,8|0,2:2|1:2,0:0:0:0:
24,207,82419,2,0,P|81:199|126:129,1,130,8|8,2:2|2:2,0:0:0:0:
79,50,82878,1,0,1:2:0:0:
179,77,83031,6,0,L|316:60,2,130,12|8|8,2:2|2:2|2:2,0:0:0:0:
229,168,83796,1,0,1:2:0:0:
229,168,83949,2,0,L|297:159,1,65,12|2,2:2|1:2,0:0:0:0:
388,196,84255,6,0,P|407:254|358:320,1,130,6|8,1:2|2:2,0:0:0:0:
283,359,84715,1,2,1:2:0:0:
283,359,84791,1,0,1:2:0:0:
283,359,84868,2,0,B|229:347|229:347|198:353|198:353|139:342,1,130,2|8,1:2|2:2,0:0:0:0:
78,275,85327,1,2,1:2:0:0:
78,275,85403,1,0,1:2:0:0:
78,275,85480,6,0,P|66:237|50:211,1,65,10|10,1:2|1:2,0:0:0:0:
134,151,85785,1,10,1:2:0:0:
134,151,85938,1,2,2:2:0:0:
214,218,86092,2,0,P|298:229|352:238,1,130,2|4,2:2|2:2,0:0:0:0:
465,95,86704,6,0,P|469:47|471:14,2,58.4999982147217,4|2|10,2:1|1:2|2:2,0:0:0:0:
388,149,87164,1,2,1:2:0:0:
466,199,87316,2,0,P|463:228|461:257,3,58.4999982147217,10|2|10|2,2:2|1:2|2:2|1:2,0:0:0:0:
368,274,87928,6,0,P|371:303|373:332,2,58.4999982147217,10|2|10,2:2|1:2|2:2,0:0:0:0:
292,218,88387,1,2,1:2:0:0:
216,274,88541,2,0,P|219:303|221:332,3,58.4999982147217,10|2|10|2,2:2|1:2|2:2|1:2,0:0:0:0:
127,323,89153,6,0,P|122:351|119:381,2,58.4999982147217,10|2|10,2:2|1:2|2:2,0:0:0:0:
62,255,89612,1,2,1:2:0:0:
121,182,89766,2,0,P|115:130|111:98,3,58.4999982147217,10|2|10|2,2:2|1:2|2:2|1:2,0:0:0:0:
165,45,90378,6,0,B|237:42|206:68|290:67,3,116.999996429443,12|12|12|12,1:2|1:2|1:2|1:2,0:0:0:0:
349,6,91449,1,8,1:3:0:0:
411,75,91602,6,0,P|439:79|468:84,2,58.4999982147217,6|2|10,2:2|1:2|2:2,0:0:0:0:
342,138,92061,1,2,1:2:0:0:
407,204,92214,2,0,P|420:254|416:275,3,58.4999982147217,10|2|10|2,2:2|1:2|2:2|1:2,0:0:0:0:
333,296,92826,6,0,P|326:340|320:370,2,58.4999982147217,10|2|10,2:2|1:2|2:2,0:0:0:0:
275,221,93285,1,2,1:2:0:0:
194,269,93438,2,0,P|188:240|184:211,3,58.4999982147217,10|2|10|2,2:2|1:2|2:2|1:2,0:0:0:0:
98,172,94051,2,0,P|61:186|27:185,2,58.4999982147217,10|2|10,2:2|1:2|2:2,0:0:0:0:
148,93,94510,1,2,1:2:0:0:
241,93,94663,2,0,L|247:170,3,58.4999982147217,10|2|10|2,2:2|1:2|2:2|1:2,0:0:0:0:
290,233,95276,6,0,P|350:253|414:226,3,116.999996429443,12|12|12|12,1:2|1:2|1:2|1:2,0:0:0:0:
471,87,96500,6,0,P|419:70|373:113,1,104,6|2,1:2|2:2,0:0:0:0:
340,169,96959,1,0,0:0:0:0:
340,169,97112,2,0,B|347:210|347:210|360:225|360:225|370:282,1,104,2|2,2:2|2:2,0:0:0:0:
330,342,97572,1,0,1:2:0:0:
255,301,97725,2,0,P|185:306|153:338,2,104,2|2|2,2:2|2:2|2:2,0:0:0:0:
442,209,98949,6,0,P|444:175|427:145,1,52,2|0,1:2|0:0,0:0:0:0:
380,113,99255,1,2,2:2:0:0:
380,113,99408,1,0,0:0:0:0:
380,113,99561,2,0,P|388:72|393:53,1,52,2|0,2:2|1:2,0:0:0:0:
319,18,99868,2,0,P|293:12|268:8,1,52,2|0,2:2|1:2,0:0:0:0:
189,34,100174,6,0,P|177:69|175:104,1,52,2|0,2:2|0:0,0:0:0:0:
220,153,100480,2,0,P|224:205|229:275,1,104,2|2,2:2|2:2,0:0:0:0:
4,216,101398,6,0,P|6:171|57:149,1,104,4|0,1:2|1:2,0:0:0:0:
140,168,101857,1,2,2:2:0:0:
140,168,102010,2,0,P|186:166|207:165,1,52,0|2,1:2|2:2,0:0:0:0:
268,128,102317,1,0,1:2:0:0:
268,128,102470,1,2,2:2:0:0:
318,195,102623,6,0,L|310:253,1,52,4|2,1:2|2:2,0:0:0:0:
390,268,102928,2,0,L|397:216,1,52,0|2,1:2|2:2,0:0:0:0:
438,146,103234,1,0,1:2:0:0:
438,146,103387,1,0,1:2:0:0:
389,78,103541,2,0,P|342:91|320:96,1,52,4|0,1:2|0:0,0:0:0:0:
258,69,103847,6,0,P|232:114|249:183,1,104,6|2,1:2|1:2,0:0:0:0:
262,243,104306,1,2,2:2:0:0:
187,280,104459,2,0,L|67:302,1,104,2|2,1:2|1:2,0:0:0:0:
15,252,104919,1,0,1:2:0:0:
15,252,105072,6,0,L|26:195,2,52,2|2|2,2:2|2:2|2:2,0:0:0:0:
119,122,105684,2,0,P|111:73|108:55,1,52,2|2,2:2|2:2,0:0:0:0:
176,19,105990,2,0,L|270:35,1,78,10|0,2:2|0:0,0:0:0:0:
288,62,106296,6,0,P|298:136|259:175,1,116.999996429443,4|8,1:2|2:2,0:0:0:0:
192,211,106755,1,2,2:2:0:0:
192,211,106908,2,0,P|203:268|217:339,1,116.999996429443,0|8,1:2|2:2,0:0:0:0:
290,380,107368,1,2,2:2:0:0:
343,304,107520,6,0,L|414:320,1,58.4999982147217,0|2,1:2|2:2,0:0:0:0:
497,327,107826,1,8,2:2:0:0:
472,236,107979,1,2,1:2:0:0:
472,236,108056,1,8,2:2:0:0:
472,236,108133,2,0,P|478:199|484:166,1,58.4999982147217,0|2,1:2|1:2,0:0:0:0:
395,142,108439,2,0,P|381:89|371:61,1,58.4999982147217,8|2,2:2|2:2,0:0:0:0:
451,24,108745,1,0,1:2:0:0:
300,134,109051,6,0,P|232:138|192:91,2,116.999996429443,8|0|8,2:2|1:2|2:2,0:0:0:0:
395,142,109817,1,2,2:2:0:0:
343,219,109970,6,0,P|351:262|352:291,1,58.4999982147217,12|10,2:2|2:2,0:0:0:0:
284,341,110276,2,0,P|288:366|289:379,2,29.2499991073609,8|8|10,2:2|2:2|2:2,0:0:0:0:
203,293,110582,2,0,P|157:298|135:311,1,58.4999982147217,8|10,2:3|3:2,0:0:0:0:
73,362,110888,1,8,1:2:0:0:
18,285,111041,6,0,L|46:154,1,116.999996429443,6|2,1:2|1:2,0:0:0:0:
22,79,111500,2,0,P|64:80|92:97,1,58.4999982147217,10|2,2:2|2:2,0:0:0:0:
138,158,111806,2,0,P|210:164|242:117,1,116.999996429443,2|10,1:2|2:2,0:0:0:0:
280,51,112266,6,0,B|321:71|339:71|339:71|325:137,1,116.999996429443,6|2,1:2|1:2,0:0:0:0:
402,180,112725,2,0,P|406:214|419:246,1,58.4999982147217,10|2,2:2|2:2,0:0:0:0:
358,311,113031,2,0,B|291:329|314:336|243:361,1,116.999996429443,2|10,1:2|2:2,0:0:0:0:
160,335,113490,6,0,P|131:263|157:215,1,116.999996429443,6|2,1:2|1:2,0:0:0:0:
209,163,113949,2,0,P|226:198|236:221,1,58.4999982147217,10|2,2:2|2:2,0:0:0:0:
309,161,114255,2,0,P|276:107|247:52,1,116.999996429443,2|10,1:2|2:2,0:0:0:0:
165,20,114715,6,0,P|108:33|74:95,2,116.999996429443,6|2|2,1:2|1:2|1:2,0:0:0:0:
250,59,115480,1,10,2:2:0:0:
324,3,115633,1,2,1:2:0:0:
381,77,115786,2,0,P|373:123|368:149,1,58.4999982147217,14|0,2:2|0:0,0:0:0:0:
296,192,116092,6,0,P|267:188|242:173,1,58.4999982147217,6|2,1:2|1:2,0:0:0:0:
168,124,116398,1,10,2:2:0:0:
168,124,116551,1,2,1:2:0:0:
161,219,116704,2,0,L|171:281,1,58.4999982147217,2|2,1:2|1:2,0:0:0:0:
84,314,117010,2,0,L|74:256,1,58.4999982147217,10|0,2:2|1:2,0:0:0:0:
21,172,117317,6,0,P|50:170|78:162,1,58.4999982147217,2|2,1:2|1:2,0:0:0:0:
173,176,117622,1,10,2:2:0:0:
173,176,117775,1,2,1:2:0:0:
134,90,117929,2,0,L|123:32,1,58.4999982147217,2|2,1:2|1:2,0:0:0:0:
214,12,118235,2,0,L|224:69,1,58.4999982147217,10|2,2:2|1:2,0:0:0:0:
297,129,118541,6,0,L|272:266,2,116.999996429443,4|0|8,1:2|1:2|1:2,0:0:0:0:
362,61,119306,1,8,1:2:0:0:
432,122,119459,2,0,L|427:159,3,29.2499991073609,8|8|8|8,1:2|1:2|1:2|1:2,0:0:0:0:
419,197,119766,6,0,B|360:171|298:216|298:216|273:281|200:275,1,233.999992858887,2|10,1:1|2:2,0:0:0:0:
147,214,120531,1,0,1:2:0:0:
143,199,120607,1,0,1:2:0:0:
141,184,120684,2,0,P|188:167|216:172,1,58.4999982147217,6|0,2:2|0:0,0:0:0:0:
295,136,120990,6,0,P|314:73|278:10,1,130,4|10,3:1|2:2,0:0:0:0:
200,72,121449,1,0,0:0:0:0:
124,0,121602,2,0,L|-7:39,1,130,2|10,1:2|2:2,0:0:0:0:
2,141,122061,1,2,2:2:0:0:
2,141,122215,6,0,P|42:149|60:194,1,65,2|0,1:2|0:0,0:0:0:0:
159,155,122521,2,0,P|160:197|133:227,1,65,10|0,2:2|0:0,0:0:0:0:
67,281,122827,2,0,L|74:351,2,65,2|2|10,1:2|2:2|2:2,0:0:0:0:
274,274,123439,6,0,B|326:284|326:284|348:303|348:303|409:312,1,130,0|10,1:2|2:2,0:0:0:0:
488,263,123898,1,2,2:2:0:0:
488,263,124051,2,0,P|502:217|497:184,1,65,2|0,1:2|0:0,0:0:0:0:
414,142,124357,2,0,L|308:167,1,97.5,10|0,2:2|0:0,0:0:0:0:
267,157,124664,6,0,P|214:142|155:183,1,130,2|10,1:2|2:2,0:0:0:0:
129,282,125123,1,2,2:2:0:0:
129,282,125276,2,0,P|142:335|138:361,1,65,2|0,1:2|0:0,0:0:0:0:
37,338,125582,1,10,2:2:0:0:
37,338,125658,1,8,2:2:0:0:
37,338,125735,1,0,1:2:0:0:
52,235,125888,6,0,B|60:182|60:182|79:159|79:159|89:97,1,130,4|10,1:2|2:2,0:0:0:0:
66,10,126347,1,2,2:2:0:0:
160,54,126500,2,0,L|301:24,1,130,2|10,1:2|2:2,0:0:0:0:
379,75,126959,1,0,1:2:0:0:
379,75,127112,6,0,P|359:116|345:135,1,65,2|0,1:2|0:0,0:0:0:0:
434,189,127419,2,0,P|449:225|467:246,1,65,10|0,2:2|0:0,0:0:0:0:
399,324,127725,2,0,P|347:335|322:350,2,65,2|2|14,1:2|2:2|2:2,0:0:0:0:
213,229,128337,6,0,P|268:225|290:238,2,65,14|10|0,1:2|1:2|1:2,0:0:0:0:
244,319,128796,2,0,B|162:332|202:354|114:367,1,130,14|8,1:2|1:2,0:0:0:0:
34,312,129255,1,2,1:2:0:0:
116,248,129408,6,0,L|92:99,1,130,14|2,1:2|1:2,0:0:0:0:
30,38,129868,2,0,P|5:66|1:111,1,65,10|6,1:2|1:2,0:0:0:0:
95,119,130174,2,0,L|169:105,1,65,10|0,1:2|1:2,0:0:0:0:
237,38,130480,2,0,L|243:69,3,32.5,10|0|2|0,1:2|1:2|1:2|1:2,0:0:0:0:
283,102,130786,6,0,P|338:103|359:87,1,65,6|0,1:2|0:0,0:0:0:0:
444,131,131092,2,0,L|426:246,1,97.5,10|0,1:2|0:0,0:0:0:0:
404,273,131398,2,0,P|350:260|312:271,1,65,2|0,1:2|0:0,0:0:0:0:
254,318,131704,1,10,1:2:0:0:
254,318,131857,1,2,2:2:0:0:
153,290,132010,6,0,L|78:302,1,65,2|2,1:2|1:2,0:0:0:0:
4,249,132316,1,10,1:2:0:0:
4,249,132469,1,2,2:2:0:0:
91,196,132622,2,0,L|103:118,1,65,2|0,1:2|0:0,0:0:0:0:
71,31,132929,2,0,P|138:34|177:65,1,97.5,10|0,1:2|0:0,0:0:0:0:
212,65,133235,6,0,L|278:54,1,65,0|0,1:2|0:0,0:0:0:0:
379,87,133541,1,10,1:2:0:0:
379,87,133694,1,2,2:2:0:0:
317,170,133847,2,0,P|310:209|321:237,1,65,2|0,1:2|0:0,0:0:0:0:
422,232,134153,2,0,L|402:337,1,97.5,10|0,1:2|1:2,0:0:0:0:
360,356,134459,6,0,P|314:361|288:371,1,65,2|0,1:2|0:0,0:0:0:0:
212,304,134766,2,0,P|194:257|198:220,1,65,10|2,1:2|2:2,0:0:0:0:
117,172,135072,2,0,P|53:172|16:209,1,97.5,2|0,1:2|0:0,0:0:0:0:
21,242,135378,2,0,P|32:273|35:310,1,65,10|0,1:2|1:2,0:0:0:0:
129,349,135684,6,0,B|193:322|167:310|263:276,1,130,4|10,1:2|1:2,0:0:0:0:
339,316,136143,1,2,2:2:0:0:
306,217,136296,2,0,P|315:161|319:133,1,65,2|0,1:2|0:0,0:0:0:0:
411,110,136602,2,0,P|399:53|395:25,1,65,10|0,1:2|0:0,0:0:0:0:
294,29,136908,6,0,P|207:42|183:87,3,130,6|10|2|14,1:2|1:2|1:2|1:2,0:0:0:0:
222,169,137980,1,2,1:2:0:0:
136,227,138133,6,0,B|91:262|91:262|107:338,1,130,14|0,1:2|1:2,0:0:0:0:
204,368,138592,2,0,P|273:362|295:291,1,130,14|10,1:2|1:2,0:0:0:0:
355,226,139051,1,2,1:2:0:0:
350,210,139128,1,0,1:2:0:0:
348,193,139204,6,0,B|397:179|424:186|424:186|444:216|494:222,1,130,14|0,1:2|1:2,0:0:0:0:
496,116,139664,2,0,P|496:73|477:48,1,65,10|4,1:2|1:2,0:0:0:0:
393,4,139970,1,10,1:2:0:0:
393,4,140123,1,2,1:2:0:0:
338,92,140276,2,0,L|345:145,3,32.5,10|0|2|0,1:2|1:2|1:2|1:2,0:0:0:0:
323,172,140582,6,0,P|266:197|238:189,1,65,6|0,1:2|0:0,0:0:0:0:
228,293,140888,2,0,P|177:256|170:227,1,65,10|0,2:2|0:0,0:0:0:0:
166,151,141194,2,0,L|191:9,1,130,2|10,1:2|2:2,0:0:0:0:
87,48,141653,2,0,L|76:119,1,65,2|0,1:2|1:2,0:0:0:0:
5,187,141959,1,2,2:2:0:0:
5,187,142112,2,0,L|22:254,1,65,10|2,2:2|2:2,0:0:0:0:
110,302,142419,6,0,P|198:300|235:247,2,130,2|10|2,1:2|2:2|1:2,0:0:0:0:
136,95,143337,2,0,P|130:36|124:16,1,65,10|0,2:2|0:0,0:0:0:0:
223,74,143643,2,0,P|267:88|298:91,1,65,2|0,1:2|0:0,0:0:0:0:
372,33,143949,2,0,L|366:72,1,32.5,10|0,2:2|0:0,0:0:0:0:
388,112,144102,6,0,P|375:183|364:251,1,130,2|2,1:2|2:2,0:0:0:0:
385,342,144561,2,0,P|335:343|310:318,1,65,10|0,2:2|0:0,0:0:0:0:
236,279,144868,2,0,B|156:296|198:313|106:327,1,130,2|8,1:2|2:2,0:0:0:0:
31,264,145327,1,2,1:2:0:0:
27,247,145403,1,0,1:2:0:0:
23,231,145480,6,0,P|76:196|148:213,1,130,6|8,1:2|2:2,0:0:0:0:
233,163,145939,1,2,1:2:0:0:
180,72,146092,2,0,B|149:42|149:42|166:144,1,130,2|8,1:2|2:2,0:0:0:0:
179,230,146551,1,2,1:2:0:0:
273,272,146704,6,0,P|324:256|341:235,1,65,2|2,1:2|2:2,0:0:0:0:
340,145,147010,1,10,2:2:0:0:
340,145,147164,1,2,2:2:0:0:
433,190,147317,2,0,L|477:187,3,32.5,10|8|8|8,2:2|2:2|2:2|2:2,0:0:0:0:
501,225,147623,1,14,2:2:0:0:
496,240,147699,1,8,2:2:0:0:
492,255,147776,1,8,2:2:0:0:
488,270,147852,1,8,2:2:0:0:
483,283,147929,6,0,B|410:295|448:313|355:333,1,116.999996429443,4|10,1:1|1:2,0:0:0:0:
305,266,148388,2,0,L|168:243,1,116.999996429443,2|0,2:2|0:0,0:0:0:0:
101,280,148847,2,0,P|109:328|114:356,1,58.4999982147217,10|0,1:2|0:0,0:0:0:0:
22,325,149153,5,2,1:2:0:0:
22,325,149306,2,0,P|11:258|60:209,1,116.999996429443,2|2,2:2|2:2,0:0:0:0:
97,148,149766,2,0,L|89:88,1,58.4999982147217,2|0,1:2|0:0,0:0:0:0:
176,56,150072,2,0,L|183:113,1,58.4999982147217,10|0,1:2|1:2,0:0:0:0:
231,194,150378,6,0,B|273:200|273:200|301:220|301:220|355:228,1,116.999996429443,2|10,1:2|1:2,0:0:0:0:
424,181,150837,1,2,2:2:0:0:
424,181,150990,2,0,P|431:222|414:259,1,58.4999982147217,2|0,1:2|0:0,0:0:0:0:
498,298,151296,2,0,P|465:324|425:328,1,58.4999982147217,10|0,1:2|0:0,0:0:0:0:
360,303,151602,6,0,L|232:328,1,116.999996429443,8|8,1:2|1:2,0:0:0:0:
155,299,152061,1,8,1:2:0:0:
81,356,152215,2,0,P|73:310|64:280,1,58.4999982147217,10|10,1:2|1:2,0:0:0:0:
13,224,152521,1,10,1:2:0:0:
19,210,152597,1,8,1:2:0:0:
26,197,152674,1,10,1:2:0:0:
96,135,152827,6,0,P|144:117|198:135,1,87.7499973220826,14|0,1:2|0:0,0:0:0:0:
212,156,153133,2,0,L|208:207,2,38.9999988098145,10|2|2,1:2|2:2|2:2,0:0:0:0:
267,128,153439,2,0,L|270:89,2,38.9999988098145,2|2|2,1:2|2:2|2:2,0:0:0:0:
311,173,153745,2,0,L|307:211,2,38.9999988098145,10|2|2,1:2|2:2|2:2,0:0:0:0:
361,136,154051,6,0,L|364:97,2,38.9999988098145,2|2|2,1:2|2:2|2:2,0:0:0:0:
404,180,154357,2,0,P|465:171|506:200,1,77.999997619629,10|2,1:2|2:2,0:0:0:0:
490,237,154664,2,0,L|496:327,1,77.999997619629,2|2,1:2|2:2,0:0:0:0:
453,360,154969,2,0,P|414:364|395:358,1,58.4999982147217,10|2,1:2|2:2,0:0:0:0:
373,262,155276,6,0,P|311:266|291:268,1,58.4999982147217,2|2,1:2|2:2,0:0:0:0:
258,340,155582,2,0,P|196:336|176:334,1,58.4999982147217,10|2,1:2|2:2,0:0:0:0:
122,280,155888,2,0,P|98:222|114:177,1,87.7499973220826,2|2,1:2|2:2,0:0:0:0:
130,161,156194,2,0,L|203:150,1,58.4999982147217,10|2,1:2|2:2,0:0:0:0:
253,86,156500,5,2,1:2:0:0:
321,149,156653,1,0,1:2:0:0:
377,74,156806,2,0,L|440:87,1,58.4999982147217,12|0,1:2|0:0,0:0:0:0:
509,28,157112,1,10,1:2:0:0:
509,28,157266,1,10,1:2:0:0:
412,188,157572,5,6,1:2:0:0:
238,243,162470,6,0,B|194:250|208:270|143:282,1,87.7499973220826,8|0,2:2|0:0,0:0:0:0:
113,267,162775,2,0,L|63:260,2,29.2499991073609,0|0|0,1:2|1:2|1:2,0:0:0:0:
75,192,163081,1,0,1:2:0:0:
75,192,163158,1,0,1:2:0:0:
75,192,163234,2,0,P|67:156|78:113,2,58.4999982147217,0|8|0,1:2|2:2|1:2,0:0:0:0:
157,145,163694,6,0,B|196:152|196:152|206:162|206:162|256:175,1,87.7499973220826,8|0,2:2|0:0,0:0:0:0:
272,203,164000,2,0,L|303:212,1,29.2499991073609,2|2,2:2|2:2,0:0:0:0:
344,194,164153,2,0,L|392:205,4,29.2499991073609,2|2|2|2|0,2:2|2:2|2:2|2:2|0:0,0:0:0:0:
425,147,164612,1,8,2:2:0:0:
425,147,164765,1,8,2:2:0:0:
451,56,164919,6,0,L|311:74,1,116.999996429443,8|0,2:2|1:2,0:0:0:0:
290,85,165301,1,0,1:2:0:0:
290,85,165378,2,0,L|222:93,1,58.4999982147217,0|0,1:2|1:2,0:0:0:0:
195,120,165607,1,0,1:2:0:0:
195,120,165684,2,0,L|203:188,1,58.4999982147217,0|8,1:2|2:2,0:0:0:0:
94,251,166143,6,0,B|143:261|143:261|164:284|164:284|221:299,1,116.999996429443,8|0,2:2|1:2,0:0:0:0:
277,343,166602,1,8,2:2:0:0:
293,348,166679,1,8,2:2:0:0:
306,354,166755,2,0,L|361:350,4,29.2499991073609,0|0|0|0|0,1:2|1:2|1:2|1:2|1:2,0:0:0:0:
372,287,167215,2,0,P|380:232|371:208,1,58.4999982147217,8|10,2:2|2:2,0:0:0:0:
313,163,167521,6,0,L|181:198,1,116.999996429443,14|8,2:2|2:2,0:0:0:0:
137,262,167980,1,2,1:2:0:0:
61,208,168133,2,0,P|41:160|76:84,1,116.999996429443,10|8,2:2|2:2,0:0:0:0:
130,38,168592,1,2,1:2:0:0:
204,94,168745,6,0,P|207:133|211:162,1,58.4999982147217,14|0,2:2|1:2,0:0:0:0:
293,110,169051,2,0,P|296:80|298:51,1,58.4999982147217,10|0,2:2|1:2,0:0:0:0:
370,111,169357,2,0,P|367:150|363:179,1,58.4999982147217,10|0,2:2|1:2,0:0:0:0:
380,218,169587,1,0,1:2:0:0:
380,218,169664,2,0,B|332:228|332:228|318:247|318:247|260:259,1,116.999996429443,14|4,2:2|1:2,0:0:0:0:
188,219,170123,5,0,0:0:0:0:
119,283,170276,2,0,L|45:291,1,58.4999982147217,0|0,1:2|0:0,0:0:0:0:
11,209,170582,2,0,L|69:202,1,58.4999982147217,8|8,1:2|1:2,0:0:0:0:
111,118,170888,2,0,L|158:113,2,29.2499991073609,8|8|8,1:2|1:2|1:2,0:0:0:0:
34,64,171194,5,2,2:2:0:0:
103,133,173030,6,0,L|104:79,3,29.2499991073609,8|8|8|8,1:2|1:2|1:2|1:2,0:0:0:0:
119,148,173337,1,8,1:2:0:0:
119,165,173414,1,8,1:2:0:0:
119,179,173490,2,0,L|118:223,1,29.2499991073609,8|8,1:2|1:2,0:0:0:0:
119,224,173643,6,0,B|160:210|194:224|194:224|216:265|261:261,1,130,4|10,3:1|2:2,0:0:0:0:
306,184,174102,1,0,0:0:0:0:
338,290,174255,2,0,L|471:263,1,130,2|10,1:2|2:2,0:0:0:0:
506,168,174715,1,2,2:2:0:0:
421,107,174868,6,0,L|412:188,1,65,2|0,1:2|0:0,0:0:0:0:
329,110,175174,2,0,L|336:45,1,65,10|0,2:2|0:0,0:0:0:0:
238,8,175479,1,2,1:2:0:0:
238,8,175632,1,2,2:2:0:0:
201,105,175785,2,0,P|165:103|133:89,1,65,10|0,2:2|0:0,0:0:0:0:
57,26,176092,6,0,B|10:58|10:58|47:153,1,130,0|10,1:2|2:2,0:0:0:0:
119,188,176551,1,2,2:2:0:0:
76,282,176704,2,0,L|11:274,1,65,2|0,1:2|0:0,0:0:0:0:
137,366,177010,2,0,L|201:373,1,65,10|0,2:2|0:0,0:0:0:0:
282,307,177317,6,0,B|330:302|330:302|360:313|360:313|432:306,1,130,2|10,1:2|2:2,0:0:0:0:
491,371,177776,1,2,2:2:0:0:
494,267,177929,2,0,L|500:193,1,65,2|0,1:2|0:0,0:0:0:0:
402,163,178235,2,0,L|341:176,2,32.5,10|8|0,2:2|2:2|1:2,0:0:0:0:
477,91,178541,6,0,L|335:59,1,130,4|10,1:2|2:2,0:0:0:0:
266,0,179000,1,2,2:2:0:0:
230,99,179153,2,0,L|241:172,1,65,2|0,1:2|0:0,0:0:0:0:
136,149,179459,2,0,L|126:84,1,65,10|0,2:2|1:2,0:0:0:0:
32,130,179766,6,0,B|23:182|23:182|46:212|46:212|40:268,1,130,2|10,1:2|2:2,0:0:0:0:
19,352,180225,1,0,0:0:0:0:
106,296,180378,2,0,P|153:295|186:315,1,65,2|2,1:2|2:2,0:0:0:0:
244,373,180684,1,14,2:2:0:0:
439,299,180990,6,0,L|507:296,2,65,12|8|0,1:2|1:2|1:2,0:0:0:0:
350,354,181449,2,0,P|331:291|366:223,1,130,12|8,1:2|1:2,0:0:0:0:
445,182,181908,1,2,1:2:0:0:
352,134,182061,6,0,L|218:146,1,130,14|2,1:2|1:2,0:0:0:0:
147,73,182521,2,0,P|155:10|156:-2,2,65,10|6|10,1:2|1:2|1:2,0:0:0:0:
56,123,182980,1,0,1:2:0:0:
65,136,183056,1,0,1:2:0:0:
74,148,183133,2,0,L|65:236,1,65,10|2,1:2|1:2,0:0:0:0:
135,291,183439,6,0,P|201:294|214:283,1,65,6|0,1:2|0:0,0:0:0:0:
274,226,183745,2,0,P|325:215|379:235,1,97.5,10|0,1:2|0:0,0:0:0:0:
398,269,184051,2,0,L|385:348,1,65,2|0,1:2|0:0,0:0:0:0:
491,328,184357,1,10,1:2:0:0:
491,328,184510,1,2,2:2:0:0:
482,224,184664,6,0,L|473:153,1,65,2|0,1:2|1:2,0:0:0:0:
392,94,184970,2,0,P|310:90|272:110,1,97.5,10|0,1:2|0:0,0:0:0:0:
267,137,185276,2,0,L|278:212,1,65,2|0,1:2|0:0,0:0:0:0:
192,262,185582,2,0,L|88:252,1,97.5,10|0,1:2|0:0,0:0:0:0:
66,209,185888,6,0,P|57:156|73:127,1,65,0|0,1:2|0:0,0:0:0:0:
120,61,186194,2,0,L|200:68,1,65,10|0,1:2|0:0,0:0:0:0:
283,33,186500,2,0,B|281:89|281:89|268:114|268:114|267:176,1,130,2|10,1:2|1:2,0:0:0:0:
320,248,186959,1,2,1:2:0:0:
400,182,187112,2,0,L|490:178,1,65,2|0,1:2|0:0,0:0:0:0:
494,283,187418,1,10,1:2:0:0:
494,283,187572,5,2,2:2:0:0:
408,341,187725,2,0,L|333:345,1,65,2|0,1:2|0:0,0:0:0:0:
249,299,188031,1,10,1:2:0:0:
238,311,188107,1,0,1:2:0:0:
228,324,188184,1,0,1:2:0:0:
156,248,188337,6,0,P|143:193|175:114,1,130,4|10,1:2|1:2,0:0:0:0:
250,62,188796,1,2,2:2:0:0:
154,20,188949,2,0,L|62:29,1,65,2|0,1:2|1:2,0:0:0:0:
16,101,189255,2,0,L|22:165,1,65,10|0,1:2|0:0,0:0:0:0:
106,226,189561,2,0,P|176:234|231:192,3,130,6|10|2|14,1:2|1:2|1:2|1:2,0:0:0:0:
288,121,190633,1,2,1:2:0:0:
374,178,190786,5,14,1:2:0:0:
294,244,190939,2,0,L|295:327,1,65,8|0,1:2|1:2,0:0:0:0:
384,363,191245,2,0,P|431:359|489:279,1,130,12|8,1:2|1:2,0:0:0:0:
457,200,191704,2,0,L|376:202,1,65,4|8,1:2|1:2,0:0:0:0:
321,125,192010,5,12,1:2:0:0:
326,109,192087,1,8,1:2:0:0:
332,93,192164,1,0,1:2:0:0:
338,78,192240,1,0,1:2:0:0:
345,63,192317,2,0,L|268:73,1,65,10|0,1:2|1:2,0:0:0:0:
196,10,192623,2,0,P|179:63|184:85,1,65,10|2,1:2|1:2,0:0:0:0:
85,113,192929,2,0,P|122:154|143:160,1,65,10|2,2:2|2:2,0:0:0:0:
223,201,193235,6,0,B|212:255|212:255|189:269|189:269|179:318,2,130,4|10|2,3:1|2:2|1:2,0:0:0:0:
216,96,194000,2,0,P|282:103|298:119,1,65,0|10,0:0|2:2,0:0:0:0:
374,141,194306,6,0,L|400:284,1,130,2|2,1:2|2:2,0:0:0:0:
448,359,194766,2,0,P|401:372|371:369,1,65,10|2,2:2|2:2,0:0:0:0:
295,319,195072,2,0,B|245:324|245:324|220:352|220:352|173:357,2,130,2|10|2,1:2|2:2|1:2,0:0:0:0:
384,266,195837,1,0,0:0:0:0:
299,203,195990,6,0,L|219:216,1,65,10|0,2:2|0:0,0:0:0:0:
153,148,196296,2,0,P|123:88|152:20,1,130,2|10,1:2|2:2,0:0:0:0:
231,83,196755,2,0,L|366:68,1,130,2|2,1:2|2:2,0:0:0:0:
454,112,197215,6,0,P|456:165|445:183,1,65,10|0,2:2|0:0,0:0:0:0:
358,220,197521,2,0,B|308:228|308:228|284:252|284:252|226:263,1,130,2|8,1:2|2:2,0:0:0:0:
145,215,197980,1,2,1:2:0:0:
138,229,198056,1,0,1:2:0:0:
132,244,198133,6,0,P|94:172|121:122,1,130,6|8,1:2|2:2,0:0:0:0:
199,78,198592,1,2,1:2:0:0:
286,133,198745,2,0,L|269:269,1,130,2|8,1:2|2:2,0:0:0:0:
344,334,199204,1,2,1:2:0:0:
442,300,199357,6,0,L|433:213,1,65,2|2,1:2|2:2,0:0:0:0:
392,140,199664,2,0,L|398:75,1,65,10|2,2:2|1:2,0:0:0:0:
384,30,199893,1,0,1:2:0:0:
384,30,199970,2,0,L|303:42,1,65,2|0,1:2|0:0,0:0:0:0:
228,93,200276,2,0,P|163:113|113:89,1,97.5,14|0,2:2|0:0,0:0:0:0:
90,81,200582,6,0,L|71:161,1,65,12|0,2:2|1:2,0:0:0:0:
172,179,200888,2,0,L|181:261,1,65,8|0,2:2|1:2,0:0:0:0:
75,255,201194,2,0,L|66:337,1,65,8|0,2:2|1:2,0:0:0:0:
166,347,201500,2,0,P|247:357|272:338,1,97.5,8|0,2:2|0:0,0:0:0:0:
286,308,201806,6,0,L|359:303,1,65,12|0,2:2|1:2,0:0:0:0:
452,281,202112,2,0,L|436:212,1,65,8|0,2:2|1:2,0:0:0:0:
352,167,202418,1,8,2:2:0:0:
352,167,202572,1,0,1:2:0:0:
429,99,202725,2,0,P|438:47|424:20,1,65,12|2,2:2|1:2,0:0:0:0:
334,67,203031,6,0,B|254:68|286:87|195:90,1,130,6|8,1:2|2:2,0:0:0:0:
133,14,203490,1,2,1:2:0:0:
108,115,203643,2,0,L|125:250,1,130,2|8,1:2|2:2,0:0:0:0:
78,337,204102,1,2,1:2:0:0:
89,348,204179,1,0,1:2:0:0:
101,358,204255,6,0,L|176:341,1,65,10|10,1:2|1:2,0:0:0:0:
265,319,204561,1,10,1:2:0:0:
75,40,206704,6,0,P|40:75|98:169,1,156,8|0,2:1|0:0,0:0:0:0:
131,102,207317,2,0,L|201:94,1,52,8|8,2:1|1:1,0:0:0:0:
249,46,207623,2,0,L|316:54,1,52,8|0,1:1|1:2,0:0:0:0:
362,107,207928,1,8,1:1:0:0:
362,107,208081,1,0,0:0:0:0:
426,159,208234,2,0,P|436:200|432:221,1,52,8|0,2:1|1:2,0:0:0:0:
384,275,208541,2,0,L|268:254,1,104,8|8,1:1|1:1,0:0:0:0:
202,265,209000,1,0,1:2:0:0:
202,265,209153,6,0,L|213:204,1,52,8|0,1:1|0:0,0:0:0:0:
128,210,209459,2,0,L|117:149,1,52,8|0,2:1|0:0,0:0:0:0:
187,112,209765,1,8,2:1:0:0:
187,112,209918,1,8,1:1:0:0:
240,48,210071,2,0,P|279:52|301:68,1,52,8|0,1:1|1:2,0:0:0:0:
369,79,210377,2,0,L|376:16,1,52,8|8,2:1|1:1,0:0:0:0:
457,38,210683,2,0,L|451:89,1,52,8|0,1:1|1:2,0:0:0:0:
402,158,210990,2,0,L|411:284,1,104,8|8,2:1|1:1,0:0:0:0:
348,317,211449,1,0,1:2:0:0:
277,272,211602,6,0,P|215:248|159:310,1,156,0|0,1:2|0:0,0:0:0:0:
78,326,212215,2,0,L|10:337,1,52,2|0,2:2|1:2,0:0:0:0:
20,251,212521,2,0,L|9:183,1,52,2|0,1:2|1:2,0:0:0:0:
71,142,212826,1,2,1:2:0:0:
71,142,212979,1,0,0:0:0:0:
18,77,213132,2,0,P|17:28|25:18,1,52,2|0,2:2|1:2,0:0:0:0:
101,27,213439,2,0,L|213:43,1,104,2|2,1:2|1:2,0:0:0:0:
258,104,213898,1,0,1:2:0:0:
330,63,214051,6,0,L|393:52,1,52,10|0,2:2|1:2,0:0:0:0:
433,118,214357,2,0,L|476:123,2,26,6|4|0,2:3|2:3|1:2,0:0:0:0:
360,158,214663,2,0,L|334:154,2,26,10|8|0,2:2|2:2|1:2,0:0:0:0:
423,212,214969,1,10,2:2:0:0:
366,272,215122,1,10,2:2:0:0:
366,272,215199,1,8,2:2:0:0:
366,272,215275,1,10,1:2:0:0:
