osu file format v14

[General]
AudioFilename: audio.mp3
AudioLeadIn: 0
PreviewTime: 53643
Countdown: 0
SampleSet: Soft
StackLeniency: 0.7
Mode: 0
LetterboxInBreaks: 0
WidescreenStoryboard: 1

[Editor]
Bookmarks: 10326,20581,30377,40020,53643,86704,96500,106296,119765,147928,157571,162469,168438,171194,204561
DistanceSpacing: 1.6
BeatDivisor: 4
GridSize: 32
TimelineZoom: 2.5

[Metadata]
Title:Gambling
TitleUnicode:ギャンブル
Artist:syudou
ArtistUnicode:syudou
Creator:DMK7
Version:Insane
Source:月が導く異世界道中
Tags:Vanya Vanya2 Simple- Gamble japanese rock jrock j-rock ツキミチ Tsukimichi: Tsukimichi Moonlit Fantasy -Moonlit Fantasy- tsuki ga michibiku isekai douchuu anime op opening male vocal
BeatmapID:3960318
BeatmapSetID:1912881

[Difficulty]
HPDrainRate:5
CircleSize:3.7
OverallDifficulty:8
ApproachRate:9
SliderMultiplier:1.65
SliderTickRate:1

[Events]
//Background and Video events
0,0,"keepgambling3new.jpg",0,0
//Break Periods
2,96959,100785
2,157966,160798
//Storyboard Layer 0 (Background)
//Storyboard Layer 1 (Fail)
//Storyboard Layer 2 (Pass)
//Storyboard Layer 3 (Foreground)
//Storyboard Layer 4 (Overlay)
//Storyboard Sound Samples

[TimingPoints]
990,306.122448979592,4,2,1,45,1,0
990,-142.857142857143,4,2,1,45,0,0
8336,-142.857142857143,4,2,1,55,0,0
10326,-71.4285714285714,4,2,1,75,0,0
10709,-71.4285714285714,4,2,1,5,0,0
10785,-90.9090909090909,4,2,1,75,0,0
14459,-83.3333333333333,4,2,1,75,0,0
14688,-83.3333333333333,4,2,1,5,0,0
14765,-83.3333333333333,4,2,1,75,0,0
14995,-83.3333333333333,4,2,1,5,0,0
15071,-83.3333333333333,4,2,1,75,0,0
15301,-83.3333333333333,4,2,1,5,0,0
15377,-83.3333333333333,4,2,1,75,0,0
15607,-83.3333333333333,4,2,1,75,0,0
15683,-90.9090909090909,4,2,1,75,0,0
19357,-83.3333333333333,4,2,1,75,0,0
19586,-83.3333333333333,4,2,1,5,0,0
19663,-83.3333333333333,4,2,1,75,0,0
19893,-83.3333333333333,4,2,1,5,0,0
19969,-83.3333333333333,4,2,1,75,0,0
20199,-83.3333333333333,4,2,1,5,0,0
20275,-83.3333333333333,4,2,1,75,0,0
20505,-83.3333333333333,4,2,1,75,0,0
20581,-125,4,2,1,60,0,0
28770,-125,4,2,1,5,0,0
28847,-125,4,2,1,60,0,0
30377,-100,4,2,1,65,0,0
30607,-100,4,2,1,5,0,0
30683,-100,4,2,1,65,0,0
30990,-100,4,2,1,65,0,0
31219,-100,4,2,1,5,0,0
31296,-100,4,2,1,65,0,0
33132,-90.9090909090909,4,2,1,65,0,0
33362,-90.9090909090909,4,2,1,5,0,0
33438,-90.9090909090909,4,2,1,65,0,0
33668,-90.9090909090909,4,2,1,5,0,0
33745,-100,4,2,1,65,0,0
35505,-100,4,2,1,5,0,0
35581,-100,4,2,1,65,0,0
36117,-100,4,2,1,5,0,0
36194,-100,4,2,1,65,0,0
37724,-90.9090909090909,4,2,1,65,0,0
37954,-90.9090909090909,4,2,1,5,0,0
38030,-333.333333333333,4,2,1,65,0,0
38260,-333.333333333333,4,2,1,5,0,0
38336,-90.9090909090909,4,2,1,65,0,0
38566,-90.9090909090909,4,2,1,5,0,0
38642,-166.666666666667,4,2,1,65,0,0
38872,-333.333333333333,4,2,1,5,0,0
38949,-90.9090909090909,4,2,1,65,0,0
40020,-125,4,2,1,50,0,0
40990,-125,4,2,1,5,0,0
41092,-125,4,2,1,50,0,0
43438,-125,4,2,1,5,0,0
43541,-125,4,2,1,50,0,0
44918,-111.111111111111,4,2,1,60,0,0
47367,-100,4,2,1,65,0,0
48821,-100,4,2,1,5,0,0
48898,-100,4,2,1,65,0,0
48974,-100,4,2,1,5,0,0
49051,-100,4,2,1,65,0,0
49127,-100,4,2,1,5,0,0
49204,-100,4,2,1,65,0,0
49816,-90.9090909090909,4,2,1,75,0,0
52648,-90.9090909090909,4,2,1,5,0,0
52724,-90.9090909090909,4,2,1,75,0,0
52954,-90.9090909090909,4,2,1,5,0,0
53030,-90.9090909090909,4,2,1,45,0,0
53183,-90.9090909090909,4,2,1,55,0,0
53336,-90.9090909090909,4,2,1,65,0,0
53490,-90.9090909090909,4,2,1,75,0,0
53643,-166.666666666667,4,2,1,60,0,0
54408,-71.4285714285715,4,2,1,75,0,0
54791,-71.4285714285715,4,2,1,5,0,0
54867,-86.9565217391304,4,2,1,80,0,1
55709,-86.9565217391304,4,2,1,5,0,1
55785,-86.9565217391304,4,2,1,80,0,1
56321,-86.9565217391304,4,2,1,5,0,1
56397,-86.9565217391304,4,2,1,80,0,1
57546,-86.9565217391304,4,2,1,5,0,1
57622,-86.9565217391304,4,2,1,80,0,1
58464,-86.9565217391304,4,2,1,5,0,1
58541,-86.9565217391304,4,2,1,80,0,1
61525,-86.9565217391304,4,2,1,5,0,1
61602,-86.9565217391304,4,2,1,80,0,1
62214,-80,4,2,1,80,0,1
62291,-80,4,2,1,5,0,1
62367,-80,4,2,1,85,0,1
62444,-80,4,2,1,5,0,1
62520,-80,4,2,1,85,0,1
63515,-80,4,2,1,5,0,1
63592,-80,4,2,1,85,0,1
64663,-86.9565217391304,4,2,1,85,0,1
65505,-86.9565217391304,4,2,1,5,0,1
65581,-86.9565217391304,4,2,1,80,0,1
67342,-86.9565217391304,4,2,1,5,0,1
67418,-86.9565217391304,4,2,1,80,0,1
68566,-86.9565217391304,4,2,1,5,0,1
68643,-86.9565217391304,4,2,1,80,0,1
71015,-86.9565217391304,4,2,1,5,0,1
71092,-86.9565217391304,4,2,1,80,0,1
71627,-86.9565217391304,4,2,1,5,0,1
71704,-86.9565217391304,4,2,1,80,0,1
72010,-80,4,2,1,80,0,1
72086,-80,4,2,1,5,0,1
72163,-80,4,2,1,85,0,1
72240,-80,4,2,1,5,0,1
72316,-80,4,2,1,85,0,1
73311,-80,4,2,1,5,0,1
73387,-80,4,2,1,85,0,1
74459,-86.9565217391304,4,2,1,85,0,1
75301,-86.9565217391304,4,2,1,5,0,1
75377,-86.9565217391304,4,2,1,80,0,1
77750,-86.9565217391304,4,2,1,5,0,1
77826,-86.9565217391304,4,2,1,80,0,1
81729,-86.9565217391304,4,2,1,5,0,1
81806,-86.9565217391304,4,2,1,80,0,1
86245,-71.4285714285714,4,2,1,75,0,1
86627,-71.4285714285714,4,2,1,5,0,1
86704,-90.9090909090909,4,2,1,75,0,0
90377,-83.3333333333333,4,2,1,75,0,0
90606,-83.3333333333333,4,2,1,5,0,0
90683,-83.3333333333333,4,2,1,75,0,0
90913,-83.3333333333333,4,2,1,5,0,0
90989,-83.3333333333333,4,2,1,75,0,0
91219,-83.3333333333333,4,2,1,5,0,0
91295,-83.3333333333333,4,2,1,75,0,0
91525,-83.3333333333333,4,2,1,75,0,0
91602,-90.9090909090909,4,2,1,75,0,0
95275,-83.3333333333333,4,2,1,75,0,0
95504,-83.3333333333333,4,2,1,5,0,0
95581,-83.3333333333333,4,2,1,75,0,0
95811,-83.3333333333333,4,2,1,5,0,0
95887,-83.3333333333333,4,2,1,75,0,0
96117,-83.3333333333333,4,2,1,5,0,0
96193,-83.3333333333333,4,2,1,75,0,0
96423,-83.3333333333333,4,2,1,75,0,0
96500,-142.857142857143,4,2,1,50,0,0
97954,-142.857142857143,4,2,1,5,0,0
98030,-142.857142857143,4,2,1,50,0,0
103541,-125,4,2,1,55,0,0
103847,-111.111111111111,4,2,1,60,0,0
106296,-100,4,2,1,65,0,0
106525,-100,4,2,1,5,0,0
106602,-100,4,2,1,65,0,0
107137,-100,4,2,1,5,0,0
107214,-100,4,2,1,65,0,0
109051,-90.9090909090909,4,2,1,65,0,0
109281,-90.9090909090909,4,2,1,5,0,0
109357,-90.9090909090909,4,2,1,65,0,0
109587,-90.9090909090909,4,2,1,5,0,0
109664,-100,4,2,1,65,0,0
111041,-95.2380952380952,4,2,1,60,0,0
112265,-90.9090909090909,4,2,1,65,0,0
112495,-90.9090909090909,4,2,1,5,0,0
112571,-90.9090909090909,4,2,1,65,0,0
113490,-86.9565217391304,4,2,1,70,0,0
114714,-83.3333333333333,4,2,1,75,0,0
116015,-83.3333333333333,4,2,1,5,0,0
116092,-100,4,2,1,70,0,0
118541,-90.9090909090909,4,2,1,75,0,0
118770,-90.9090909090909,4,2,1,5,0,0
118846,-90.9090909090909,4,2,1,75,0,0
119076,-90.9090909090909,4,2,1,5,0,0
119152,-90.9090909090909,4,2,1,45,0,0
119306,-90.9090909090909,4,2,1,55,0,0
119459,-90.9090909090909,4,2,1,65,0,0
119613,-90.9090909090909,4,2,1,75,0,0
119765,-166.666666666667,4,2,1,60,0,0
120224,-111.111111111111,4,2,1,60,0,0
120530,-71.4285714285715,4,2,1,75,0,0
120913,-71.4285714285715,4,2,1,5,0,0
120990,-86.9565217391304,4,2,1,80,0,1
121831,-86.9565217391304,4,2,1,5,0,1
121908,-86.9565217391304,4,2,1,80,0,1
122444,-86.9565217391304,4,2,1,5,0,1
122520,-86.9565217391304,4,2,1,80,0,1
123668,-86.9565217391304,4,2,1,5,0,1
123745,-86.9565217391304,4,2,1,80,0,1
124586,-86.9565217391304,4,2,1,5,0,1
124663,-86.9565217391304,4,2,1,80,0,1
127648,-86.9565217391304,4,2,1,5,0,1
127724,-86.9565217391304,4,2,1,80,0,1
128336,-80,4,2,1,85,0,1
128413,-80,4,2,1,5,0,1
128489,-80,4,2,1,85,0,1
128566,-80,4,2,1,5,0,1
128642,-80,4,2,1,85,0,1
129637,-80,4,2,1,5,0,1
129714,-80,4,2,1,85,0,1
130785,-86.9565217391304,4,2,1,80,0,1
131627,-86.9565217391304,4,2,1,5,0,1
131704,-86.9565217391304,4,2,1,80,0,1
132622,-80,4,2,1,85,0,1
132852,-80,4,2,1,5,0,1
132928,-80,4,2,1,85,0,1
133158,-80,4,2,1,5,0,1
133234,-86.9565217391304,4,2,1,80,0,1
134688,-86.9565217391304,4,2,1,5,0,1
134765,-86.9565217391304,4,2,1,80,0,1
137137,-86.9565217391304,4,2,1,5,0,1
137214,-86.9565217391304,4,2,1,80,0,1
137750,-86.9565217391304,4,2,1,5,0,1
137826,-86.9565217391304,4,2,1,80,0,1
138132,-80,4,2,1,85,0,1
138209,-80,4,2,1,5,0,1
138285,-80,4,2,1,85,0,1
138362,-80,4,2,1,5,0,1
138438,-80,4,2,1,85,0,1
139433,-80,4,2,1,5,0,1
139510,-80,4,2,1,85,0,1
140581,-86.9565217391304,4,2,1,80,0,1
141423,-86.9565217391304,4,2,1,5,0,1
141500,-86.9565217391304,4,2,1,80,0,1
143872,-86.9565217391304,4,2,1,5,0,1
143949,-86.9565217391304,4,2,1,80,0,1
147928,-90.9090909090909,4,2,1,75,0,0
149076,-90.9090909090909,4,2,1,5,0,0
149153,-90.9090909090909,4,2,1,75,0,0
151525,-90.9090909090909,4,2,1,5,0,0
151602,-90.9090909090909,4,2,1,45,0,0
151908,-90.9090909090909,4,2,1,55,0,0
152214,-90.9090909090909,4,2,1,75,0,0
152520,-90.9090909090909,4,2,1,65,0,0
153056,-90.9090909090909,4,2,1,5,0,0
153132,-90.9090909090909,4,2,1,75,0,0
157035,-90.9090909090909,4,2,1,5,0,0
157112,-90.9090909090909,4,2,1,75,0,0
157571,-142.857142857143,4,2,1,35,0,0
162469,-125,4,2,1,60,0,0
163387,-71.4285714285714,4,2,1,60,0,0
163464,-71.4285714285714,4,2,1,5,0,0
163694,-71.4285714285714,4,2,1,60,0,0
163770,-71.4285714285714,4,2,1,5,0,0
163847,-125,4,2,1,60,0,0
164612,-71.4285714285714,4,2,1,75,0,0
164689,-71.4285714285714,4,2,1,5,0,0
164765,-71.4285714285714,4,2,1,75,0,0
164842,-71.4285714285714,4,2,1,5,0,0
164918,-71.4285714285714,4,2,1,75,0,0
164995,-71.4285714285714,4,2,1,5,0,0
165071,-111.111111111111,4,2,1,65,0,0
165836,-71.4285714285714,4,2,1,65,0,0
165913,-71.4285714285714,4,2,1,5,0,0
166143,-71.4285714285714,4,2,1,65,0,0
166220,-71.4285714285714,4,2,1,5,0,0
166296,-111.111111111111,4,2,1,65,0,0
167214,-83.3333333333333,4,2,1,65,0,0
167367,-90.9090909090909,4,2,1,75,0,0
169969,-90.9090909090909,4,2,1,75,0,0
170199,-90.9090909090909,4,2,1,5,0,0
170275,-90.9090909090909,4,2,1,75,0,0
170505,-90.9090909090909,4,2,1,5,0,0
170581,-90.9090909090909,4,2,1,45,0,0
170734,-90.9090909090909,4,2,1,55,0,0
170887,-90.9090909090909,4,2,1,65,0,0
171041,-90.9090909090909,4,2,1,75,0,0
171194,-166.666666666667,4,2,1,60,0,0
172342,-166.666666666667,4,2,1,5,0,0
172418,-166.666666666667,4,2,1,60,0,0
173030,-99.9999999999999,4,2,1,75,0,0
173336,-90.9090909090909,4,2,1,75,0,0
173643,-86.9565217391304,4,2,1,80,0,1
173872,-86.9565217391304,4,2,1,5,0,1
173949,-86.9565217391304,4,2,1,80,0,1
174484,-86.9565217391304,4,2,1,5,0,1
174561,-86.9565217391304,4,2,1,80,0,1
175097,-86.9565217391304,4,2,1,5,0,1
175173,-86.9565217391304,4,2,1,80,0,1
176321,-86.9565217391304,4,2,1,5,0,1
176398,-86.9565217391304,4,2,1,80,0,1
177240,-86.9565217391304,4,2,1,5,0,1
177316,-86.9565217391304,4,2,1,80,0,1
180301,-86.9565217391304,4,2,1,5,0,1
180377,-86.9565217391304,4,2,1,80,0,1
180990,-80,4,2,1,85,0,1
181067,-80,4,2,1,5,0,1
181143,-80,4,2,1,85,0,1
181220,-80,4,2,1,5,0,1
181296,-80,4,2,1,85,0,1
182291,-80,4,2,1,5,0,1
182368,-80,4,2,1,85,0,1
183438,-86.9565217391304,4,2,1,80,0,1
184280,-86.9565217391304,4,2,1,5,0,1
184357,-86.9565217391304,4,2,1,80,0,1
186117,-86.9565217391304,4,2,1,5,0,1
186194,-86.9565217391304,4,2,1,80,0,1
187342,-86.9565217391304,4,2,1,5,0,1
187418,-86.9565217391304,4,2,1,80,0,1
189791,-86.9565217391304,4,2,1,5,0,1
189867,-86.9565217391304,4,2,1,80,0,1
190403,-86.9565217391304,4,2,1,5,0,1
190479,-86.9565217391304,4,2,1,80,0,1
190785,-80,4,2,1,85,0,1
190862,-80,4,2,1,5,0,1
190938,-80,4,2,1,85,0,1
191015,-80,4,2,1,5,0,1
191091,-80,4,2,1,85,0,1
193234,-86.9565217391304,4,2,1,80,0,1
194076,-86.9565217391304,4,2,1,5,0,1
194153,-86.9565217391304,4,2,1,80,0,1
196525,-86.9565217391304,4,2,1,5,0,1
196602,-86.9565217391304,4,2,1,80,0,1
200505,-86.9565217391304,4,2,1,5,0,1
200581,-86.9565217391304,4,2,1,80,0,1
204561,-100,4,2,1,80,0,0
206704,-142.857142857143,4,2,1,35,0,0
211602,-142.857142857143,4,2,1,55,0,0
215275,-166.666666666667,4,2,1,55,0,0

[Colours]
Combo1 : 152,87,67
Combo2 : 202,181,26
Combo3 : 112,112,58
Combo4 : 57,113,113

[HitObjects]
56,151,990,6,0,P|117:156|154:106,1,115.49999647522,2|2,2:2|2:2,0:0:0:0:
182,33,1449,1,0,0:0:0:0:
192,47,1602,2,0,P|228:56|255:65,1,57.7499982376099,2|0,2:2|1:2,0:0:0:0:
313,135,1908,1,2,1:2:0:0:
364,52,2061,1,0,1:2:0:0:
445,125,2215,6,0,P|459:179|474:237,2,115.49999647522,2|2|2,1:2|2:2|1:2,0:0:0:0:
370,59,2980,1,0,1:2:0:0:
370,59,3056,1,0,1:2:0:0:
370,59,3133,2,0,P|360:92|350:127,1,57.7499982376099,2|0,1:2|1:2,0:0:0:0:
282,188,3439,6,0,P|240:176|205:165,1,57.7499982376099,2|0,1:2|0:0,0:0:0:0:
185,99,3745,2,0,P|157:106|126:114,1,57.7499982376099,2|0,2:2|0:0,0:0:0:0:
20,182,4051,2,0,P|75:179|109:232,1,115.49999647522,2|2,2:2|1:2,0:0:0:0:
45,317,4510,1,0,1:2:0:0:
57,327,4664,6,0,P|93:315|132:305,1,57.7499982376099,2|0,2:2|1:2,0:0:0:0:
140,304,4893,1,0,1:2:0:0:
140,304,4970,1,2,1:2:0:0:
203,228,5123,1,0,1:2:0:0:
214,240,5276,2,0,P|274:257|341:273,1,115.49999647522,2|2,2:2|1:2,0:0:0:0:
466,181,5735,1,0,1:2:0:0:
466,181,5811,1,0,0:0:0:0:
466,181,5888,6,0,P|400:174|367:213,1,115.49999647522,2|2,1:2|2:2,0:0:0:0:
472,324,6347,1,0,0:0:0:0:
459,314,6500,2,0,P|447:277|434:237,1,57.7499982376099,2|0,2:2|1:2,0:0:0:0:
378,355,6806,1,2,1:2:0:0:
312,279,6959,1,0,1:2:0:0:
226,344,7112,6,0,P|168:331|96:317,2,115.49999647522,2|2|2,1:2|2:2|1:2,0:0:0:0:
318,286,7878,1,0,1:2:0:0:
318,286,7954,1,0,1:2:0:0:
318,286,8031,2,0,P|328:250|336:224,1,57.7499982376099,2|0,1:2|1:2,0:0:0:0:
416,167,8337,6,0,L|431:208,3,28.874999118805,2|0|0|0,1:2|0:0|1:2|1:2,0:0:0:0:
358,87,8643,2,0,L|374:49,3,28.874999118805,10|8|0|0,2:2|2:2|1:2|1:2,0:0:0:0:
282,155,8949,1,10,2:2:0:0:
261,150,9026,1,8,2:2:0:0:
240,145,9102,1,0,1:2:0:0:
219,140,9179,1,0,1:2:0:0:
196,134,9255,2,0,P|153:125|120:116,1,57.7499982376099,2|2,2:2|2:2,0:0:0:0:
9,91,9561,5,2,2:1:0:0:
17,99,10327,5,0,1:2:0:0:
17,99,10403,1,0,1:2:0:0:
17,99,10480,2,0,B|41:153|41:153|33:193|33:193|64:261,1,173.24999471283,4|0,2:2|0:0,0:0:0:0:
98,332,10786,6,0,B|143:341|143:341|198:298,1,90.7500027694703,4|2,2:1|1:2,0:0:0:0:
263,165,11092,1,10,2:2:0:0:
138,221,11245,1,2,1:2:0:0:
138,221,11321,1,0,1:2:0:0:
138,221,11398,2,0,P|192:233|238:244,1,90.7500027694703,10|2,2:2|1:2,0:0:0:0:
333,65,11704,2,0,P|279:77|233:88,1,90.7500027694703,10|2,2:2|1:2,0:0:0:0:
85,129,12010,5,10,2:2:0:0:
140,33,12164,1,2,1:2:0:0:
140,33,12240,1,0,1:2:0:0:
140,33,12317,2,0,P|158:85|176:133,1,90.7500027694703,10|2,2:2|1:2,0:0:0:0:
234,285,12623,2,0,P|249:242|264:199,1,90.7500027694703,10|2,2:2|1:2,0:0:0:0:
276,176,12852,1,2,1:2:0:0:
276,176,12929,2,0,P|316:147|368:168,1,90.7500027694703,10|2,2:2|1:2,0:0:0:0:
500,259,13235,6,0,P|456:265|422:237,1,90.7500027694703,10|2,2:2|1:2,0:0:0:0:
451,84,13541,2,0,P|466:127|482:169,1,90.7500027694703,10|2,2:2|1:2,0:0:0:0:
296,68,13847,1,10,2:2:0:0:
362,162,14000,1,2,1:2:0:0:
362,162,14077,1,0,1:2:0:0:
362,162,14153,2,0,L|376:112,3,45.3750013847352,10|8|2|0,2:2|2:2|1:2|1:2,0:0:0:0:
330,242,14459,6,0,P|254:258|162:281,1,148.49999546814,12|0,1:2|0:0,0:0:0:0:
170,290,14766,6,0,P|242:272|314:257,1,148.49999546814,12|0,1:2|0:0,0:0:0:0:
337,263,15072,6,0,P|261:279|169:302,1,148.49999546814,12|0,1:2|0:0,0:0:0:0:
166,313,15378,6,0,P|238:295|310:280,1,148.49999546814,12|8,1:2|1:3,0:0:0:0:
410,313,15684,6,0,P|433:265|412:215,1,90.7500027694703,6|2,2:2|1:2,0:0:0:0:
330,92,15990,1,10,2:2:0:0:
289,191,16143,1,2,1:2:0:0:
289,191,16220,1,2,1:2:0:0:
289,191,16296,2,0,P|333:180|377:170,1,90.7500027694703,10|2,2:2|1:2,0:0:0:0:
482,16,16602,2,0,P|438:27|394:37,1,90.7500027694703,10|2,2:2|1:2,0:0:0:0:
180,95,16908,5,10,2:2:0:0:
294,198,17061,1,2,1:2:0:0:
294,198,17138,1,0,1:2:0:0:
294,198,17215,2,0,P|278:143|265:95,1,90.7500027694703,10|2,2:2|1:2,0:0:0:0:
153,0,17521,2,0,P|101:22|89:82,1,90.7500027694703,10|2,2:2|1:2,0:0:0:0:
85,80,17750,1,2,1:2:0:0:
85,80,17827,2,0,P|97:123|109:167,1,90.7500027694703,10|2,2:2|1:2,0:0:0:0:
212,342,18133,6,0,P|139:324|103:318,1,90.7500027694703,10|2,2:2|1:2,0:0:0:0:
0,268,18439,2,0,P|44:258|88:247,1,90.7500027694703,10|2,2:2|1:2,0:0:0:0:
220,140,18745,1,10,2:2:0:0:
178,242,18898,1,2,1:2:0:0:
178,242,18975,1,0,1:2:0:0:
178,242,19051,2,0,L|156:183,3,45.3750013847352,10|8|2|0,2:2|2:2|1:2|1:2,0:0:0:0:
52,162,19357,6,0,P|68:86|91:-6,1,148.49999546814,12|0,1:2|0:0,0:0:0:0:
100,2,19664,6,0,P|82:74|67:146,1,148.49999546814,12|0,1:2|0:0,0:0:0:0:
73,169,19970,6,0,P|89:93|112:1,1,148.49999546814,12|0,1:2|0:0,0:0:0:0:
124,0,20276,6,0,P|106:72|91:144,1,148.49999546814,12|8,1:2|1:3,0:0:0:0:
0,233,20582,6,0,B|40:245|40:245|58:279|58:279|132:297,1,132,6|8,1:2|2:2,0:0:0:0:
169,369,21041,1,2,1:2:0:0:
169,369,21118,1,0,1:2:0:0:
169,369,21194,2,0,P|204:357|252:342,1,66,2|0,1:2|1:2,0:0:0:0:
315,286,21500,2,0,P|280:274|232:259,1,66,10|2,2:2|1:2,0:0:0:0:
143,151,21806,6,0,P|177:125|213:135,1,66,2|0,1:2|1:2,0:0:0:0:
122,240,22112,2,0,P|85:227|67:191,1,66,10|0,2:2|1:2,0:0:0:0:
206,208,22419,2,0,P|223:256|252:339,1,132,2|8,1:2|2:2,0:0:0:0:
373,377,22878,1,2,1:2:0:0:
373,377,22954,1,0,1:2:0:0:
373,377,23031,6,0,P|389:332|399:296,1,66,2|2,1:2|1:2,0:0:0:0:
480,258,23337,2,0,P|464:213|454:177,1,66,10|2,2:2|1:2,0:0:0:0:
360,160,23643,2,0,P|424:164|465:115,1,132,2|10,1:2|2:2,0:0:0:0:
373,54,24102,1,2,1:2:0:0:
373,54,24179,1,0,1:2:0:0:
373,54,24255,2,0,P|331:67|300:77,1,66,2|2,1:2|1:2,0:0:0:0:
252,158,24561,2,0,P|210:145|179:135,1,66,10|0,2:2|1:2,0:0:0:0:
118,66,24868,1,2,1:2:0:0:
11,140,25021,5,8,1:1:0:0:
0,127,25174,1,8,2:1:0:0:
79,228,25327,1,2,1:2:0:0:
79,228,25403,1,0,1:2:0:0:
79,228,25480,6,0,P|96:162|115:88,1,132,2|8,1:2|2:2,0:0:0:0:
193,3,25939,1,2,1:2:0:0:
193,3,26092,2,0,P|206:49|219:86,1,66,2|0,1:2|1:2,0:0:0:0:
180,196,26398,2,0,P|222:183|253:173,1,66,10|2,2:2|1:2,0:0:0:0:
273,173,26628,1,0,1:2:0:0:
273,173,26704,5,2,1:2:0:0:
339,81,26857,1,2,1:2:0:0:
411,186,27010,2,0,P|400:224|388:264,1,66,10|0,2:2|1:2,0:0:0:0:
437,327,27317,2,0,P|385:284|310:324,1,132,2|8,1:2|2:2,0:0:0:0:
258,371,27776,1,2,1:2:0:0:
258,371,27852,1,0,1:2:0:0:
258,371,27929,6,0,P|212:358|176:352,1,66,2|2,1:2|1:2,0:0:0:0:
66,273,28235,2,0,P|77:306|90:348,1,66,10|2,2:2|1:2,0:0:0:0:
171,238,28541,2,0,P|154:189|136:137,1,99,2|0,1:2|0:0,0:0:0:0:
127,116,28847,1,10,2:2:0:0:
21,72,29000,1,2,1:2:0:0:
129,23,29153,6,0,P|167:33|203:43,1,66,10|0,2:2|1:2,0:0:0:0:
278,112,29459,1,10,2:2:0:0:
301,105,29536,1,8,2:2:0:0:
325,98,29612,1,0,1:2:0:0:
349,91,29689,1,0,1:2:0:0:
370,84,29766,2,0,L|444:57,1,66,10|2,2:2|1:2,0:0:0:0:
401,185,30072,1,10,2:2:0:0:
502,101,30225,1,2,1:2:0:0:
479,216,30378,6,0,P|421:234|353:257,1,123.75,6|0,1:2|0:0,0:0:0:0:
290,286,30684,2,0,P|281:333|322:362,1,82.5,8|2,2:2|2:2,0:0:0:0:
317,188,30990,6,0,P|259:206|191:229,1,123.75,0|0,1:2|0:0,0:0:0:0:
127,253,31296,2,0,P|103:220|115:182,1,82.5,8|2,2:2|2:2,0:0:0:0:
213,63,31602,6,0,P|199:107|181:163,1,82.5,0|2,1:2|2:2,0:0:0:0:
139,11,31908,1,8,2:2:0:0:
295,114,32061,1,2,1:2:0:0:
295,114,32138,1,8,2:2:0:0:
295,114,32215,2,0,P|339:102|385:89,1,82.5,0|2,1:2|1:2,0:0:0:0:
504,159,32521,1,8,2:2:0:0:
441,19,32674,1,2,2:2:0:0:
386,190,32827,1,0,1:2:0:0:
386,190,33133,6,0,B|358:237|358:237|369:276|369:276|344:330,1,136.125004154205,8|0,2:2|0:0,0:0:0:0:
326,327,33439,2,0,B|343:289|343:289|332:250|332:250|358:200,1,136.125004154205,0|0,1:2|0:0,0:0:0:0:
323,131,33745,1,8,2:2:0:0:
314,118,33898,1,2,2:2:0:0:
475,32,34051,6,0,L|461:77,3,41.25,8|8|10|8,2:2|2:2|2:2|2:2,0:0:0:0:
398,0,34357,2,0,L|384:45,3,41.25,8|8|10|8,2:2|2:2|2:3|2:3,0:0:0:0:
314,118,34664,2,0,L|300:73,3,41.25,8|8|10|8,2:2|2:2|2:3|2:3,0:0:0:0:
237,150,34970,2,0,L|223:105,1,41.25,8|8,2:2|2:2,0:0:0:0:
190,9,35123,1,10,2:2:0:0:
190,9,35199,1,8,2:2:0:0:
190,9,35276,6,0,P|124:19|91:73,1,123.75,4|0,1:2|0:0,0:0:0:0:
73,138,35582,2,0,P|87:186|99:232,1,82.5,8|2,2:2|2:2,0:0:0:0:
165,381,35888,6,0,P|181:325|203:253,1,123.75,0|0,1:2|0:0,0:0:0:0:
226,189,36194,2,0,P|270:175|313:202,1,82.5,8|2,2:2|2:2,0:0:0:0:
406,321,36500,6,0,P|358:307|309:295,1,82.5,0|2,1:2|2:2,0:0:0:0:
477,214,36806,1,8,2:2:0:0:
363,127,36959,1,2,2:2:0:0:
363,127,37036,1,0,1:2:0:0:
363,127,37112,2,0,P|377:172|390:215,1,82.5,0|2,1:2|2:2,0:0:0:0:
480,122,37419,2,0,P|468:82|455:43,1,82.5,8|2,2:2|2:2,0:0:0:0:
343,31,37725,6,0,B|296:49|296:49|278:87|278:87|214:107,1,136.125004154205,4|0,1:2|0:0,0:0:0:0:
164,125,38031,2,0,L|127:118,1,37.1249988670349,8|0,2:2|0:0,0:0:0:0:
39,117,38337,6,0,B|51:165|51:165|86:188|86:188|98:254,1,136.125004154205,6|0,1:2|0:0,0:0:0:0:
112,309,38643,2,0,L|189:286,1,74.2499977340699,8|0,2:2|0:0,0:0:0:0:
256,256,38949,2,0,L|268:209,2,45.3750013847352,8|8|0,2:2|2:2|1:2,0:0:0:0:
222,369,39255,1,12,2:2:0:0:
181,197,39408,1,0,1:2:0:0:
181,197,39485,1,0,1:2:0:0:
181,197,39561,1,8,1:2:0:0:
322,335,39715,1,8,1:2:0:0:
322,335,40021,6,0,P|335:280|354:190,1,132,6|0,1:2|1:2,0:0:0:0:
442,182,40480,2,0,L|430:239,2,44,2|2|2,1:2|2:2|2:2,0:0:0:0:
476,65,40786,1,10,2:2:0:0:
476,65,41092,6,0,L|419:45,2,44,2|2|2,1:2|2:2|2:2,0:0:0:0:
376,118,41398,1,2,2:2:0:0:
364,130,41500,2,0,L|306:150,1,44,2|2,2:2|2:2,0:0:0:0:
270,54,41704,1,2,1:2:0:0:
279,39,41806,2,0,L|320:24,1,44,2|2,2:2|2:2,0:0:0:0:
229,137,42010,2,0,L|252:209,2,66,10|2|2,2:2|2:2|1:2,0:0:0:0:
161,52,42470,6,0,P|111:45|47:112,1,132,2|0,1:2|1:2,0:0:0:0:
25,168,42929,2,0,L|6:229,2,44,2|2|2,1:2|2:2|2:2,0:0:0:0:
131,127,43235,1,10,2:2:0:0:
131,127,43541,6,0,L|147:181,2,44,2|2|2,1:2|2:2|2:2,0:0:0:0:
213,213,43847,1,2,2:2:0:0:
222,228,43949,2,0,L|206:282,1,44,2|2,2:2|2:2,0:0:0:0:
131,323,44153,1,2,1:2:0:0:
117,310,44255,2,0,L|101:256,1,44,2|2,2:2|2:2,0:0:0:0:
212,365,44459,2,0,P|269:349|351:328,1,132,12|2,2:2|1:2,0:0:0:0:
450,298,44919,6,0,P|385:311|337:245,1,148.49999546814,6|2,1:2|1:2,0:0:0:0:
326,138,45378,1,10,2:2:0:0:
418,227,45531,1,2,1:2:0:0:
418,227,45607,1,0,1:2:0:0:
418,227,45684,2,0,P|431:177|439:144,1,74.2499977340699,2|0,1:2|1:2,0:0:0:0:
472,26,45990,1,10,2:2:0:0:
392,77,46143,6,0,P|320:93|223:116,1,148.49999546814,2|2,1:2|1:2,0:0:0:0:
100,37,46602,1,10,2:2:0:0:
163,129,46755,1,6,2:3:0:0:
163,129,46832,1,4,2:3:0:0:
163,129,46908,2,0,L|174:87,3,37.1249988670349,6|4|8|8,2:3|2:3|2:3|2:3,0:0:0:0:
71,140,47215,2,0,L|60:182,1,37.1249988670349,8|8,2:3|2:3,0:0:0:0:
0,273,47368,6,0,B|64:218|64:218|158:251,1,165,6|2,1:2|1:2,0:0:0:0:
286,317,47827,1,10,2:2:0:0:
184,373,47980,1,2,1:2:0:0:
184,373,48056,1,0,1:2:0:0:
184,373,48133,2,0,P|197:327|208:287,1,82.5,2|0,1:2|1:2,0:0:0:0:
238,183,48439,1,10,2:2:0:0:
137,243,48592,6,0,B|117:166|117:166|111:164|111:164|86:73,1,165,2|2,1:2|1:2,0:0:0:0:
10,1,49051,1,10,2:2:0:0:
158,24,49204,1,2,1:2:0:0:
158,24,49281,1,0,1:2:0:0:
158,24,49357,2,0,P|172:74|184:114,1,82.5,2|0,1:2|1:2,0:0:0:0:
246,191,49664,1,12,2:2:0:0:
246,191,49740,1,0,1:2:0:0:
246,191,49817,2,0,L|264:139,1,45.3750013847352,2|0,1:2|1:2,0:0:0:0:
292,47,49970,6,0,B|334:25|334:25|373:49,1,90.7500027694703,14|0,1:2|1:2,0:0:0:0:
512,146,50276,1,8,1:2:0:0:
460,29,50429,1,2,1:2:0:0:
460,29,50505,1,0,1:2:0:0:
460,29,50582,2,0,P|445:78|427:129,1,90.7500027694703,10|0,1:2|1:2,0:0:0:0:
326,248,50888,2,0,P|375:236|417:226,1,90.7500027694703,8|2,1:2|1:2,0:0:0:0:
444,225,51118,1,0,1:2:0:0:
444,225,51194,5,14,1:2:0:0:
332,159,51347,1,0,1:2:0:0:
435,311,51500,1,10,1:2:0:0:
432,115,51653,1,0,1:2:0:0:
326,248,51806,2,0,P|268:238|216:229,1,90.7500027694703,10|0,1:2|1:2,0:0:0:0:
76,304,52112,2,0,P|125:311|156:263,1,90.7500027694703,14|0,1:2|1:2,0:0:0:0:
222,156,52419,6,0,B|183:166|183:166|158:201|158:201|121:202|96:223,1,136.125004154205,4|0,1:2|0:0,0:0:0:0:
31,205,52725,2,0,P|-9:156|30:86,1,136.125004154205,0|0,1:2|0:0,0:0:0:0:
73,36,53031,2,0,L|126:44,3,45.3750013847352,8|8|8|8,1:2|1:2|1:2|1:2,0:0:0:0:
222,74,53337,1,8,1:2:0:0:
222,74,53414,1,8,1:2:0:0:
222,74,53490,2,0,L|276:61,1,45.3750013847352,8|8,1:2|1:2,0:0:0:0:
392,35,53643,5,2,1:1:0:0:
400,42,54408,5,0,1:2:0:0:
400,42,54485,1,0,1:2:0:0:
400,42,54561,2,0,P|467:98|438:175,1,173.24999471283,6|0,2:2|0:0,0:0:0:0:
377,215,54868,6,0,P|393:276|406:323,1,94.8750018095971,4|0,3:1|0:0,0:0:0:0:
270,167,55174,2,0,P|280:128|344:109,1,94.8750018095971,10|0,2:2|0:0,0:0:0:0:
284,288,55480,2,0,P|225:275|141:259,1,142.312502714396,2|0,1:2|0:0,0:0:0:0:
111,253,55786,1,10,2:2:0:0:
142,380,55939,1,2,2:2:0:0:
25,273,56092,6,0,P|22:218|58:178,1,94.8750018095971,2|0,1:2|0:0,0:0:0:0:
193,55,56398,2,0,P|174:117|158:168,1,94.8750018095971,10|0,2:2|0:0,0:0:0:0:
91,34,56704,1,2,1:2:0:0:
263,127,56857,1,2,2:2:0:0:
111,253,57010,2,0,P|92:191|79:147,1,94.8750018095971,10|0,2:2|0:0,0:0:0:0:
216,32,57317,6,0,B|265:12|265:12|319:45,1,94.8750018095971,0|0,1:2|0:0,0:0:0:0:
448,161,57623,1,10,2:2:0:0:
387,14,57776,1,2,2:2:0:0:
263,127,57929,2,0,P|312:116|374:100,1,94.8750018095971,2|0,1:2|0:0,0:0:0:0:
512,260,58235,2,0,P|441:245|351:226,1,142.312502714396,10|0,2:2|0:0,0:0:0:0:
295,218,58541,6,0,B|263:259|263:259|289:307,1,94.8750018095971,2|0,1:2|0:0,0:0:0:0:
357,141,58847,1,10,2:2:0:0:
201,194,59000,1,2,2:2:0:0:
362,266,59153,2,0,P|415:253|467:240,1,94.8750018095971,2|0,1:2|0:0,0:0:0:0:
508,62,59459,1,10,2:2:0:0:
508,62,59536,1,8,2:2:0:0:
508,62,59612,2,0,L|446:79,1,47.4375009047985,0|0,1:2|1:2,0:0:0:0:
357,141,59766,6,0,P|293:127|243:117,1,94.8750018095971,4|0,1:2|0:0,0:0:0:0:
112,47,60072,1,10,2:2:0:0:
101,33,60225,1,2,2:2:0:0:
165,180,60378,2,0,P|181:119|191:76,1,94.8750018095971,2|0,1:2|0:0,0:0:0:0:
40,176,60684,2,0,P|52:222|64:270,1,94.8750018095971,10|0,2:2|1:2,0:0:0:0:
78,297,60914,1,0,1:2:0:0:
78,297,60990,6,0,P|136:329|175:313,1,94.8750018095971,2|0,1:2|0:0,0:0:0:0:
321,195,61296,2,0,P|280:192|235:237,1,94.8750018095971,10|0,2:2|0:0,0:0:0:0:
263,365,61602,1,2,1:2:0:0:
159,236,61755,1,2,2:2:0:0:
308,281,61908,2,0,P|367:268|416:257,1,94.8750018095971,14|0,2:2|0:0,0:0:0:0:
500,105,62215,6,0,P|444:119|385:131,1,103.125,14|10,1:2|1:2,0:0:0:0:
253,112,62521,1,0,1:2:0:0:
321,195,62674,2,0,B|377:128|377:128|316:15,1,206.25,14|8,1:2|1:2,0:0:0:0:
77,31,63133,1,2,1:2:0:0:
77,31,63209,1,0,1:2:0:0:
77,31,63286,6,0,B|149:49|149:49|172:90|172:90|219:88|259:116,1,206.25,14|2,1:2|1:2,0:0:0:0:
321,195,63745,1,10,1:2:0:0:
293,38,63898,1,6,1:2:0:0:
190,178,64051,2,0,P|139:192|97:169,1,103.125,10|0,1:2|1:2,0:0:0:0:
79,148,64281,1,0,1:2:0:0:
79,148,64357,2,0,L|63:90,1,51.5625,10|0,1:2|1:2,0:0:0:0:
15,226,64510,1,2,1:2:0:0:
15,226,64587,1,0,1:2:0:0:
15,226,64664,6,0,P|32:288|46:335,1,94.8750018095971,6|0,1:2|0:0,0:0:0:0:
230,377,64970,2,0,P|216:331|204:285,1,94.8750018095971,10|0,1:2|0:0,0:0:0:0:
79,148,65276,2,0,P|96:208|120:292,1,142.312502714396,2|0,1:2|0:0,0:0:0:0:
127,316,65582,1,10,1:2:0:0:
190,178,65735,1,2,2:2:0:0:
253,299,65888,6,0,P|299:286|347:273,1,94.8750018095971,2|0,1:2|1:2,0:0:0:0:
423,137,66194,2,0,P|395:139|353:193,1,94.8750018095971,10|0,1:2|0:0,0:0:0:0:
464,318,66500,2,0,P|449:263|435:207,1,94.8750018095971,2|0,1:2|0:0,0:0:0:0:
396,30,66806,1,10,1:2:0:0:
297,137,66959,1,0,1:2:0:0:
297,137,67036,1,0,1:2:0:0:
297,137,67112,6,0,P|234:125|145:111,1,142.312502714396,0|0,1:2|0:0,0:0:0:0:
78,97,67419,2,0,P|58:141|78:189,1,94.8750018095971,10|0,1:2|0:0,0:0:0:0:
232,40,67725,2,0,P|168:30|105:18,1,94.8750018095971,2|0,1:2|0:0,0:0:0:0:
236,206,68031,1,10,1:2:0:0:
167,122,68184,1,2,1:2:0:0:
167,122,68260,1,0,1:2:0:0:
167,122,68337,6,0,P|151:181|130:264,1,142.312502714396,2|0,1:2|0:0,0:0:0:0:
121,293,68643,1,10,1:2:0:0:
20,213,68796,1,2,2:2:0:0:
91,374,68949,2,0,B|142:383|142:383|186:354,1,94.8750018095971,2|0,1:2|0:0,0:0:0:0:
236,206,69255,1,10,1:2:0:0:
236,206,69332,1,0,1:2:0:0:
236,206,69408,2,0,L|251:272,1,47.4375009047985,0|0,1:2|1:2,0:0:0:0:
357,367,69561,6,0,P|341:303|330:256,1,94.8750018095971,4|0,1:2|0:0,0:0:0:0:
398,123,69868,1,10,1:2:0:0:
408,108,70021,1,2,2:2:0:0:
320,188,70174,2,0,P|368:201|422:217,1,94.8750018095971,2|0,1:2|1:2,0:0:0:0:
439,224,70403,1,0,1:2:0:0:
439,224,70480,2,0,B|469:262|469:262|447:306,1,94.8750018095971,10|0,1:2|0:0,0:0:0:0:
307,292,70786,6,0,B|249:307|249:307|225:337|225:337|153:357,1,142.312502714396,6|0,1:2|0:0,0:0:0:0:
104,353,71092,2,0,P|67:314|76:272,1,94.8750018095971,10|0,1:2|0:0,0:0:0:0:
185,159,71398,2,0,P|172:212|161:262,1,94.8750018095971,2|0,1:2|0:0,0:0:0:0:
98,106,71704,1,14,1:2:0:0:
289,200,71857,1,2,1:2:0:0:
289,200,71934,1,0,1:2:0:0:
289,200,72010,6,0,P|339:185|390:169,1,103.125,14|10,1:2|1:2,0:0:0:0:
485,88,72317,1,0,1:2:0:0:
471,237,72470,2,0,P|414:253|255:301,1,206.25,14|10,1:2|1:2,0:0:0:0:
109,350,72929,1,2,1:2:0:0:
109,350,73005,1,0,1:2:0:0:
109,350,73082,6,0,P|216:346|227:240,1,206.25,14|0,1:2|1:2,0:0:0:0:
121,175,73541,2,0,P|138:229|153:280,1,103.125,10|4,1:2|1:2,0:0:0:0:
231,164,73847,1,10,1:2:0:0:
47,104,74000,1,2,1:2:0:0:
214,47,74153,1,10,1:2:0:0:
239,41,74230,1,0,1:2:0:0:
264,35,74306,1,2,1:2:0:0:
289,30,74383,1,0,1:2:0:0:
316,26,74459,6,0,P|369:36|417:47,1,94.8750018095971,6|0,1:2|0:0,0:0:0:0:
346,215,74766,2,0,P|325:153|312:113,1,94.8750018095971,10|0,2:2|0:0,0:0:0:0:
511,195,75072,2,0,P|496:240|480:284,1,94.8750018095971,2|0,1:2|0:0,0:0:0:0:
424,149,75378,1,10,2:2:0:0:
342,329,75531,6,0,P|280:316|240:308,1,94.8750018095971,2|0,1:2|1:2,0:0:0:0:
160,170,75837,1,2,2:2:0:0:
296,232,75990,1,10,2:2:0:0:
137,159,76143,1,2,2:2:0:0:
140,358,76296,2,0,P|155:305|166:265,1,94.8750018095971,2|0,1:2|0:0,0:0:0:0:
33,133,76602,2,0,P|45:178|59:227,1,94.8750018095971,10|0,2:2|0:0,0:0:0:0:
240,61,76908,6,0,P|194:27|139:33,1,94.8750018095971,2|0,1:2|0:0,0:0:0:0:
275,191,77215,2,0,P|326:178|348:120,1,94.8750018095971,10|0,2:2|0:0,0:0:0:0:
173,130,77521,2,0,P|160:175|146:222,1,94.8750018095971,2|0,1:2|0:0,0:0:0:0:
212,369,77827,1,10,2:2:0:0:
47,332,77980,6,0,P|97:319|142:307,1,94.8750018095971,2|0,1:2|1:2,0:0:0:0:
341,250,78286,1,2,2:2:0:0:
146,221,78439,2,0,P|196:234|241:246,1,94.8750018095971,10|0,2:2|0:0,0:0:0:0:
430,328,78745,2,0,P|380:341|335:353,1,94.8750018095971,2|0,1:2|0:0,0:0:0:0:
220,376,79051,1,8,2:2:0:0:
220,376,79128,1,8,2:2:0:0:
220,376,79204,2,0,L|239:326,1,47.4375009047985,2|0,1:2|1:2,0:0:0:0:
341,250,79357,6,0,B|410:230|477:215|477:215|421:172,1,189.750003619194,6|8,1:2|2:2,0:0:0:0:
289,72,79817,1,2,1:2:0:0:
356,154,79970,2,0,P|372:109|388:63,1,94.8750018095971,2|0,1:2|0:0,0:0:0:0:
170,0,80276,2,0,P|183:46|197:95,1,94.8750018095971,8|2,2:2|1:2,0:0:0:0:
205,121,80505,1,0,1:2:0:0:
205,121,80582,5,2,1:2:0:0:
92,37,80735,1,2,2:2:0:0:
289,72,80888,1,10,2:2:0:0:
130,183,81041,1,2,1:2:0:0:
130,183,81118,1,0,1:2:0:0:
130,183,81194,6,0,P|117:229|104:275,1,94.8750018095971,2|0,1:2|0:0,0:0:0:0:
59,352,81500,2,0,P|96:311|194:325,1,142.312502714396,14|0,2:2|0:0,0:0:0:0:
238,370,81806,5,12,2:2:0:0:
272,201,81959,1,0,1:2:0:0:
332,362,82112,1,8,2:2:0:0:
358,223,82266,1,0,1:2:0:0:
427,310,82419,2,0,P|480:298|496:258,1,94.8750018095971,8|0,2:2|1:2,0:0:0:0:
497,228,82648,1,0,1:2:0:0:
497,228,82725,2,0,P|479:167|469:132,1,94.8750018095971,8|0,2:2|1:2,0:0:0:0:
418,11,83031,5,12,2:2:0:0:
386,138,83184,1,0,1:2:0:0:
325,23,83337,1,8,2:2:0:0:
292,122,83490,1,0,1:2:0:0:
235,39,83643,2,0,P|182:51|166:91,1,94.8750018095971,8|0,2:2|1:2,0:0:0:0:
165,121,83873,1,0,1:2:0:0:
165,121,83949,2,0,P|183:182|193:217,1,94.8750018095971,12|2,2:2|1:2,0:0:0:0:
64,75,84255,6,0,P|88:161|117:266,1,189.750003619194,6|8,1:2|2:2,0:0:0:0:
90,346,84715,1,2,1:2:0:0:
90,346,84791,1,0,1:2:0:0:
90,346,84868,2,0,B|127:310|127:310|196:321,1,94.8750018095971,2|0,1:2|0:0,0:0:0:0:
281,366,85174,1,8,2:2:0:0:
281,366,85250,1,8,2:2:0:0:
281,366,85327,2,0,L|262:305,1,47.4375009047985,2|0,1:2|1:2,0:0:0:0:
226,183,85480,5,10,1:2:0:0:
169,316,85633,1,10,1:2:0:0:
240,152,85786,1,10,1:2:0:0:
391,356,86245,5,0,1:2:0:0:
391,356,86322,1,0,1:2:0:0:
391,356,86398,2,0,B|497:317|497:317|461:290|450:256,1,173.24999471283,4|0,2:2|0:0,0:0:0:0:
400,218,86704,6,0,P|345:203|300:191,1,90.7500027694703,4|2,2:1|1:2,0:0:0:0:
480,113,87010,1,10,2:2:0:0:
347,29,87164,1,2,1:2:0:0:
347,29,87240,1,0,1:2:0:0:
347,29,87317,2,0,P|361:77|375:121,1,90.7500027694703,10|2,2:2|1:2,0:0:0:0:
217,222,87623,2,0,P|230:178|243:135,1,90.7500027694703,10|2,2:2|1:2,0:0:0:0:
307,291,87929,5,10,2:2:0:0:
400,218,88082,1,2,1:2:0:0:
400,218,88158,1,0,1:2:0:0:
400,218,88235,2,0,P|450:202|492:188,1,90.7500027694703,10|2,2:2|1:2,0:0:0:0:
340,367,88541,2,0,P|290:351|246:340,1,90.7500027694703,10|2,2:2|1:2,0:0:0:0:
225,333,88771,1,2,1:2:0:0:
225,333,88847,2,0,P|175:303|172:270,1,90.7500027694703,10|2,2:2|1:2,0:0:0:0:
312,141,89153,6,0,P|297:187|281:232,1,90.7500027694703,10|2,2:2|1:2,0:0:0:0:
104,194,89459,2,0,P|156:177|202:162,1,90.7500027694703,10|2,2:2|1:2,0:0:0:0:
33,105,89766,1,10,2:2:0:0:
31,255,89919,1,2,1:2:0:0:
31,255,89995,1,0,1:2:0:0:
31,255,90072,2,0,L|44:307,3,45.3750013847352,10|8|2|0,2:2|2:2|1:2|1:2,0:0:0:0:
104,194,90378,6,0,P|120:118|143:26,1,148.49999546814,12|0,1:2|0:0,0:0:0:0:
152,34,90684,6,0,P|134:106|119:178,1,148.49999546814,12|0,1:2|0:0,0:0:0:0:
125,201,90990,6,0,P|141:125|164:33,1,148.49999546814,12|0,1:2|0:0,0:0:0:0:
176,32,91296,6,0,P|158:104|143:176,1,148.49999546814,12|8,1:2|1:3,0:0:0:0:
52,246,91602,6,0,P|86:281|153:283,1,90.7500027694703,6|2,2:2|1:2,0:0:0:0:
276,199,91908,1,10,2:2:0:0:
235,355,92061,1,2,1:2:0:0:
235,355,92137,1,0,1:2:0:0:
235,355,92215,2,0,P|220:309|206:263,1,90.7500027694703,10|2,2:2|1:2,0:0:0:0:
153,114,92521,2,0,P|139:157|125:200,1,90.7500027694703,10|2,2:2|1:2,0:0:0:0:
20,121,92827,5,10,2:2:0:0:
119,36,92980,1,2,1:2:0:0:
119,36,93056,1,0,1:2:0:0:
119,36,93133,2,0,B|162:20|162:20|212:50,1,90.7500027694703,10|2,2:2|1:2,0:0:0:0:
284,169,93439,2,0,P|334:153|377:140,1,90.7500027694703,10|2,2:2|1:2,0:0:0:0:
399,133,93669,1,2,1:2:0:0:
399,133,93745,2,0,P|442:108|443:60,1,90.7500027694703,10|2,2:2|1:2,0:0:0:0:
325,241,94051,6,0,P|343:295|358:340,1,90.7500027694703,10|2,2:2|1:2,0:0:0:0:
473,371,94357,2,0,P|462:338|444:279,1,90.7500027694703,10|2,2:2|1:2,0:0:0:0:
399,133,94664,1,10,2:2:0:0:
481,202,94817,1,2,1:2:0:0:
481,202,94893,1,0,1:2:0:0:
481,202,94970,2,0,L|537:181,3,45.3750013847352,10|8|2|0,2:2|2:2|1:2|1:2,0:0:0:0:
378,105,95276,6,0,P|302:89|210:66,1,148.49999546814,12|0,1:2|0:0,0:0:0:0:
218,57,95582,6,0,P|290:75|362:90,1,148.49999546814,12|0,1:2|0:0,0:0:0:0:
385,84,95888,6,0,P|309:68|217:45,1,148.49999546814,12|0,1:2|0:0,0:0:0:0:
216,33,96194,6,0,P|288:51|360:66,1,148.49999546814,12|8,1:2|1:3,0:0:0:0:
436,14,96500,5,6,1:2:0:0:
376,116,101398,6,0,P|434:100|488:80,2,115.49999647522,4|0|0,1:2|1:2|1:2,0:0:0:0:
233,60,102317,2,0,P|194:51|166:43,1,57.7499982376099,0|2,1:2|2:2,0:0:0:0:
177,154,102623,6,0,P|204:121|289:130,2,115.49999647522,4|0|0,1:2|1:2|1:2,0:0:0:0:
147,240,103388,1,0,1:2:0:0:
147,240,103465,1,0,1:2:0:0:
147,240,103541,2,0,P|104:228|76:221,1,66,4|0,1:2|0:0,0:0:0:0:
25,97,103847,6,0,P|56:106|103:120,1,74.2499977340699,6|2,1:2|2:2,0:0:0:0:
177,154,104153,1,2,1:2:0:0:
140,44,104306,1,2,2:2:0:0:
234,83,104459,2,0,P|265:73|312:61,1,74.2499977340699,2|0,1:2|1:2,0:0:0:0:
422,114,104766,1,2,1:2:0:0:
422,114,104842,1,0,1:2:0:0:
422,114,104919,2,0,L|380:128,1,37.1249988670349,0|0,1:2|1:2,0:0:0:0:
277,167,105072,5,2,2:2:0:0:
267,182,105225,5,2,2:2:0:0:
257,198,105378,5,2,2:2:0:0:
238,225,105684,6,0,P|229:266|217:315,1,74.2499977340699,2|2,2:2|2:2,0:0:0:0:
274,365,105990,1,10,2:2:0:0:
141,262,106143,1,2,2:2:0:0:
318,273,106296,6,0,P|376:255|444:232,1,123.75,4|0,1:2|0:0,0:0:0:0:
507,202,106602,2,0,P|516:155|475:126,1,82.5,8|2,2:2|2:2,0:0:0:0:
377,21,106908,6,0,P|319:39|251:62,1,123.75,0|0,1:2|0:0,0:0:0:0:
187,90,107215,2,0,B|179:139|179:139|219:166,1,82.5,8|2,2:2|2:2,0:0:0:0:
376,208,107521,6,0,P|362:164|344:106,1,82.5,0|2,1:2|2:2,0:0:0:0:
266,259,107827,1,8,2:2:0:0:
396,335,107980,1,2,1:2:0:0:
396,335,108056,1,8,2:2:0:0:
396,335,108133,2,0,P|440:319|486:303,1,82.5,0|2,1:2|1:2,0:0:0:0:
376,208,108439,1,8,2:2:0:0:
289,349,108592,1,2,2:2:0:0:
397,181,108745,1,0,1:2:0:0:
397,181,109051,6,0,B|425:134|425:134|414:95|414:95|439:41,1,136.125004154205,8|0,2:2|0:0,0:0:0:0:
410,32,109357,2,0,B|393:70|393:70|404:109|404:109|378:159,1,136.125004154205,0|0,1:2|0:0,0:0:0:0:
303,187,109664,1,8,2:2:0:0:
412,268,109817,1,2,2:2:0:0:
311,101,109970,6,0,L|262:90,3,41.25,12|8|10|8,2:2|2:2|2:2|2:2,0:0:0:0:
328,17,110276,2,0,L|287:7,3,41.25,8|8|10|8,2:2|2:2|2:2|2:2,0:0:0:0:
202,41,110582,1,8,2:3:0:0:
202,41,110658,1,8,2:3:0:0:
202,41,110735,2,0,L|161:50,1,41.25,10|8,3:2|2:3,0:0:0:0:
57,102,110888,2,0,L|98:111,1,41.25,8|8,1:2|2:3,0:0:0:0:
187,159,111041,6,0,P|140:149|70:246,1,173.24999471283,6|2,1:2|1:2,0:0:0:0:
122,340,111500,2,0,P|63:328|23:320,1,86.6249973564149,10|2,2:2|2:2,0:0:0:0:
152,236,111806,1,2,1:2:0:0:
164,250,111959,2,0,P|206:258|248:267,1,86.6249973564149,0|10,1:2|2:2,0:0:0:0:
328,356,112266,6,0,B|313:295|281:267|281:267|294:216|354:211,1,181.500005538941,6|2,1:2|1:2,0:0:0:0:
467,269,112725,2,0,P|454:314|441:363,1,90.7500027694703,10|2,2:2|2:2,0:0:0:0:
414,185,113031,1,2,1:2:0:0:
405,167,113184,2,0,P|416:123|429:79,1,90.7500027694703,0|10,1:2|2:2,0:0:0:0:
320,35,113490,6,0,B|251:12|229:88|258:66|222:135|154:114,1,189.750003619194,6|2,1:2|1:2,0:0:0:0:
84,28,113949,2,0,P|128:14|173:37,1,94.8750018095971,10|2,2:2|2:2,0:0:0:0:
137,204,114255,2,0,P|92:185|74:134,1,94.8750018095971,2|0,1:2|1:2,0:0:0:0:
69,117,114485,1,0,1:2:0:0:
69,117,114561,1,10,2:2:0:0:
168,118,114715,6,0,P|219:130|267:143,1,98.9999969787599,6|0,1:2|0:0,0:0:0:0:
106,293,115021,2,0,P|55:305|7:318,1,98.9999969787599,2|8,1:2|2:2,0:0:0:0:
137,204,115327,1,2,1:2:0:0:
194,369,115480,1,10,2:2:0:0:
259,240,115633,1,2,1:2:0:0:
259,240,115709,1,0,1:2:0:0:
259,240,115786,2,0,B|279:253|304:254|304:254|329:293|329:293|363:296|393:314,1,148.49999546814,14|0,2:2|0:0,0:0:0:0:
455,344,116092,6,0,P|497:309|490:262,1,82.5,6|2,1:2|1:2,0:0:0:0:
420,119,116398,1,10,2:2:0:0:
389,219,116551,1,2,1:2:0:0:
389,219,116628,1,0,1:2:0:0:
389,219,116704,2,0,P|445:205|478:198,1,82.5,2|2,1:2|1:2,0:0:0:0:
456,24,117010,2,0,P|415:32|342:50,1,82.5,10|0,2:2|1:2,0:0:0:0:
347,56,117240,1,0,1:2:0:0:
347,56,117317,6,0,P|306:47|233:30,1,82.5,2|2,1:2|1:2,0:0:0:0:
111,131,117623,1,10,2:2:0:0:
170,18,117776,1,2,1:2:0:0:
170,18,117852,1,0,1:2:0:0:
170,18,117929,2,0,P|182:62|195:110,1,82.5,2|2,1:2|1:2,0:0:0:0:
90,219,118235,1,10,2:2:0:0:
85,239,118311,1,8,2:2:0:0:
81,259,118388,1,2,1:2:0:0:
76,279,118465,1,0,1:2:0:0:
70,297,118541,6,0,P|115:257|194:280,1,136.125004154205,4|0,1:2|0:0,0:0:0:0:
246,342,118847,2,0,B|274:295|274:295|263:256|263:256|288:202,1,136.125004154205,0|0,1:2|0:0,0:0:0:0:
315,145,119153,2,0,L|362:162,3,45.3750013847352,8|8|8|8,1:2|1:2|1:2|1:2,0:0:0:0:
493,231,119459,1,8,1:2:0:0:
493,231,119536,1,8,1:2:0:0:
493,231,119612,2,0,L|450:246,1,45.3750013847352,8|8,1:2|1:2,0:0:0:0:
357,277,119766,5,2,1:1:0:0:
449,152,120072,5,10,2:2:0:0:
449,152,120148,1,8,2:2:0:0:
449,152,120225,2,0,L|431:93,1,37.1249988670349,0|0,1:2|1:2,0:0:0:0:
365,2,120378,1,10,2:2:0:0:
365,2,120454,1,10,2:2:0:0:
365,2,120531,2,0,L|347:59,1,57.7499982376099,0|0,1:2|0:0,0:0:0:0:
325,138,120684,6,0,P|275:74|187:93,1,173.24999471283,6|0,2:2|0:0,0:0:0:0:
130,140,120990,6,0,P|72:127|23:113,1,94.8750018095971,4|0,3:1|0:0,0:0:0:0:
211,260,121296,2,0,P|224:214|239:167,1,94.8750018095971,10|0,2:2|0:0,0:0:0:0:
26,212,121602,2,0,P|45:268|72:351,1,142.312502714396,2|0,1:2|0:0,0:0:0:0:
79,380,121908,1,10,2:2:0:0:
124,228,122061,1,2,2:2:0:0:
251,343,122215,6,0,P|294:351|349:299,1,94.8750018095971,2|0,1:2|0:0,0:0:0:0:
503,191,122521,2,0,P|445:203|418:249,1,94.8750018095971,10|0,2:2|0:0,0:0:0:0:
398,384,122827,1,2,1:2:0:0:
332,210,122980,1,2,2:2:0:0:
502,323,123133,2,0,P|448:311|400:301,1,94.8750018095971,10|0,2:2|0:0,0:0:0:0:
221,197,123439,6,0,P|267:187|313:176,1,94.8750018095971,0|0,1:2|0:0,0:0:0:0:
375,30,123745,1,10,2:2:0:0:
276,99,123898,1,2,2:2:0:0:
424,228,124051,2,0,P|407:178|393:136,1,94.8750018095971,2|0,1:2|0:0,0:0:0:0:
211,0,124357,2,0,P|195:44|163:141,1,142.312502714396,10|0,2:2|0:0,0:0:0:0:
138,210,124664,6,0,B|88:222|88:222|51:179,1,94.8750018095971,2|0,1:2|0:0,0:0:0:0:
7,98,124970,1,10,2:2:0:0:
166,133,125123,1,2,2:2:0:0:
64,0,125276,2,0,P|81:66|92:109,1,94.8750018095971,2|0,1:2|0:0,0:0:0:0:
146,218,125582,1,10,2:2:0:0:
146,218,125658,1,8,2:2:0:0:
146,218,125735,2,0,L|121:279,1,47.4375009047985,0|0,1:2|1:2,0:0:0:0:
70,369,125888,6,0,P|58:323|46:276,1,94.8750018095971,4|0,1:2|0:0,0:0:0:0:
191,332,126194,1,10,2:2:0:0:
180,348,126347,1,2,2:2:0:0:
238,235,126500,2,0,P|288:248|337:262,1,94.8750018095971,2|0,1:2|0:0,0:0:0:0:
177,138,126806,2,0,P|131:150|85:162,1,94.8750018095971,10|0,2:2|1:2,0:0:0:0:
55,170,127036,1,0,1:2:0:0:
55,170,127112,6,0,P|16:130|25:89,1,94.8750018095971,2|0,1:2|0:0,0:0:0:0:
182,1,127419,2,0,P|232:14|285:29,1,94.8750018095971,10|0,2:2|0:0,0:0:0:0:
392,128,127725,1,2,1:2:0:0:
358,0,127878,1,2,2:2:0:0:
256,108,128031,2,0,P|274:158|290:209,1,94.8750018095971,14|0,2:2|0:0,0:0:0:0:
512,255,128337,6,0,P|497:209|481:155,1,103.125,14|10,1:2|1:2,0:0:0:0:
319,284,128643,1,0,1:2:0:0:
448,363,128796,2,0,P|412:241|387:155,1,206.25,14|8,1:2|1:2,0:0:0:0:
392,38,129255,1,2,1:2:0:0:
392,38,129332,1,0,1:2:0:0:
392,38,129408,6,0,B|318:9|286:90|326:55|294:138|217:107,1,206.25,14|2,1:2|1:2,0:0:0:0:
104,58,129868,1,10,1:2:0:0:
236,21,130021,1,6,1:2:0:0:
142,154,130174,2,0,B|88:174|88:174|31:136,1,103.125,10|0,1:2|1:2,0:0:0:0:
31,124,130403,1,0,1:2:0:0:
31,124,130480,2,0,L|12:59,1,51.5625,10|0,1:2|1:2,0:0:0:0:
145,257,130633,1,2,1:2:0:0:
145,257,130709,1,0,1:2:0:0:
145,257,130786,6,0,P|166:319|180:358,1,94.8750018095971,6|0,1:2|0:0,0:0:0:0:
233,177,131092,2,0,P|175:162|127:150,1,94.8750018095971,10|0,1:2|0:0,0:0:0:0:
255,301,131398,2,0,P|316:285|392:264,1,142.312502714396,2|0,1:2|0:0,0:0:0:0:
419,258,131704,1,10,1:2:0:0:
335,161,131857,1,2,2:2:0:0:
496,203,132010,6,0,B|525:250|525:250|506:296,1,94.8750018095971,2|2,1:2|1:2,0:0:0:0:
323,130,132317,2,0,B|307:93|307:93|336:46,1,94.8750018095971,10|2,1:2|2:2,0:0:0:0:
474,3,132623,6,0,P|484:60|400:103,1,154.6875,2|0,1:2|0:0,0:0:0:0:
335,46,132929,2,0,P|273:17|204:67,1,154.6875,10|0,1:2|0:0,0:0:0:0:
162,129,133235,6,0,P|180:181|196:231,1,94.8750018095971,0|0,1:2|0:0,0:0:0:0:
42,141,133541,1,10,1:2:0:0:
127,44,133694,1,2,2:2:0:0:
91,214,133847,2,0,P|39:195|-17:173,1,94.8750018095971,2|0,1:2|0:0,0:0:0:0:
138,354,134153,1,10,1:2:0:0:
32,294,134306,1,0,1:2:0:0:
32,294,134383,1,0,1:2:0:0:
32,294,134459,6,0,P|104:274|179:254,1,142.312502714396,2|0,1:2|0:0,0:0:0:0:
246,238,134766,2,0,P|292:262|296:312,1,94.8750018095971,10|2,1:2|2:2,0:0:0:0:
158,169,135072,2,0,P|210:156|267:142,1,94.8750018095971,2|0,1:2|0:0,0:0:0:0:
450,100,135378,1,10,1:2:0:0:
450,100,135454,1,0,1:2:0:0:
450,100,135531,2,0,L|391:83,1,47.4375009047985,0|0,1:2|1:2,0:0:0:0:
292,9,135684,6,0,P|309:71|321:113,1,94.8750018095971,4|0,1:2|0:0,0:0:0:0:
342,222,135990,1,10,1:2:0:0:
331,241,136143,1,2,2:2:0:0:
459,190,136296,2,0,P|442:252|430:294,1,94.8750018095971,2|0,1:2|0:0,0:0:0:0:
424,317,136526,1,0,0:0:0:0:
424,317,136602,2,0,P|375:364|312:348,1,94.8750018095971,10|0,1:2|0:0,0:0:0:0:
193,231,136908,6,0,P|238:219|298:292,1,142.312502714396,6|0,1:2|0:0,0:0:0:0:
272,357,137215,2,0,P|214:344|175:335,1,94.8750018095971,10|0,1:2|0:0,0:0:0:0:
8,278,137521,2,0,P|66:265|105:256,1,94.8750018095971,2|0,1:2|0:0,0:0:0:0:
189,121,137827,1,14,1:2:0:0:
32,190,137980,1,2,1:2:0:0:
32,190,138056,1,0,1:2:0:0:
32,190,138133,6,0,P|48:131|62:74,1,103.125,14|10,1:2|1:2,0:0:0:0:
235,34,138439,1,0,1:2:0:0:
128,0,138592,2,0,P|140:57|171:206,1,206.25,14|10,1:2|1:2,0:0:0:0:
106,315,139051,1,2,1:2:0:0:
106,315,139128,1,0,1:2:0:0:
106,315,139204,6,0,P|138:249|259:255,1,206.25,14|0,1:2|1:2,0:0:0:0:
314,361,139664,2,0,P|244:349|188:338,1,103.125,10|4,1:2|1:2,0:0:0:0:
352,219,139970,1,10,1:2:0:0:
436,368,140123,1,2,1:2:0:0:
487,235,140276,1,10,1:2:0:0:
479,210,140352,1,0,1:2:0:0:
472,185,140429,1,2,1:2:0:0:
464,160,140505,1,0,1:2:0:0:
457,135,140582,6,0,P|400:124|352:111,1,94.8750018095971,6|0,1:2|0:0,0:0:0:0:
246,30,140888,2,0,P|303:18|350:6,1,94.8750018095971,10|0,2:2|0:0,0:0:0:0:
275,150,141194,2,0,P|226:156|187:128,1,94.8750018095971,2|0,1:2|0:0,0:0:0:0:
39,38,141500,1,10,2:2:0:0:
95,165,141653,6,0,P|111:98|122:49,1,94.8750018095971,2|0,1:2|1:2,0:0:0:0:
23,214,141959,1,2,2:2:0:0:
167,274,142112,1,10,2:2:0:0:
0,205,142266,1,2,2:2:0:0:
114,342,142419,2,0,P|165:331|218:319,1,94.8750018095971,2|0,1:2|0:0,0:0:0:0:
275,150,142725,2,0,P|228:160|182:170,1,94.8750018095971,10|0,2:2|0:0,0:0:0:0:
118,23,143031,6,0,P|170:43|189:86,1,94.8750018095971,2|0,1:2|0:0,0:0:0:0:
106,222,143337,2,0,P|81:179|92:132,1,94.8750018095971,10|0,2:2|0:0,0:0:0:0:
249,243,143643,2,0,P|231:298|216:345,1,94.8750018095971,2|0,1:2|0:0,0:0:0:0:
182,170,143949,1,10,2:2:0:0:
322,308,144102,6,0,P|372:292|421:276,1,94.8750018095971,2|0,1:2|1:2,0:0:0:0:
344,182,144408,1,2,2:2:0:0:
486,143,144561,2,0,B|511:189|511:189|492:232,1,94.8750018095971,10|0,2:2|0:0,0:0:0:0:
382,74,144868,2,0,B|418:36|418:36|499:44,1,94.8750018095971,2|0,1:2|0:0,0:0:0:0:
352,191,145174,1,8,2:2:0:0:
352,191,145250,1,8,2:2:0:0:
352,191,145327,2,0,L|284:175,1,47.4375009047985,2|0,1:2|1:2,0:0:0:0:
235,79,145480,6,0,B|166:102|166:102|136:149|136:149|77:165,1,189.750003619194,6|8,1:2|2:2,0:0:0:0:
79,70,145939,1,2,1:2:0:0:
225,168,146092,2,0,P|207:223|192:270,1,94.8750018095971,2|0,1:2|0:0,0:0:0:0:
106,357,146398,2,0,P|91:311|76:266,1,94.8750018095971,8|2,2:2|1:2,0:0:0:0:
67,235,146628,1,0,1:2:0:0:
67,235,146704,5,2,1:2:0:0:
192,341,146857,1,2,2:2:0:0:
133,172,147010,1,10,2:2:0:0:
8,330,147164,1,2,2:2:0:0:
27,101,147317,2,0,L|43:161,3,47.4375009047985,10|8|8|8,2:2|2:2|2:2|2:2,0:0:0:0:
141,178,147623,1,14,2:2:0:0:
141,178,147699,1,8,2:2:0:0:
141,178,147776,2,0,L|128:132,1,47.4375009047985,8|8,2:2|2:2,0:0:0:0:
110,44,147929,6,0,P|189:63|298:87,1,181.500005538941,4|10,1:1|1:2,0:0:0:0:
451,24,148388,1,2,2:2:0:0:
387,142,148541,2,0,P|370:83|358:40,1,90.7500027694703,2|0,1:2|0:0,0:0:0:0:
512,192,148847,2,0,P|499:235|487:279,1,90.7500027694703,10|0,1:2|0:0,0:0:0:0:
289,318,149153,5,2,1:2:0:0:
415,230,149306,1,2,2:2:0:0:
271,332,149459,1,10,1:2:0:0:
454,360,149612,1,2,2:2:0:0:
306,225,149766,2,0,P|240:241|190:253,1,90.7500027694703,2|0,1:2|0:0,0:0:0:0:
378,311,150072,1,10,1:2:0:0:
350,129,150225,1,0,1:2:0:0:
350,129,150301,1,0,1:2:0:0:
350,129,150378,6,0,P|274:147|149:175,1,181.500005538941,2|10,1:2|1:2,0:0:0:0:
28,268,150837,1,2,2:2:0:0:
194,326,150990,2,0,B|220:285|220:285|189:233,1,90.7500027694703,2|0,1:2|0:0,0:0:0:0:
75,107,151296,2,0,P|93:177|110:243,1,136.125004154205,10|0,1:2|0:0,0:0:0:0:
104,319,151602,6,0,L|88:367,3,45.3750013847352,8|8|8|8,1:2|1:2|1:2|1:2,0:0:0:0:
198,248,151908,2,0,L|183:204,3,45.3750013847352,8|8|8|8,1:2|1:2|1:2|1:2,0:0:0:0:
283,339,152215,2,0,L|267:387,3,45.3750013847352,10|8|10|8,1:2|1:2|1:2|1:2,0:0:0:0:
370,255,152521,1,10,1:2:0:0:
391,248,152597,1,8,1:2:0:0:
413,242,152674,1,10,1:2:0:0:
435,236,152750,1,8,1:2:0:0:
457,229,152827,6,0,P|493:182|459:117,1,136.125004154205,14|0,1:2|0:0,0:0:0:0:
401,58,153133,2,0,L|418:0,2,60.5000018463135,10|2|2,1:2|2:2|2:2,0:0:0:0:
325,118,153439,2,0,L|342:176,2,60.5000018463135,2|2|2,1:2|2:2|2:2,0:0:0:0:
236,54,153745,2,0,L|298:30,2,60.5000018463135,10|2|2,1:2|2:2|2:2,0:0:0:0:
232,146,154051,5,2,1:2:0:0:
214,162,154153,2,0,L|152:138,1,60.5000018463135,2|2,2:2|2:2,0:0:0:0:
77,12,154357,1,10,1:2:0:0:
92,29,154459,2,0,L|75:87,1,60.5000018463135,2|2,2:2|2:2,0:0:0:0:
3,139,154664,5,2,1:2:0:0:
15,167,154765,1,2,2:2:0:0:
27,198,154867,1,2,2:2:0:0:
38,227,154969,6,0,L|69:319,1,90.7500027694703,10|2,1:2|2:2,0:0:0:0:
75,332,155199,1,2,2:2:0:0:
131,215,155276,6,0,L|116:166,3,45.3750013847352,2|2|2|2,1:2|2:2|2:2|2:2,0:0:0:0:
161,317,155582,2,0,L|146:366,3,45.3750013847352,10|2|2|2,1:2|2:2|2:2|2:2,0:0:0:0:
229,237,155888,1,2,1:2:0:0:
250,243,155965,1,2,2:2:0:0:
272,249,156041,1,2,2:2:0:0:
294,256,156118,1,2,2:2:0:0:
315,262,156194,2,0,L|373:281,3,45.3750013847352,10|2|2|2,1:2|2:2|2:2|2:2,0:0:0:0:
466,338,156500,1,2,1:2:0:0:
466,338,156577,1,0,1:2:0:0:
466,338,156653,6,0,L|447:274,1,45.3750013847352,0|0,1:2|0:0,0:0:0:0:
379,198,156806,2,0,P|395:151|422:66,1,136.125004154205,12|0,1:2|0:0,0:0:0:0:
431,35,157112,5,10,1:2:0:0:
512,196,157266,1,10,1:2:0:0:
306,105,157572,5,6,1:2:0:0:
256,192,161398,12,8,162470,2:2:0:0:
379,62,162776,6,0,L|427:76,2,33,0|0|0,1:2|1:2|1:2,0:0:0:0:
267,111,163082,2,0,L|219:125,2,33,0|0|0,1:2|1:2|1:2,0:0:0:0:
370,177,163387,5,8,2:2:0:0:
285,0,163694,1,8,2:2:0:0:
274,200,164000,5,2,2:2:0:0:
258,204,164077,1,2,2:2:0:0:
242,208,164153,1,2,2:2:0:0:
226,213,164230,1,2,2:2:0:0:
210,217,164306,2,0,L|178:226,3,33,2|2|2|2,2:2|2:2|2:2|2:2,0:0:0:0:
103,148,164612,5,8,2:2:0:0:
200,113,164766,1,8,2:2:0:0:
122,49,164919,1,8,2:2:0:0:
88,172,165224,6,0,L|105:210,2,37.1249988670349,0|0|0,1:2|1:2|1:2,0:0:0:0:
142,38,165530,2,0,L|159:0,2,37.1249988670349,0|0|0,1:2|1:2|1:2,0:0:0:0:
44,82,165837,5,8,2:2:0:0:
142,282,166143,1,8,2:2:0:0:
41,281,166296,2,0,L|23:237,2,37.1249988670349,0|0|0,1:2|1:2|1:2,0:0:0:0:
122,382,166602,1,8,2:2:0:0:
139,376,166679,1,8,2:2:0:0:
157,371,166755,1,0,1:2:0:0:
175,366,166832,1,0,1:2:0:0:
197,358,166908,6,0,L|244:344,3,37.1249988670349,0|0|0|0,1:2|1:2|1:2|1:2,0:0:0:0:
279,264,167215,1,8,2:2:0:0:
279,264,167291,1,8,2:2:0:0:
279,264,167368,2,0,L|327:277,1,45.3750013847352,10|8,2:2|2:2,0:0:0:0:
454,371,167521,6,0,P|439:312|429:271,1,90.7500027694703,14|0,2:2|1:2,0:0:0:0:
340,195,167827,1,8,2:2:0:0:
512,243,167980,1,2,1:2:0:0:
512,243,168056,1,0,1:2:0:0:
512,243,168133,2,0,P|496:183|485:141,1,90.7500027694703,10|0,2:2|1:2,0:0:0:0:
378,0,168439,2,0,P|366:49|354:92,1,90.7500027694703,8|2,2:2|1:2,0:0:0:0:
355,118,168669,1,0,1:2:0:0:
355,118,168745,5,14,2:2:0:0:
463,43,168898,1,0,1:2:0:0:
276,62,169051,1,10,2:2:0:0:
422,179,169204,1,0,1:2:0:0:
282,214,169357,2,0,P|224:199|176:189,1,90.7500027694703,10|0,2:2|1:2,0:0:0:0:
62,46,169664,6,0,P|119:56|144:90,1,90.7500027694703,14|0,2:2|1:2,0:0:0:0:
128,271,169970,6,0,B|100:224|100:224|111:185|111:185|86:131,1,136.125004154205,4|0,1:2|0:0,0:0:0:0:
68,134,170276,2,0,B|85:172|85:172|74:211|74:211|100:261,1,136.125004154205,0|0,1:2|0:0,0:0:0:0:
75,338,170582,2,0,L|16:323,3,45.3750013847352,8|8|8|8,1:2|1:2|1:2|1:2,0:0:0:0:
169,374,170888,1,8,1:2:0:0:
169,374,170965,1,8,1:2:0:0:
169,374,171041,2,0,L|223:356,1,45.3750013847352,8|8,1:2|1:2,0:0:0:0:
336,323,171194,5,2,2:2:0:0:
236,253,171500,5,2,2:2:0:0:
365,213,171806,6,0,B|484:181|484:181|454:173|435:147,1,173.24999471283,2|0,2:2|0:0,0:0:0:0:
405,84,172419,5,2,2:2:0:0:
379,60,172725,5,2,2:2:0:0:
360,38,173031,5,8,1:2:0:0:
360,38,173107,1,8,1:2:0:0:
360,38,173184,2,0,L|306:51,1,41.25,8|8,1:2|1:2,0:0:0:0:
219,110,173337,1,8,1:2:0:0:
219,110,173414,1,8,1:2:0:0:
219,110,173490,2,0,L|270:122,1,45.3750013847352,8|8,1:2|1:2,0:0:0:0:
366,162,173643,6,0,P|380:207|396:256,1,94.8750018095971,4|0,3:1|0:0,0:0:0:0:
264,365,173949,2,0,P|278:319|292:274,1,94.8750018095971,10|0,2:2|0:0,0:0:0:0:
499,269,174255,2,0,P|464:341|383:348,1,142.312502714396,2|0,1:2|0:0,0:0:0:0:
376,347,174561,1,10,2:2:0:0:
454,192,174715,1,2,2:2:0:0:
308,252,174868,6,0,P|250:264|189:279,1,94.8750018095971,2|0,1:2|0:0,0:0:0:0:
51,351,175174,2,0,P|107:339|123:304,1,94.8750018095971,10|0,2:2|0:0,0:0:0:0:
33,148,175480,1,2,1:2:0:0:
142,216,175633,1,2,2:2:0:0:
25,267,175786,2,0,P|44:216|65:156,1,94.8750018095971,10|0,2:2|0:0,0:0:0:0:
137,18,176092,6,0,B|193:2|229:44,1,94.8750018095971,0|0,1:2|0:0,0:0:0:0:
281,175,176398,1,10,2:2:0:0:
164,102,176551,1,2,2:2:0:0:
327,0,176704,2,0,P|314:51|302:102,1,94.8750018095971,2|0,1:2|0:0,0:0:0:0:
512,119,177010,2,0,P|482:61|399:75,1,142.312502714396,10|0,2:2|0:0,0:0:0:0:
383,137,177317,6,0,P|395:188|407:239,1,94.8750018095971,2|0,1:2|0:0,0:0:0:0:
347,332,177623,1,10,2:2:0:0:
500,241,177776,1,2,2:2:0:0:
317,205,177929,2,0,P|329:256|341:307,1,94.8750018095971,2|0,1:2|0:0,0:0:0:0:
446,352,178235,1,10,2:2:0:0:
446,352,178311,1,8,2:2:0:0:
446,352,178388,2,0,L|429:297,1,47.4375009047985,0|0,1:2|1:2,0:0:0:0:
402,180,178541,6,0,P|337:163|290:149,1,94.8750018095971,4|0,1:2|0:0,0:0:0:0:
373,53,178847,1,10,2:2:0:0:
388,46,179000,1,2,2:2:0:0:
229,0,179153,2,0,P|242:50|255:95,1,94.8750018095971,2|0,1:2|0:0,0:0:0:0:
196,207,179459,2,0,P|182:161|167:111,1,94.8750018095971,10|0,2:2|1:2,0:0:0:0:
154,81,179689,1,0,1:2:0:0:
154,81,179766,6,0,P|104:55|51:75,1,94.8750018095971,2|0,1:2|0:0,0:0:0:0:
0,256,180072,2,0,P|60:239|96:229,1,94.8750018095971,10|0,2:2|0:0,0:0:0:0:
180,296,180378,1,2,1:2:0:0:
99,142,180531,1,2,2:2:0:0:
56,330,180684,2,0,P|116:313|152:303,1,94.8750018095971,14|0,2:2|0:0,0:0:0:0:
302,249,180990,6,0,P|287:303|272:361,1,103.125,12|8,1:2|1:2,0:0:0:0:
226,180,181296,1,0,1:2:0:0:
369,324,181449,2,0,P|384:266|421:121,1,206.25,12|8,1:2|1:2,0:0:0:0:
511,30,181908,1,2,1:2:0:0:
511,30,181985,1,0,1:2:0:0:
511,30,182061,6,0,B|474:53|429:56|429:56|408:92|408:92|363:97|319:120,1,206.25,14|2,1:2|1:2,0:0:0:0:
221,57,182521,1,10,1:2:0:0:
339,200,182674,1,6,1:2:0:0:
354,21,182827,2,0,P|298:36|240:56,1,103.125,10|0,1:2|1:2,0:0:0:0:
226,62,183056,1,0,1:2:0:0:
226,62,183133,2,0,L|168:79,1,51.5625,10|0,1:2|1:2,0:0:0:0:
40,146,183286,1,2,1:2:0:0:
40,146,183362,1,0,1:2:0:0:
40,146,183439,6,0,P|86:164|131:183,1,94.8750018095971,6|0,1:2|0:0,0:0:0:0:
127,307,183745,2,0,P|71:294|53:241,1,94.8750018095971,10|0,1:2|0:0,0:0:0:0:
207,144,184051,2,0,P|224:204|248:288,1,142.312502714396,2|0,1:2|0:0,0:0:0:0:
257,318,184357,1,10,1:2:0:0:
140,213,184510,1,2,2:2:0:0:
187,379,184664,6,0,P|246:363|295:350,1,94.8750018095971,2|0,1:2|1:2,0:0:0:0:
484,285,184970,2,0,P|425:269|376:256,1,94.8750018095971,10|0,1:2|0:0,0:0:0:0:
302,109,185276,2,0,P|367:114|385:152,1,94.8750018095971,2|0,1:2|0:0,0:0:0:0:
419,350,185582,1,10,1:2:0:0:
314,202,185735,1,0,1:2:0:0:
314,202,185811,1,0,1:2:0:0:
314,202,185888,6,0,P|372:189|458:170,1,142.312502714396,0|0,1:2|0:0,0:0:0:0:
507,117,186194,2,0,P|520:83|472:37,1,94.8750018095971,10|0,1:2|0:0,0:0:0:0:
306,9,186500,2,0,P|322:56|339:108,1,94.8750018095971,2|0,1:2|0:0,0:0:0:0:
404,18,186806,1,10,1:2:0:0:
240,93,186959,1,2,1:2:0:0:
240,93,187036,1,0,1:2:0:0:
240,93,187112,6,0,P|182:80|96:61,1,142.312502714396,2|0,1:2|0:0,0:0:0:0:
65,54,187419,1,10,1:2:0:0:
170,174,187572,1,2,2:2:0:0:
17,235,187725,2,0,P|36:173|50:126,1,94.8750018095971,2|0,1:2|0:0,0:0:0:0:
120,251,188031,1,10,1:2:0:0:
120,251,188107,1,0,1:2:0:0:
120,251,188184,2,0,P|106:296|95:325,1,47.4375009047985,0|0,1:2|1:2,0:0:0:0:
32,359,188337,6,0,B|78:345|122:332,1,94.8750018095971,4|0,1:2|0:0,0:0:0:0:
262,289,188643,1,10,1:2:0:0:
278,304,188796,1,2,2:2:0:0:
170,174,188949,2,0,P|104:158|63:149,1,94.8750018095971,2|0,1:2|1:2,0:0:0:0:
45,145,189179,1,0,1:2:0:0:
45,145,189255,2,0,P|30:94|62:55,1,94.8750018095971,10|0,1:2|0:0,0:0:0:0:
246,6,189561,6,0,P|261:65|286:157,1,142.312502714396,6|0,1:2|0:0,0:0:0:0:
309,219,189868,2,0,B|357:221|357:221|394:175,1,94.8750018095971,10|0,1:2|0:0,0:0:0:0:
443,24,190174,2,0,B|376:53|422:117,1,94.8750018095971,2|0,1:2|0:0,0:0:0:0:
478,289,190480,1,14,1:2:0:0:
487,167,190633,1,2,1:2:0:0:
487,167,190709,1,0,1:2:0:0:
487,167,190786,6,0,P|470:231|457:273,1,103.125,14|8,1:2|1:2,0:0:0:0:
423,368,191092,1,0,1:2:0:0:
384,243,191245,2,0,B|310:214|278:295|318:260|283:343|209:312,1,206.25,12|8,1:2|1:2,0:0:0:0:
177,214,191704,2,0,L|236:232,3,51.5625,4|0|8|0,1:2|0:0|1:2|1:2,0:0:0:0:
132,302,192010,5,12,1:2:0:0:
132,302,192087,1,8,1:2:0:0:
132,302,192164,2,0,L|82:286,1,51.5625,0|0,1:2|1:2,0:0:0:0:
0,184,192317,1,10,1:2:0:0:
0,184,192393,1,8,1:2:0:0:
0,184,192470,2,0,L|50:168,1,51.5625,0|0,1:2|1:2,0:0:0:0:
187,125,192623,1,10,1:2:0:0:
39,46,192776,2,0,L|-7:25,1,51.5625,2|0,1:2|0:0,0:0:0:0:
61,73,192928,6,0,P|121:54|188:35,1,103.125,10|2,2:2|2:2,0:0:0:0:
348,151,193235,6,0,B|303:162|257:174,1,94.8750018095971,4|0,3:1|0:0,0:0:0:0:
315,30,193541,2,0,B|361:42|405:53,1,94.8750018095971,10|0,2:2|0:0,0:0:0:0:
490,247,193847,2,0,P|449:205|456:143,1,94.8750018095971,2|0,1:2|0:0,0:0:0:0:
500,67,194153,1,10,2:2:0:0:
348,151,194306,6,0,P|367:224|377:264,1,94.8750018095971,2|0,1:2|1:2,0:0:0:0:
437,319,194612,1,2,2:2:0:0:
284,243,194766,1,10,2:2:0:0:
445,171,194919,1,2,2:2:0:0:
348,346,195072,2,0,B|302:335|253:325,1,94.8750018095971,2|0,1:2|0:0,0:0:0:0:
115,190,195378,2,0,B|161:179|210:169,1,94.8750018095971,10|0,2:2|0:0,0:0:0:0:
86,313,195684,6,0,P|20:277|14:228,1,94.8750018095971,2|0,1:2|0:0,0:0:0:0:
198,267,195990,2,0,P|228:315|212:366,1,94.8750018095971,10|0,2:2|0:0,0:0:0:0:
115,190,196296,2,0,P|128:145|142:98,1,94.8750018095971,2|0,1:2|0:0,0:0:0:0:
79,13,196602,1,10,2:2:0:0:
238,114,196755,6,0,P|288:101|333:89,1,94.8750018095971,2|0,1:2|1:2,0:0:0:0:
512,39,197061,1,2,2:2:0:0:
308,0,197215,2,0,P|358:13|403:25,1,94.8750018095971,10|0,2:2|0:0,0:0:0:0:
446,234,197521,2,0,P|393:216|375:178,1,94.8750018095971,2|0,1:2|0:0,0:0:0:0:
476,110,197827,1,8,2:2:0:0:
476,110,197903,1,8,2:2:0:0:
476,110,197980,2,0,L|455:164,1,47.4375009047985,2|0,1:2|1:2,0:0:0:0:
366,290,198133,6,0,B|302:306|302:306|267:352|267:352|193:364,1,189.750003619194,6|8,1:2|2:2,0:0:0:0:
79,283,198592,1,2,1:2:0:0:
239,183,198745,2,0,P|225:234|213:281,1,94.8750018095971,2|0,1:2|0:0,0:0:0:0:
69,176,199051,2,0,P|80:130|93:84,1,94.8750018095971,8|2,2:2|1:2,0:0:0:0:
102,58,199281,1,0,1:2:0:0:
102,58,199357,5,2,1:2:0:0:
161,155,199510,1,2,2:2:0:0:
1,49,199664,1,10,2:2:0:0:
204,0,199817,1,2,1:2:0:0:
204,0,199893,1,0,1:2:0:0:
204,0,199970,6,0,P|216:45|230:92,1,94.8750018095971,2|0,1:2|0:0,0:0:0:0:
283,247,200276,2,0,P|301:187|327:98,1,142.312502714396,14|0,2:2|0:0,0:0:0:0:
345,34,200582,5,12,2:2:0:0:
512,68,200735,1,0,1:2:0:0:
351,128,200888,1,8,2:2:0:0:
490,154,201041,1,0,1:2:0:0:
405,233,201194,2,0,P|392:294|383:337,1,94.8750018095971,8|0,2:2|1:2,0:0:0:0:
376,358,201424,1,0,1:2:0:0:
376,358,201500,2,0,P|319:370|285:343,1,94.8750018095971,8|0,2:2|1:2,0:0:0:0:
181,294,201806,5,12,2:2:0:0:
308,262,201959,1,0,1:2:0:0:
193,201,202112,1,8,2:2:0:0:
292,168,202266,1,0,1:2:0:0:
199,101,202419,2,0,P|138:114|95:123,1,94.8750018095971,8|0,2:2|1:2,0:0:0:0:
74,130,202648,1,0,1:2:0:0:
74,130,202725,2,0,P|62:187|89:221,1,94.8750018095971,12|2,2:2|1:2,0:0:0:0:
228,372,203031,6,0,P|179:319|68:344,1,189.750003619194,6|8,1:2|2:2,0:0:0:0:
193,201,203490,1,2,1:2:0:0:
193,201,203567,1,0,1:2:0:0:
193,201,203643,2,0,P|241:220|288:238,1,94.8750018095971,2|0,1:2|0:0,0:0:0:0:
411,351,203949,1,8,2:2:0:0:
411,351,204026,1,8,2:2:0:0:
411,351,204102,2,0,L|398:287,1,47.4375009047985,2|0,1:2|1:2,0:0:0:0:
368,156,204255,5,10,1:2:0:0:
311,322,204408,1,10,1:2:0:0:
380,124,204561,1,10,1:2:0:0:
256,192,205174,12,0,206398,0:0:0:0:
437,132,206704,6,0,P|389:119|368:114,1,57.7499982376099,8|0,2:1|0:0,0:0:0:0:
326,41,207010,2,0,P|278:54|257:59,1,57.7499982376099,8|0,2:1|0:0,0:0:0:0:
210,130,207317,2,0,P|162:117|141:112,1,57.7499982376099,8|8,2:1|1:1,0:0:0:0:
27,76,207623,1,8,1:1:0:0:
74,184,207776,1,0,1:2:0:0:
74,184,207852,1,0,1:2:0:0:
74,184,207929,6,0,P|85:226|94:258,1,57.7499982376099,8|0,1:1|0:0,0:0:0:0:
150,349,208235,2,0,P|157:321|164:293,1,57.7499982376099,8|0,2:1|1:2,0:0:0:0:
242,205,208541,2,0,P|249:232|256:260,1,57.7499982376099,8|8,1:1|1:1,0:0:0:0:
295,368,208847,1,8,1:1:0:0:
359,278,209000,1,0,1:2:0:0:
439,340,209153,6,0,L|501:322,1,57.7499982376099,8|0,1:1|0:0,0:0:0:0:
419,210,209459,2,0,L|357:192,1,57.7499982376099,8|0,2:1|0:0,0:0:0:0:
483,123,209766,1,8,2:1:0:0:
402,56,209919,1,8,1:1:0:0:
402,56,209995,1,0,1:2:0:0:
402,56,210072,2,0,L|340:74,1,57.7499982376099,8|0,1:1|1:2,0:0:0:0:
230,145,210378,6,0,P|237:117|244:89,1,57.7499982376099,8|8,2:1|1:1,0:0:0:0:
344,162,210684,2,0,P|351:190|358:218,1,57.7499982376099,8|0,1:1|1:2,0:0:0:0:
319,343,210990,1,8,2:1:0:0:
414,293,211143,2,0,L|468:281,2,28.874999118805,8|0|8,1:1|1:2|1:1,0:0:0:0:
307,360,211449,1,0,1:2:0:0:
246,280,211602,6,0,P|195:291|127:306,1,115.49999647522,0|2,1:2|2:2,0:0:0:0:
53,244,212061,1,0,0:0:0:0:
67,231,212215,2,0,P|110:221|144:212,1,57.7499982376099,2|0,2:2|1:2,0:0:0:0:
190,137,212521,1,2,1:2:0:0:
91,87,212674,1,0,1:2:0:0:
192,33,212827,6,0,P|252:47|317:61,2,115.49999647522,2|2|2,1:2|2:2|1:2,0:0:0:0:
98,93,213592,1,0,1:2:0:0:
98,93,213669,1,0,1:2:0:0:
98,93,213745,2,0,L|112:155,1,57.7499982376099,2|0,1:2|1:2,0:0:0:0:
201,220,214051,6,0,L|238:204,3,28.874999118805,10|8|0|0,2:2|2:2|1:2|1:2,0:0:0:0:
111,285,214357,2,0,L|74:269,3,28.874999118805,6|4|0|0,2:3|2:3|1:2|1:2,0:0:0:0:
201,353,214664,2,0,L|238:337,3,28.874999118805,10|8|0|0,2:2|2:2|1:2|1:2,0:0:0:0:
301,266,214970,2,0,L|338:282,1,28.874999118805,10|8,2:2|2:2,0:0:0:0:
403,350,215123,2,0,L|440:334,1,28.874999118805,10|8,2:2|2:2,0:0:0:0:
495,250,215276,5,10,1:2:0:0:
