osu file format v14

[General]
AudioFilename: audio.mp3
AudioLeadIn: 0
PreviewTime: 44054
Countdown: 0
SampleSet: Soft
StackLeniency: 0.7
Mode: 0
LetterboxInBreaks: 0
WidescreenStoryboard: 1

[Editor]
DistanceSpacing: 0.8
BeatDivisor: 4
GridSize: 8
TimelineZoom: 2.2

[Metadata]
Title:Pulsation
TitleUnicode:Pulsation
Artist:syrela
ArtistUnicode:syrela
Creator:Lasse
Version:Insane
Source:BMS
Tags:bofu2017 drumstep genkai records
BeatmapID:1436970
BeatmapSetID:677886

[Difficulty]
HPDrainRate:6
CircleSize:4
OverallDifficulty:7.5
ApproachRate:9
SliderMultiplier:1.8
SliderTickRate:1

[Events]
//Background and Video events
0,0,"bg.jpg",0,0
//Break Periods
2,68800,76166
//Storyboard Layer 0 (Background)
//Storyboard Layer 1 (Fail)
//Storyboard Layer 2 (Pass)
//Storyboard Layer 3 (Foreground)
//Storyboard Sound Samples

[TimingPoints]
1343,338.983050847458,4,2,23,30,1,0
1343,-200,4,2,23,30,0,0
2868,-200,4,2,23,36,0,0
4224,-181.818181818182,4,2,23,38,0,0
5580,-166.666666666667,4,2,23,42,0,0
6936,-153.846153846154,4,2,23,44,0,0
8292,-142.857142857143,4,2,23,46,0,0
9648,-133.333333333333,4,2,23,48,0,0
11004,-125,4,2,23,50,0,0
12190,-111.111111111111,4,2,1,60,0,0
14902,-100,4,2,1,62,0,0
17614,-90.9090909090909,4,2,1,64,0,0
17783,-90.9090909090909,4,2,1,32,0,0
17953,-90.9090909090909,4,2,1,64,0,0
18122,-90.9090909090909,4,2,1,32,0,0
18292,-90.9090909090909,4,2,1,64,0,0
18461,-90.9090909090909,4,2,1,32,0,0
18631,-83.3333333333333,4,2,1,66,0,0
18800,-83.3333333333333,4,2,1,33,0,0
18970,-83.3333333333333,4,2,1,66,0,0
19139,-83.3333333333333,4,2,1,33,0,0
19309,-83.3333333333333,4,2,1,66,0,0
19478,-83.3333333333333,4,2,1,33,0,0
19648,-76.9230769230769,4,2,1,68,0,0
19817,-76.9230769230769,4,2,1,34,0,0
19987,-76.9230769230769,4,2,1,68,0,0
20156,-76.9230769230769,4,2,1,34,0,0
20326,-76.9230769230769,4,2,1,70,0,0
21681,-200,4,2,1,50,0,0
21703,-200,4,2,20,20,0,0
22698,-1000,4,2,23,70,0,0
23037,-90.9090909090909,4,1,1,80,0,0
23546,-125,4,1,1,74,0,0
23800,-90.9090909090909,4,2,99,5,0,0
23885,-90.9090909090909,4,1,1,74,0,0
23970,-90.9090909090909,4,2,99,5,0,0
24054,-90.9090909090909,4,1,1,74,0,0
24139,-90.9090909090909,4,2,99,5,0,0
24224,-90.9090909090909,4,1,1,74,0,0
24309,-90.9090909090909,4,2,99,5,0,0
24393,-125,4,1,1,76,0,0
24478,-125,4,2,99,5,0,0
24563,-125,4,1,1,76,0,0
25156,-125,4,2,99,5,0,0
25241,-125,4,1,1,76,0,0
25410,-83.3333333333333,4,1,1,80,0,0
25665,-83.3333333333333,4,2,99,5,0,0
25749,-100,4,1,1,80,0,0
26088,-100,4,1,1,80,0,0
26258,-100,4,1,1,74,0,0
26512,-100,4,2,99,5,0,0
26597,-100,4,1,1,74,0,0
26681,-100,4,2,99,5,0,0
26766,-100,4,1,1,74,0,0
26851,-100,4,2,99,5,0,0
26936,-100,4,1,1,74,0,0
27020,-100,4,2,99,5,0,0
27105,-125,4,1,1,70,0,0
27275,-125,4,1,1,60,0,0
27444,-83.3333333333333,4,1,1,76,0,0
27529,-83.3333333333333,4,2,99,5,0,0
27614,-83.3333333333333,4,1,1,78,0,0
27868,-83.3333333333333,4,2,99,5,0,0
27953,-83.3333333333333,4,1,1,76,0,0
28037,-83.3333333333333,4,2,99,5,0,0
28122,-83.3333333333333,4,1,1,80,0,0
28376,-83.3333333333333,4,2,99,5,0,0
28461,-90.9090909090909,4,1,1,80,0,0
28970,-125,4,1,1,74,0,0
29224,-125,4,2,99,5,0,0
29309,-125,4,1,1,74,0,0
29393,-125,4,2,99,5,0,0
29478,-125,4,1,1,74,0,0
29563,-125,4,2,99,5,0,0
29648,-125,4,1,1,74,0,0
29732,-125,4,2,99,5,0,0
29817,-125,4,1,1,74,0,0
29902,-125,4,2,99,5,0,0
29987,-125,4,1,1,74,0,0
30071,-125,4,2,99,5,0,0
30156,-83.3333333333333,4,1,1,80,0,0
30241,-83.3333333333333,4,2,99,5,0,0
30326,-83.3333333333333,4,1,1,80,0,0
30495,-83.3333333333333,4,1,1,40,0,0
30665,-83.3333333333333,4,1,1,80,0,0
30749,-83.3333333333333,4,2,99,5,0,0
30834,-83.3333333333333,4,1,1,80,0,0
31004,-83.3333333333333,4,1,1,40,0,0
31088,-83.3333333333333,4,2,99,5,0,0
31173,-100,4,1,1,76,0,0
31512,-100,4,1,1,76,0,0
31681,-100,4,1,1,74,0,0
31936,-100,4,2,99,5,0,0
32020,-100,4,1,1,74,0,0
32105,-100,4,2,99,5,0,0
32190,-100,4,1,1,74,0,0
32275,-100,4,2,99,5,0,0
32359,-100,4,1,1,74,0,0
32444,-100,4,2,99,5,0,0
32529,-142.857142857143,4,2,1,50,0,0
32698,-142.857142857143,4,2,1,30,0,0
32868,-142.857142857143,4,2,1,60,0,0
33037,-142.857142857143,4,2,1,30,0,0
33207,-142.857142857143,4,2,1,70,0,0
33885,-90.909090909091,4,1,1,80,0,0
34393,-125,4,1,1,74,0,0
34648,-125,4,2,99,5,0,0
34732,-125,4,1,1,74,0,0
34817,-125,4,2,99,5,0,0
34902,-125,4,1,1,74,0,0
34987,-125,4,2,99,5,0,0
35071,-125,4,1,1,74,0,0
35156,-125,4,2,99,5,0,0
35241,-111.111111111111,4,1,1,78,0,0
35495,-111.111111111111,4,2,99,5,0,0
35580,-111.111111111111,4,1,1,76,0,0
36088,-111.111111111111,4,1,1,60,0,0
36258,-83.3333333333333,4,1,1,80,0,0
36512,-83.3333333333333,4,2,99,5,0,0
36597,-100,4,1,1,80,0,0
36936,-100,4,1,1,80,0,0
37105,-100,4,1,1,74,0,0
37359,-100,4,2,99,5,0,0
37444,-100,4,1,1,74,0,0
37529,-100,4,2,99,5,0,0
37614,-100,4,1,1,74,0,0
37698,-100,4,2,99,5,0,0
37783,-100,4,1,1,74,0,0
37868,-100,4,2,99,5,0,0
37953,-125,4,1,1,66,0,0
38122,-125,4,1,1,60,0,0
38292,-83.3333333333333,4,1,1,74,0,0
38376,-83.3333333333333,4,2,99,5,0,0
38461,-83.3333333333333,4,1,1,78,0,0
38715,-83.3333333333333,4,2,99,5,0,0
38800,-83.3333333333333,4,1,1,74,0,0
38885,-83.3333333333333,4,2,99,5,0,0
38970,-83.3333333333333,4,1,1,74,0,0
39054,-83.3333333333333,4,2,99,5,0,0
39139,-83.3333333333333,4,1,1,74,0,0
39224,-83.3333333333333,4,2,99,5,0,0
39309,-90.9090909090909,4,1,1,78,0,0
39648,-90.9090909090909,4,1,1,78,0,0
39817,-125,4,1,1,74,0,0
40071,-125,4,2,99,5,0,0
40156,-125,4,1,1,74,0,0
40241,-125,4,2,99,5,0,0
40326,-125,4,1,1,74,0,0
40410,-125,4,2,99,5,0,0
40495,-125,4,1,1,74,0,0
40580,-125,4,2,99,5,0,0
40665,-125,4,1,1,72,0,0
40834,-125,4,1,1,60,0,0
41004,-100,4,1,1,74,0,0
41088,-100,4,2,99,5,0,0
41173,-100,4,1,1,76,0,0
41427,-100,4,2,99,5,0,0
41512,-83.3333333333333,4,1,1,74,0,0
41597,-83.3333333333333,4,2,99,5,0,0
41681,-83.3333333333333,4,1,1,78,0,0
41936,-83.3333333333333,4,2,99,5,0,0
42020,-100,4,1,1,80,0,0
42359,-100,4,1,1,80,0,0
42529,-100,4,1,1,74,0,0
42783,-100,4,2,99,5,0,0
42868,-100,4,1,1,74,0,0
42953,-100,4,2,99,5,0,0
43037,-100,4,1,1,74,0,0
43122,-100,4,2,99,5,0,0
43207,-100,4,1,1,74,0,0
43292,-100,4,2,99,5,0,0
43376,-142.857142857143,4,2,1,60,0,0
43546,-142.857142857143,4,2,1,40,0,0
43715,-142.857142857143,4,2,1,68,0,0
43885,-142.857142857143,4,2,23,64,0,0
44224,-142.857142857143,4,2,1,60,0,0
44309,-142.857142857143,4,2,23,62,0,0
44393,-142.857142857143,4,2,23,64,0,0
44478,-142.857142857143,4,2,23,66,0,0
44563,-142.857142857143,4,2,23,68,0,0
44648,-142.857142857143,4,2,23,70,0,0
44732,-100,4,1,34,90,0,1
44754,-100,4,1,1,80,0,1
45071,-100,4,1,1,80,0,1
46936,-100,4,1,1,80,0,1
47783,-100,4,1,1,80,0,1
48885,-100,4,2,99,5,0,1
48970,-100,4,1,1,80,0,1
50495,-100,4,1,1,80,0,1
52529,-125,4,1,1,80,0,1
52783,-142.857142857143,4,2,99,5,0,1
52868,-100,4,1,1,80,0,1
53207,-100,4,1,1,80,0,1
54224,-100,4,1,1,50,0,1
54393,-100,4,2,1,60,0,0
54563,-100,4,2,1,70,0,0
54732,-100,4,2,1,60,0,0
54902,-100,4,2,23,64,0,0
55071,-100,4,2,23,66,0,0
55156,-100,4,2,23,68,0,0
55241,-100,4,2,23,70,0,0
55410,-100,4,2,23,72,0,0
55580,-100,4,1,34,80,0,1
55749,-100,4,1,1,80,0,1
56088,-125,4,1,1,70,0,1
56173,-125,4,1,1,74,0,1
56343,-125,4,2,99,5,0,1
56427,-125,4,1,1,74,0,1
56512,-125,4,2,99,5,0,1
56597,-125,4,1,1,74,0,1
56681,-125,4,2,99,5,0,1
56766,-125,4,1,1,74,0,1
56851,-125,4,2,99,5,0,1
56936,-90.9090909090909,4,1,1,76,0,1
57190,-90.9090909090909,4,2,99,5,0,1
57275,-90.9090909090909,4,1,1,76,0,1
57444,-90.9090909090909,4,1,1,78,0,1
57698,-90.9090909090909,4,2,99,5,0,1
57783,-90.9090909090909,4,1,1,80,0,1
57953,-83.3333333333333,4,1,1,80,0,1
58122,-83.3333333333333,4,1,1,70,0,1
58292,-100,4,1,1,80,0,1
58631,-100,4,1,1,80,0,1
58800,-100,4,1,1,70,0,1
58885,-100,4,1,1,74,0,1
59054,-100,4,2,99,5,0,1
59139,-100,4,1,1,74,0,1
59224,-100,4,2,99,5,0,1
59309,-100,4,1,1,74,0,1
59393,-100,4,2,99,5,0,1
59478,-100,4,1,1,74,0,1
59563,-100,4,2,99,5,0,1
59648,-100,4,1,1,74,0,1
59817,-100,4,1,1,70,0,1
59987,-100,4,1,1,78,0,1
60156,-100,4,1,1,70,0,1
60326,-100,4,1,1,72,0,1
61004,-100,4,1,1,74,0,1
61343,-125,4,1,1,74,0,1
61427,-125,4,2,99,5,0,1
61512,-125,4,1,1,74,0,1
61597,-125,4,2,99,5,0,1
61681,-125,4,1,1,74,0,1
61766,-125,4,2,99,5,0,1
61851,-125,4,1,1,74,0,1
61936,-125,4,2,99,5,0,1
62020,-125,4,1,1,76,0,1
62275,-125,4,2,99,5,0,1
62359,-125,4,1,1,70,0,1
62529,-125,4,1,1,60,0,1
62698,-111.111111111111,4,1,1,74,0,1
62953,-111.111111111111,4,2,99,5,0,1
63037,-111.111111111111,4,1,1,74,0,1
63122,-111.111111111111,4,2,99,5,0,1
63207,-111.111111111111,4,1,1,74,0,1
63292,-111.111111111111,4,2,99,5,0,1
63376,-111.111111111111,4,1,1,78,0,1
63631,-111.111111111111,4,2,99,5,0,1
63715,-111.111111111111,4,1,1,80,0,1
64902,-111.111111111111,4,1,1,78,0,1
65749,-111.111111111111,4,2,23,60,0,1
66088,-111.111111111111,4,2,23,58,0,1
66173,-111.111111111111,4,2,23,56,0,1
66258,-111.111111111111,4,2,23,54,0,1
66343,-111.111111111111,4,2,23,52,0,1
66427,-100,4,1,34,40,0,0
76766,-100,4,1,23,60,0,0
77275,-200,4,2,23,40,0,0
84393,-200,4,2,23,42,0,0
85410,-166.666666666667,4,2,23,44,0,0
85749,-166.666666666667,4,2,23,46,0,0
85919,-166.666666666667,4,2,23,44,0,0
86088,-166.666666666667,4,2,23,42,0,0
86766,-166.666666666667,4,2,23,44,0,0
86851,-166.666666666667,4,2,23,45,0,0
86936,-166.666666666667,4,2,23,46,0,0
87105,-166.666666666667,4,2,2,50,0,0
87275,-166.666666666667,4,2,23,46,0,0
87359,-166.666666666667,4,2,23,47,0,0
87444,-166.666666666667,4,2,23,48,0,0
87614,-166.666666666667,4,2,1,50,0,0
87783,-166.666666666667,4,2,1,52,0,0
88122,-142.857142857143,4,2,1,50,0,0
91851,-125,4,2,1,52,0,0
92529,-125,4,2,1,54,0,0
93546,-125,4,2,1,56,0,0
94563,-111.111111111111,4,2,1,64,0,0
94676,-111.111111111111,4,2,1,60,0,0
94902,-111.111111111111,4,2,1,62,0,0
95241,-111.111111111111,4,2,1,64,0,0
95580,-111.111111111111,4,2,1,66,0,0
95749,-111.111111111111,4,2,1,68,0,0
95919,-111.111111111111,4,2,1,70,0,0
96088,-111.111111111111,4,2,1,72,0,0
96258,-100,4,2,1,74,0,0
96300,-100,4,2,1,40,0,0
96597,-83.3333333333333,4,2,1,76,0,0
96639,-83.3333333333333,4,2,1,42,0,0
96936,-71.4285714285714,4,2,1,76,0,0
96978,-71.4285714285714,4,2,1,44,0,0
97105,-71.4285714285714,4,2,1,76,0,0
97148,-71.4285714285714,4,2,1,44,0,0
97275,-50,4,2,1,70,0,0
97296,-50,4,2,1,46,0,0
97614,-100,4,1,23,70,0,0
97953,-1000,4,1,2,70,0,0
98122,-1000,4,2,1,70,0,0
98207,-100,4,2,23,70,0,0
98461,-1000,4,2,1,70,0,0
98970,-90.9090909090909,4,1,1,80,0,0
99478,-125,4,1,1,74,0,0
99732,-125,4,2,99,5,0,0
99817,-125,4,1,1,74,0,0
99902,-125,4,2,99,5,0,0
99987,-125,4,1,1,74,0,0
100071,-125,4,2,99,5,0,0
100156,-125,4,1,1,74,0,0
100241,-125,4,2,99,5,0,0
100326,-125,4,1,1,76,0,0
100410,-125,4,2,99,5,0,0
100495,-125,4,1,1,76,0,0
101088,-125,4,2,99,5,0,0
101173,-125,4,1,1,76,0,0
101343,-83.3333333333333,4,1,1,80,0,0
101597,-83.3333333333333,4,2,99,5,0,0
101681,-100,4,1,1,80,0,0
102020,-100,4,1,1,80,0,0
102190,-100,4,1,1,74,0,0
102444,-100,4,2,99,5,0,0
102529,-100,4,1,1,74,0,0
102614,-100,4,2,99,5,0,0
102698,-100,4,1,1,74,0,0
102783,-100,4,2,99,5,0,0
102868,-100,4,1,1,74,0,0
102953,-100,4,2,99,5,0,0
103037,-125,4,1,1,70,0,0
103207,-125,4,1,1,60,0,0
103376,-83.3333333333333,4,1,1,76,0,0
103461,-83.3333333333333,4,2,99,5,0,0
103546,-83.3333333333333,4,1,1,78,0,0
103800,-83.3333333333333,4,2,99,5,0,0
103885,-83.3333333333333,4,1,1,76,0,0
103970,-83.3333333333333,4,2,99,5,0,0
104054,-83.3333333333333,4,1,1,80,0,0
104309,-83.3333333333333,4,2,99,5,0,0
104393,-90.9090909090909,4,1,1,80,0,0
104902,-125,4,1,1,74,0,0
105156,-125,4,2,99,5,0,0
105241,-125,4,1,1,74,0,0
105326,-125,4,2,99,5,0,0
105410,-125,4,1,1,74,0,0
105495,-125,4,2,99,5,0,0
105580,-125,4,1,1,74,0,0
105665,-125,4,2,99,5,0,0
105749,-125,4,1,1,74,0,0
105834,-125,4,2,99,5,0,0
105919,-125,4,1,1,74,0,0
106004,-125,4,2,99,5,0,0
106088,-83.3333333333333,4,1,1,80,0,0
106173,-83.3333333333333,4,2,99,5,0,0
106258,-83.3333333333333,4,1,1,80,0,0
106427,-83.3333333333333,4,1,1,60,0,0
106597,-83.3333333333333,4,1,1,80,0,0
106681,-83.3333333333333,4,2,99,5,0,0
106766,-83.3333333333333,4,1,1,80,0,0
107020,-83.3333333333333,4,2,99,5,0,0
107105,-100,4,1,1,76,0,0
107444,-100,4,1,1,76,0,0
107614,-100,4,1,1,74,0,0
107868,-100,4,2,99,5,0,0
107953,-100,4,1,1,74,0,0
108037,-100,4,2,99,5,0,0
108122,-100,4,1,1,74,0,0
108207,-100,4,2,99,5,0,0
108292,-100,4,1,1,74,0,0
108376,-100,4,2,99,5,0,0
108461,-142.857142857143,4,2,1,50,0,0
108631,-142.857142857143,4,2,1,30,0,0
108800,-142.857142857143,4,2,1,60,0,0
108970,-142.857142857143,4,2,1,30,0,0
109139,-142.857142857143,4,2,1,70,0,0
109817,-90.9090909090909,4,1,1,80,0,0
110326,-125,4,1,1,80,0,0
110495,-125,4,1,1,74,0,0
110580,-125,4,2,99,5,0,0
110665,-125,4,1,1,74,0,0
110749,-125,4,2,99,5,0,0
110834,-125,4,1,1,74,0,0
110919,-125,4,2,99,5,0,0
111004,-125,4,1,1,74,0,0
111088,-125,4,2,99,5,0,0
111173,-125,4,2,2,70,0,0
111512,-125,4,2,1,70,0,0
111597,-125,4,2,99,5,0,0
111681,-100,4,1,1,72,0,0
112020,-100,4,2,1,72,0,0
112105,-100,4,2,99,5,0,0
112190,-83.3333333333333,4,2,1,80,0,0
112529,-83.3333333333333,4,1,1,80,0,0
112868,-125,4,2,23,60,0,0
113207,-125,4,2,23,40,0,0
113376,-125,4,2,23,60,0,0
113546,-125,4,1,1,70,0,0
113631,-125,4,2,99,5,0,0
113715,-125,4,1,1,70,0,0
113800,-125,4,2,99,5,0,0
113885,-125,4,1,1,72,0,0
113970,-125,4,2,99,5,0,0
114054,-125,4,1,1,72,0,0
114139,-125,4,2,99,5,0,0
114224,-83.3333333333333,4,2,1,80,0,0
114245,-83.3333333333333,4,2,20,60,0,0
114648,-83.3333333333333,4,2,99,5,0,0
114732,-83.3333333333333,4,2,1,74,0,0
114817,-83.3333333333333,4,2,99,5,0,0
114902,-83.3333333333333,4,2,1,74,0,0
114987,-83.3333333333333,4,2,99,5,0,0
115071,-83.3333333333333,4,2,1,74,0,0
115156,-83.3333333333333,4,2,99,5,0,0
115241,-83.3333333333333,4,2,1,74,0,0
115410,-111.111111111111,4,1,1,68,0,0
115580,-111.111111111111,4,1,1,68,0,0
115749,-111.111111111111,4,1,1,68,0,0
115834,-111.111111111111,4,2,99,5,0,0
115919,-111.111111111111,4,1,1,80,0,0
116004,-111.111111111111,4,2,99,5,0,0
116088,-111.111111111111,4,1,1,80,0,0
116173,-111.111111111111,4,2,99,5,0,0
116258,-111.111111111111,4,1,1,80,0,0
116343,-111.111111111111,4,2,99,5,0,0
116427,-111.111111111111,4,1,1,80,0,0
116512,-111.111111111111,4,2,99,5,0,0
116597,-111.111111111111,4,2,2,70,0,0
116936,-125,4,2,1,70,0,0
117020,-125,4,2,99,5,0,0
117105,-100,4,1,1,70,0,0
117444,-100,4,2,1,70,0,0
117529,-100,4,2,99,5,0,0
117614,-83.3333333333333,4,2,1,74,0,0
117868,-83.3333333333333,4,2,99,5,0,0
117953,-100,4,2,1,70,0,0
118122,-100,4,2,1,60,0,0
118292,-100,4,2,1,66,0,0
118631,-100,4,2,1,54,0,0
118800,-83.3333333333333,4,2,1,70,0,0
118885,-83.3333333333333,4,2,99,5,0,0
118970,-83.3333333333333,4,1,1,76,0,0
119224,-83.3333333333333,4,2,99,5,0,0
119309,-142.857142857143,4,2,1,60,0,0
119478,-142.857142857143,4,2,1,40,0,0
119648,-142.857142857143,4,2,1,66,0,0
119817,-142.857142857143,4,2,1,40,0,0
119987,-142.857142857143,4,2,1,62,0,0
120156,-142.857142857143,4,2,1,60,0,0
120241,-142.857142857143,4,2,1,62,0,0
120326,-142.857142857143,4,2,1,64,0,0
120410,-142.857142857143,4,2,1,66,0,0
120495,-142.857142857143,4,2,1,68,0,0
120580,-142.857142857143,4,2,1,70,0,0
120665,-100,4,1,34,90,0,1
120686,-100,4,1,1,80,0,1
121004,-100,4,1,1,80,0,1
122868,-100,4,1,1,80,0,1
123715,-100,4,1,1,80,0,1
124817,-100,4,2,99,5,0,1
124902,-100,4,1,1,80,0,1
126427,-100,4,1,1,80,0,1
128461,-125,4,1,1,80,0,1
128715,-142.857142857143,4,2,99,5,0,1
128800,-100,4,1,1,80,0,1
129139,-100,4,1,1,80,0,1
130156,-100,4,2,1,74,0,1
130326,-100,4,2,2,68,0,1
130665,-100,4,2,23,66,0,1
130749,-100,4,2,2,66,0,1
131004,-100,4,2,1,70,0,1
131173,-71.4285714285714,4,2,23,74,0,1
131427,-50,4,2,99,5,0,1
131512,-1000,4,2,34,20,0,0
131533,-1000,4,2,20,10,0,0
134732,-1000,4,2,99,5,0,0

[Colours]
Combo1 : 250,190,230
Combo2 : 130,200,230
Combo3 : 255,230,140
Combo4 : 170,245,170

[HitObjects]
35,64,1343,6,0,P|118:81|126:165,1,180,14|0,0:3|0:0,0:0:0:0:
126,165,2190,2,0,L|278:154,1,135,10|8,0:3|0:3,0:0:0:0:
268,243,2868,6,0,P|273:199|261:156,1,90,2|8,0:0|0:0,0:0:0:0:
196,293,3546,1,10,0:3:0:0:
196,293,3715,2,0,P|227:261|268:243,1,90,10|8,0:0|0:3,0:0:0:0:
356,281,4224,6,0,P|308:272|268:243,1,99.0000030212403,2|8,0:0|0:0,0:0:0:0:
444,319,4902,1,10,0:3:0:0:
444,319,5071,2,0,P|403:290|355:281,1,99.0000030212403,10|8,0:0|0:3,0:0:0:0:
352,173,5580,6,0,L|355:285,1,107.999996704102,2|8,0:0|0:0,0:0:0:0:
349,65,6258,1,10,0:3:0:0:
349,65,6427,2,0,L|352:177,1,107.999996704102,10|8,0:0|0:3,0:0:0:0:
235,169,6936,6,0,L|351:172,1,116.999994644165,2|8,0:0|0:0,0:0:0:0:
118,166,7614,1,10,0:3:0:0:
118,166,7783,2,0,L|234:169,1,116.999994644165,10|8,0:0|0:3,0:0:0:0:
280,57,8292,6,0,P|243:108|235:170,1,125.999996154785,2|8,0:0|0:0,0:0:0:0:
401,40,8970,1,10,0:3:0:0:
401,40,9139,2,0,P|338:34|281:57,1,125.999996154785,10|8,0:0|0:3,0:0:0:0:
156,82,9648,6,0,P|219:88|285:53,1,135.000005149842,2|8,0:0|0:0,0:0:0:0:
31,56,10326,1,10,0:3:0:0:
31,56,10495,2,0,P|94:50|160:85,1,135.000005149842,10|0,0:0|0:3,0:0:0:0:
164,225,11004,6,0,L|156:81,1,144,2|8,0:0|0:0,0:0:0:0:
351,166,11681,2,0,L|354:106,2,36,10|8|8,0:3|0:3|0:0,0:0:0:0:
351,166,12190,6,0,B|346:222|346:222|320:263|320:263|317:323,1,161.999995056153,12|8,0:3|0:0,0:0:0:0:
211,363,12698,2,0,B|206:307|206:307|180:266|180:266|177:208,1,161.999995056153,2|8,0:0|0:3,0:0:0:0:
118,110,13207,2,0,L|33:103,1,80.9999975280763,8|0,0:0|0:0,0:0:0:0:
23,242,13546,6,0,B|79:237|79:237|120:211|120:211|177:209,1,161.999995056153,8|8,0:3|0:0,0:0:0:0:
281,249,14054,2,0,B|337:254|337:254|378:280|378:280|435:282,1,161.999995056153,2|8,0:0|0:3,0:0:0:0:
486,179,14563,2,0,L|496:89,1,80.9999975280763,8|0,0:0|0:0,0:0:0:0:
361,102,14902,6,0,B|350:72|350:72|352:44|352:44|340:16,1,90,14|0,0:3|0:0,0:0:0:0:
241,153,15241,1,10,0:0:0:0:
241,153,15410,2,0,B|251:123|251:123|249:95|249:95|261:67,1,90,2|0,0:0|0:0,0:0:0:0:
361,102,15749,1,10,0:3:0:0:
382,188,15919,2,0,B|371:158|371:158|373:130|373:130|361:102,1,90,10|0,0:0|0:0,0:0:0:0:
211,234,16258,6,0,B|241:227|241:227|267:233|267:233|298:227,1,90,10|0,0:3|0:0,0:0:0:0:
159,317,16597,1,10,0:0:0:0:
159,317,16766,2,0,B|189:323|189:323|215:317|215:317|246:323,1,90,2|0,0:0|0:0,0:0:0:0:
211,234,17105,1,10,0:3:0:0:
123,241,17275,2,0,B|153:234|153:234|179:240|179:240|210:234,1,90,10|0,0:0|0:0,0:0:0:0:
387,160,17614,6,0,L|400:49,1,99.0000030212403,10|0,0:3|0:0,0:0:0:0:
409,175,17953,2,0,L|422:64,1,99.0000030212403,8|0,0:3|0:0,0:0:0:0:
431,190,18292,2,0,L|444:79,1,99.0000030212403,8|0,0:3|0:0,0:0:0:0:
344,250,18631,6,0,P|294:229|240:226,1,107.999996704102,10|0,0:3|0:0,0:0:0:0:
110,164,18970,6,0,L|97:53,1,107.999996704102,12|0,0:3|0:0,0:0:0:0:
88,179,19309,2,0,L|75:68,1,107.999996704102,8|0,0:3|0:0,0:0:0:0:
283,166,19648,6,0,L|297:45,1,116.999994644165,14|0,0:3|0:0,0:0:0:0:
305,181,19987,2,0,L|319:58,1,116.999994644165,8|0,0:3|0:0,0:0:0:0:
127,193,20326,5,14,0:3:0:0:
129,97,20495,1,8,0:3:0:0:
212,147,20665,5,8,0:3:0:0:
297,50,20834,1,8,0:3:0:0:
214,50,21004,5,8,0:3:0:0:
300,147,21173,1,8,0:3:0:0:
383,97,21343,5,8,0:3:0:0:
385,193,21512,1,8,0:3:0:0:
496,46,21681,6,0,B|475:72|485:117|485:117|499:158|498:200|466:220|466:220|472:198|471:165|452:142,1,270,10|8,0:3|0:0,0:0:0:0:
452,142,23037,6,0,P|397:130|323:127,1,99.0000030212403,14|2,0:3|0:2,0:0:0:0:
326,147,23292,1,0,0:0:0:0:
312,178,23376,1,8,0:2:0:0:
213,182,23546,6,0,P|216:159|225:131,1,36,10|2,2:3|2:2,0:0:0:0:
230,127,23715,1,2,2:2:0:0:
312,178,23885,1,2,2:2:0:0:
333,272,24054,1,10,2:2:0:0:
280,354,24224,1,2,2:2:0:0:
204,290,24393,6,0,L|188:250,1,36,2|0,0:2|0:0,0:0:0:0:
177,316,24563,2,0,L|167:236,1,72,10|8,0:3|0:3,0:0:0:0:
136,327,24902,2,0,L|151:213,1,108,10|0,0:2|0:0,0:0:0:0:
150,219,25241,1,0,0:0:0:0:
81,327,25410,6,0,B|118:300|118:300|144:186,1,161.999995056153,14|0,0:2|0:0,0:0:0:0:
203,140,25749,6,0,B|266:129|266:129|314:146|314:146|383:141,1,180,14|8,0:3|0:2,0:0:0:0:
495,68,26258,5,10,2:3:0:0:
400,46,26427,1,2,2:2:0:0:
379,141,26597,1,2,2:2:0:0:
473,163,26766,1,10,2:2:0:0:
495,68,26936,1,2,2:2:0:0:
379,141,27105,6,0,L|307:132,1,72,2|8,0:3|0:3,0:0:0:0:
286,263,27444,6,0,P|281:218|268:192,1,53.9999983520508,14|0,0:3|0:0,0:0:0:0:
214,164,27614,2,0,B|278:210|278:210|307:133,1,161.999995056153,10|0,0:2|0:0,0:0:0:0:
379,166,27953,6,0,P|384:121|397:95,1,53.9999983520508,14|0,0:3|0:0,0:0:0:0:
452,67,28122,2,0,B|387:113|387:113|358:36,1,161.999995056153,10|0,0:2|0:0,0:0:0:0:
278,54,28461,6,0,P|234:48|142:45,1,99.0000030212403,14|2,0:3|0:2,0:0:0:0:
145,49,28715,1,0,0:0:0:0:
117,69,28800,1,8,0:2:0:0:
31,155,28970,6,0,P|31:132|36:103,1,36,10|2,2:3|2:2,0:0:0:0:
46,100,29139,1,2,2:2:0:0:
119,146,29309,1,2,2:2:0:0:
138,230,29478,1,10,2:2:0:0:
91,304,29648,1,2,2:2:0:0:
192,359,29817,6,0,L|235:355,1,36,2|0,0:2|0:0,0:0:0:0:
252,354,29987,2,0,L|295:350,1,36,10|0,0:3|0:0,0:0:0:0:
346,301,30156,6,0,P|353:275|353:248,1,53.9999983520508,14|0,0:3|0:0,0:0:0:0:
309,186,30326,2,0,B|269:191|269:191|235:183|211:140,1,107.999996704102,10|0,0:2|0:0,0:0:0:0:
26,220,30665,6,0,P|32:193|46:170,1,53.9999983520508,10|0,0:3|0:0,0:0:0:0:
120,136,30834,2,0,B|152:160|152:160|185:170|227:145,1,107.999996704102,14|0,0:2|0:0,0:0:0:0:
274,0,31173,6,0,B|229:19|229:19|217:149,1,180,10|8,0:3|0:2,0:0:0:0:
271,273,31681,5,10,2:3:0:0:
346,208,31851,1,2,2:2:0:0:
431,260,32020,1,2,2:2:0:0:
506,195,32190,1,10,2:2:0:0:
467,104,32359,1,2,2:2:0:0:
431,260,32529,6,0,L|424:175,1,62.9999980773926,2|2,0:0|0:0,0:0:0:0:
307,125,32868,2,0,L|314:40,1,62.9999980773926,6|2,0:0|0:0,0:0:0:0:
207,176,33207,2,0,L|201:113,1,62.9999980773926,10|8,0:0|0:3,0:0:0:0:
191,97,33461,1,8,0:3:0:0:
178,82,33546,2,0,P|140:76|103:77,1,62.9999980773926,10|10,0:0|0:0,0:0:0:0:
9,180,33885,6,0,P|57:168|106:164,1,99.0000030212403,14|2,0:3|0:2,0:0:0:0:
130,189,34139,1,0,0:0:0:0:
144,220,34224,1,8,0:2:0:0:
148,319,34393,6,0,P|125:316|97:307,1,36,2|2,2:2|2:2,0:0:0:0:
93,302,34563,1,2,2:2:0:0:
144,220,34732,1,10,2:3:0:0:
238,244,34902,1,10,2:2:0:0:
244,340,35071,1,2,2:0:0:0:
356,306,35241,6,0,B|396:290|396:290|418:260|409:214,1,121.499996292114,14|0,0:3|0:0,0:0:0:0:
409,215,35580,1,8,0:2:0:0:
298,176,35749,2,0,B|245:161|245:161|211:109|243:37,1,161.999995056153,12|0,0:3|0:0,0:0:0:0:
380,95,36258,6,0,B|356:53|307:60|307:60|265:78|234:57,1,161.999995056153,14|0,0:2|0:0,0:0:0:0:
157,73,36597,6,0,B|86:62|19:58|19:58|40:50|73:46,1,180,14|8,0:3|0:2,0:0:0:0:
111,158,37105,5,2,2:2:0:0:
157,73,37275,1,2,2:2:0:0:
253,70,37444,1,10,2:3:0:0:
303,151,37614,1,10,2:2:0:0:
257,234,37783,1,2,2:0:0:0:
334,324,37953,6,0,P|377:315|411:318,1,72,2|8,0:2|0:3,0:0:0:0:
478,227,38292,6,0,L|476:153,1,53.9999983520508,14|0,0:3|0:0,0:0:0:0:
408,143,38461,2,0,B|349:119|304:152|304:152|273:146|254:127,1,161.999995056153,10|0,0:2|0:0,0:0:0:0:
190,90,38800,6,0,P|163:83|136:81,1,53.9999983520508,6|0,0:3|0:0,0:0:0:0:
259,52,38970,2,0,P|277:32|292:10,1,53.9999983520508,10|0,0:2|0:0,0:0:0:0:
258,130,39139,2,0,P|265:155|277:180,1,53.9999983520508,2|0,0:2|0:0,0:0:0:0:
445,90,39309,6,0,B|409:58|409:58|259:52,1,198.000006042481,14|8,0:3|0:2,0:0:0:0:
159,125,39817,6,0,P|163:101|175:75,1,36,2|2,2:2|2:2,0:0:0:0:
180,69,39987,1,2,2:2:0:0:
257,131,40156,1,10,2:3:0:0:
223,220,40326,1,10,2:2:0:0:
127,216,40495,1,2,2:0:0:0:
9,289,40665,6,0,P|51:287|89:301,1,72,10|0,0:3|0:0,0:0:0:0:
190,322,41004,6,0,L|239:307,1,45,14|0,0:2|0:0,0:0:0:0:
311,345,41173,2,0,P|254:366|233:309,1,135,10|0,0:3|0:0,0:0:0:0:
300,269,41512,6,0,L|354:252,1,53.9999983520508,2|0,0:2|0:0,0:0:0:0:
421,310,41681,2,0,P|364:331|357:249,1,161.999995056153,14|0,0:2|0:0,0:0:0:0:
430,228,42020,6,0,B|474:207|474:207|510:147|471:81,1,180,12|8,0:3|0:2,0:0:0:0:
360,28,42529,5,2,2:2:0:0:
297,104,42698,1,2,2:2:0:0:
200,88,42868,1,10,2:3:0:0:
137,164,43037,1,10,2:2:0:0:
35,152,43207,1,2,2:0:0:0:
81,8,43376,6,0,P|93:37|95:68,1,62.9999980773926,10|2,0:3|0:0,0:0:0:0:
149,181,43715,2,0,P|137:210|135:241,1,62.9999980773926,6|8,0:0|0:0,0:0:0:0:
364,335,44224,5,10,0:3:0:0:
364,324,44309,1,2,0:0:0:0:
365,314,44393,1,10,0:0:0:0:
366,303,44478,1,2,0:0:0:0:
366,293,44563,1,2,0:0:0:0:
367,282,44648,1,2,0:0:0:0:
368,272,44732,6,0,B|319:243|274:278|274:278|226:277|217:231,1,180,14|8,0:3|0:2,0:0:0:0:
159,96,45241,2,0,P|228:148|217:233,1,180,10|0,0:3|0:0,0:0:0:0:
129,352,45749,2,0,P|139:266|219:233,1,180,10|0,0:2|0:0,0:0:0:0:
368,272,46258,5,8,0:3:0:0:
286,280,46427,1,8,0:3:0:0:
218,233,46597,2,0,B|182:195|182:195|159:130|212:78,1,180,8|10,0:2|0:3,0:0:0:0:
354,63,47105,5,10,0:2:0:0:
271,154,47275,1,2,0:2:0:0:
428,202,47444,6,0,P|372:153|256:162,1,180,12|8,0:3|0:2,0:0:0:0:
308,314,47953,2,0,P|378:290|428:185,1,180,10|0,0:3|0:0,0:0:0:0:
412,45,48461,5,10,0:2:0:0:
307,74,48631,2,0,L|166:57,1,135,2|0,0:2|0:0,0:0:0:0:
146,54,48970,1,10,0:3:0:0:
59,172,49139,5,6,0:2:0:0:
136,141,49309,2,0,P|149:98|144:48,1,90,8|0,0:2|0:0,0:0:0:0:
59,172,49648,5,6,0:2:0:0:
136,141,49817,2,0,P|179:151|220:180,1,90,8|0,0:2|0:0,0:0:0:0:
320,263,50156,6,0,B|369:234|414:269|414:269|462:268|470:224,1,180,14|8,0:3|0:2,0:0:0:0:
512,77,50665,2,0,P|452:139|470:224,1,180,10|0,0:3|0:0,0:0:0:0:
429,372,51173,2,0,P|488:309|470:224,1,180,10|0,0:2|0:0,0:0:0:0:
469,223,51681,1,8,0:3:0:0:
365,163,51851,5,14,0:3:0:0:
404,287,52020,1,10,0:2:0:0:
275,185,52190,5,2,0:2:0:0:
269,297,52359,1,10,0:3:0:0:
170,263,52529,6,0,P|236:274|284:317,1,108,14|0,0:2|0:0,0:0:0:0:
280,322,52868,6,0,L|81:310,1,180,10|8,0:3|0:2,0:0:0:0:
0,225,53376,2,0,B|46:240|46:240|93:189|68:102,1,180,10|0,0:3|0:0,0:0:0:0:
170,31,53885,2,0,B|129:4|129:4|70:41|72:132,1,180,10|0,0:2|0:0,0:0:0:0:
148,209,54393,5,2,0:2:0:0:
237,137,54563,2,0,P|280:122|325:121,1,90,6|0,0:0|0:0,0:0:0:0:
403,66,54902,5,8,0:0:0:0:
373,229,55071,1,14,0:3:0:0:
373,229,55156,1,10,0:3:0:0:
373,229,55241,1,10,0:0:0:0:
325,121,55410,1,10,0:0:0:0:
498,165,55580,6,0,P|458:156|396:154,1,90,14|0,0:3|0:0,0:0:0:0:
291,197,55919,1,10,0:2:0:0:
207,162,56088,6,0,P|203:180|203:198,1,36,2|2,2:0|2:2,0:0:0:0:
207,220,56258,1,2,2:0:0:0:
291,197,56427,1,10,2:3:0:0:
324,120,56597,1,10,2:2:0:0:
297,39,56766,1,2,2:0:0:0:
183,68,56936,6,0,L|30:56,1,148.50000453186,14|0,0:3|0:0,0:0:0:0:
38,60,57275,1,8,0:2:0:0:
146,155,57444,2,0,B|115:106|115:106|29:55,1,148.50000453186,6|0,0:2|0:0,0:0:0:0:
40,62,57783,1,8,0:3:0:0:
45,169,57953,6,0,L|39:61,1,107.999996704102,14|2,0:2|0:2,0:0:0:0:
2,238,58292,6,0,B|48:213|48:213|101:242|101:242|167:239,1,180,14|8,0:3|0:2,0:0:0:0:
290,174,58800,5,2,2:0:0:0:
252,251,58970,1,2,2:0:0:0:
167,239,59139,1,10,2:3:0:0:
152,154,59309,1,10,2:2:0:0:
229,114,59478,1,2,2:2:0:0:
290,174,59648,6,0,B|405:165,1,90,10|2,0:3|0:2,0:0:0:0:
480,34,59987,2,0,B|430:138,1,90,12|0,0:2|0:0,0:0:0:0:
394,246,60326,5,2,0:2:0:0:
441,115,60495,1,14,0:3:0:0:
506,268,60665,2,0,B|440:172,1,90,10|0,0:2|0:0,0:0:0:0:
290,174,61004,6,0,L|183:163,1,90,14|0,0:3|0:0,0:0:0:0:
185,176,61258,1,0,0:0:0:0:
174,192,61343,5,10,2:0:0:0:
97,152,61512,1,2,2:0:0:0:
93,65,61681,1,2,2:0:0:0:
166,19,61851,1,10,2:3:0:0:
242,59,62020,6,0,B|275:55|275:55|313:61|313:61|349:57,1,108,14|0,0:2|0:0,0:0:0:0:
372,63,62359,2,0,P|386:95|386:131,1,72,8|0,0:3|0:0,0:0:0:0:
294,194,62698,6,0,B|256:189|256:189|212:196|212:196|171:191,1,121.499996292114,14|0,0:2|0:0,0:0:0:0:
150,188,63037,1,2,0:2:0:0:
42,214,63207,1,10,0:3:0:0:
137,265,63376,2,0,P|151:233|146:179,1,80.9999975280763,14|0,0:2|0:0,0:0:0:0:
99,23,63715,5,14,0:3:0:0:
124,105,63885,1,8,0:3:0:0:
205,15,64054,5,8,0:2:0:0:
207,124,64224,1,8,0:3:0:0:
307,15,64393,5,8,0:2:0:0:
309,128,64563,1,8,0:3:0:0:
309,128,64902,5,8,0:2:0:0:
413,23,65071,1,8,0:3:0:0:
388,105,65241,5,0,0:2:0:0:
311,19,65410,1,8,0:2:0:0:
311,19,65749,5,2,0:0:0:0:
207,124,65919,1,10,0:3:0:0:
205,6,66088,5,2,0:0:0:0:
205,15,66173,1,2,0:0:0:0:
205,25,66258,1,2,0:0:0:0:
205,35,66343,1,2,0:0:0:0:
205,45,66427,1,12,0:3:0:0:
153,265,76766,5,8,0:3:0:0:
152,276,76851,1,8,0:3:0:0:
151,287,76936,1,8,0:2:0:0:
63,140,77275,6,0,L|56:84,1,45,10|0,0:3|0:0,0:0:0:0:
137,109,77614,2,0,L|144:53,1,45,10|8,0:0|0:3,0:0:0:0:
216,98,77953,2,0,L|237:46,1,45,2|0,0:0|0:0,0:0:0:0:
295,107,78292,6,0,P|341:88|384:96,1,90,8|0,0:0|0:0,0:0:0:0:
434,161,78800,1,8,0:3:0:0:
434,161,78970,1,8,0:3:0:0:
434,161,79139,2,0,P|394:130|379:89,1,90,8|8,0:0|0:3,0:0:0:0:
437,36,79648,5,10,0:0:0:0:
437,36,79817,1,2,0:0:0:0:
387,102,79987,1,10,0:3:0:0:
387,102,80156,1,2,0:0:0:0:
434,161,80326,5,8,0:0:0:0:
387,102,80495,2,0,L|328:94,1,45,8|0,0:3|0:0,0:0:0:0:
144,29,81004,5,10,0:0:0:0:
144,29,81173,1,2,0:0:0:0:
152,109,81343,1,2,0:0:0:0:
152,109,81512,1,10,0:3:0:0:
214,62,81681,5,8,0:3:0:0:
144,29,81851,1,8,0:0:0:0:
152,109,82020,6,0,L|149:163,1,45,2|8,0:0|0:3,0:0:0:0:
191,223,82359,2,0,L|150:259,1,45,10|0,0:0|0:0,0:0:0:0:
137,331,82698,2,0,L|47:325,1,90,10|8,0:3|0:0,0:0:0:0:
47,325,83207,1,8,0:3:0:0:
157,253,83376,6,0,L|262:260,1,90,2|8,0:0|0:0,0:0:0:0:
337,265,83885,2,0,L|232:258,1,90,2|8,0:0|0:3,0:0:0:0:
157,253,84393,5,10,0:3:0:0:
247,259,84563,1,8,0:0:0:0:
468,132,84902,1,10,0:3:0:0:
378,126,85071,1,8,0:0:0:0:
157,253,85410,6,0,P|128:207|132:144,1,107.999996704102,10|8,0:3|0:0,0:0:0:0:
128,154,85919,1,8,0:3:0:0:
231,106,86088,2,0,P|268:68|280:16,1,107.999996704102,2|8,0:0|0:0,0:0:0:0:
421,189,86766,5,10,0:3:0:0:
421,189,86851,1,8,0:3:0:0:
421,189,86936,1,8,0:3:0:0:
471,103,87105,2,0,L|481:30,1,53.9999983520508,10|8,0:0|0:3,0:0:0:0:
478,49,87359,1,8,0:3:0:0:
478,49,87444,1,10,0:3:0:0:
394,70,87614,1,10,0:3:0:0:
327,23,87783,1,10,0:0:0:0:
157,150,88122,6,0,B|158:128|158:128|154:109|154:109|157:87,1,62.9999980773926,12|2,0:3|0:0,0:0:0:0:
218,23,88461,1,8,0:0:0:0:
274,91,88631,2,0,B|272:113|272:113|276:132|276:132|274:154,1,62.9999980773926,2|0,0:2|0:0,0:0:0:0:
213,218,88970,1,8,0:3:0:0:
157,150,89139,5,8,0:0:0:0:
83,198,89309,2,0,B|61:196|61:196|42:200|42:200|20:198,1,62.9999980773926,2|0,0:0|0:0,0:0:0:0:
133,294,89648,1,10,0:3:0:0:
133,294,89817,1,10,0:3:0:0:
213,218,89987,2,0,B|235:216|235:216|254:220|254:220|276:218,1,62.9999980773926,10|0,0:0|0:0,0:0:0:0:
351,173,90326,1,10,0:3:0:0:
438,251,90495,5,10,0:0:0:0:
496,184,90665,2,0,B|498:162|498:162|494:143|494:143|496:121,1,62.9999980773926,2|8,0:0|0:3,0:0:0:0:
351,173,91004,2,0,B|353:151|353:151|349:132|349:132|351:110,1,62.9999980773926,2|8,0:0|0:0,0:0:0:0:
495,121,91343,2,0,B|493:99|493:99|497:80|497:80|495:58,1,62.9999980773926,2|0,0:0|0:0,0:0:0:0:
424,10,91681,1,10,0:3:0:0:
350,110,91851,5,10,0:0:0:0:
263,58,92020,2,0,B|222:54|222:54|171:64|171:64|121:58,1,144,2|8,0:0|0:3,0:0:0:0:
187,197,92529,5,10,0:3:0:0:
262,129,92698,2,0,B|260:104|260:104|265:82|265:82|262:56,1,72,10|0,0:0|0:0,0:0:0:0:
187,197,93037,5,10,0:3:0:0:
120,128,93207,2,0,B|121:103|121:103|116:81|116:81|120:55,1,72,10|2,0:0|0:0,0:0:0:0:
51,236,93546,6,0,B|52:211|52:211|47:189|47:189|51:163,1,72,10|2,0:3|0:0,0:0:0:0:
186,268,93885,1,8,0:0:0:0:
186,268,94054,2,0,B|184:243|184:243|189:221|189:221|186:195,1,72,2|0,0:0|0:0,0:0:0:0:
50,164,94393,1,10,0:3:0:0:
158,123,94563,6,0,B|184:116|184:116|210:121,2,53.9999983520508,10|2|2,0:3|0:0|0:0,0:0:0:0:
50,164,94902,2,0,L|45:60,1,80.9999975280763,2|10,0:0|0:3,0:0:0:0:
167,13,95241,5,2,0:0:0:0:
210,121,95410,1,10,0:0:0:0:
308,55,95580,6,0,L|342:46,14,20.2499993820191,2|0|0|0|10|0|0|0|10|0|0|0|2|0|0,0:0|0:0|0:0|0:0|0:3|0:0|0:0|0:0|0:0|0:0|0:0|0:0|0:0|0:0|0:0,0:0:0:0:
399,89,96258,6,0,L|433:80,24,22.5,10|0|0|0|0|0|0|0|10|0|0|0|0|0|0|0|10|0|0|0|10|0|0|0|10,0:3|0:0|0:0|0:0|0:0|0:0|0:0|0:0|0:2|0:0|0:0|0:0|0:0|0:0|0:0|0:0|0:3|0:0|0:0|0:0|0:3|0:0|0:0|0:0|0:0,0:0:0:0:
494,275,97614,6,0,P|436:237|308:240,1,180,10|8,1:3|1:2,0:0:0:0:
204,356,98122,1,8,0:0:0:0:
204,356,98207,1,8,0:3:0:0:
204,356,98292,2,0,L|198:260,1,90,8|8,0:3|0:3,0:0:0:0:
64,192,98631,1,8,0:0:0:0:
64,192,98970,6,0,P|112:179|193:177,1,99.0000030212403,14|2,0:3|0:2,0:0:0:0:
195,180,99224,1,0,0:0:0:0:
224,197,99309,1,8,0:2:0:0:
321,176,99478,6,0,P|312:154|296:129,1,36,10|2,2:3|2:2,0:0:0:0:
290,127,99648,1,2,2:2:0:0:
224,197,99817,1,2,2:2:0:0:
128,200,99987,1,10,2:2:0:0:
57,134,100156,1,2,2:2:0:0:
144,75,100326,6,0,P|144:57|141:39,1,36,2|0,0:2|0:0,0:0:0:0:
161,107,100495,2,0,P|156:68|135:32,1,72,10|8,0:3|0:3,0:0:0:0:
173,135,100834,2,0,P|173:82|141:40,1,108,10|0,0:2|0:0,0:0:0:0:
144,43,101173,1,8,0:3:0:0:
187,159,101343,6,0,B|214:112|199:60|199:60|180:40|144:43,1,161.999995056153,14|0,1:2|0:0,0:0:0:0:
84,90,101681,6,0,B|80:158|80:158|60:199|60:199|54:267,1,180,14|8,0:3|0:2,0:0:0:0:
181,322,102190,5,10,2:3:0:0:
89,356,102359,1,2,2:2:0:0:
55,265,102529,1,2,2:2:0:0:
145,230,102698,1,10,2:2:0:0:
181,322,102868,1,2,2:2:0:0:
55,265,103037,6,0,P|50:230|59:195,1,72,2|8,0:2|0:3,0:0:0:0:
226,229,103376,6,0,B|231:203|231:203|228:175,1,53.9999983520508,14|0,0:3|0:0,0:0:0:0:
173,120,103546,2,0,B|195:164|228:175|228:175|257:155|266:106,1,161.999995056153,10|0,0:2|0:0,0:0:0:0:
339,150,103885,6,0,B|340:123|340:123|350:97,1,53.9999983520508,14|0,0:3|0:0,0:0:0:0:
418,58,104054,2,0,B|385:95|350:97|350:97|327:70|331:21,1,161.999995056153,10|0,0:2|0:0,0:0:0:0:
252,27,104393,6,0,P|208:21|116:18,1,99.0000030212403,14|2,0:3|0:2,0:0:0:0:
119,22,104648,1,0,0:2:0:0:
91,42,104732,1,8,0:2:0:0:
52,122,104902,6,0,P|32:109|11:89,1,36,10|2,2:3|2:2,0:0:0:0:
13,78,105071,1,2,2:2:0:0:
91,42,105241,1,2,2:2:0:0:
172,72,105410,1,10,2:2:0:0:
209,151,105580,1,2,2:2:0:0:
299,123,105749,6,0,L|342:119,1,36,2|0,0:2|0:0,0:0:0:0:
359,118,105919,2,0,L|402:114,1,36,10|0,0:3|0:0,0:0:0:0:
472,154,106088,6,0,P|479:127|479:101,1,53.9999983520508,14|0,0:3|0:0,0:0:0:0:
443,25,106258,2,0,B|371:12|371:12|336:44,1,107.999996704102,10|0,0:2|0:0,0:0:0:0:
193,118,106597,6,0,P|192:91|199:64,1,53.9999983520508,10|0,0:3|0:0,0:0:0:0:
254,0,106767,2,0,B|326:6|326:6|352:45,1,107.999996704102,14|0,0:2|0:0,0:0:0:0:
363,195,107105,6,0,B|324:165|324:165|346:36,1,180,10|8,0:3|0:2,0:0:0:0:
501,16,107614,5,10,2:3:0:0:
430,82,107783,1,2,2:2:0:0:
345,36,107952,1,2,2:2:0:0:
274,102,108122,1,10,2:2:0:0:
314,189,108292,1,2,2:2:0:0:
424,144,108462,6,0,L|429:81,1,62.9999980773926,2|0,0:0|0:0,0:0:0:0:
274,102,108801,2,0,L|267:17,1,62.9999980773926,6|2,0:0|0:0,0:0:0:0:
140,133,109140,2,0,L|146:70,1,62.9999980773926,10|8,0:0|0:3,0:0:0:0:
139,52,109394,1,8,0:3:0:0:
126,37,109479,2,0,P|88:31|51:32,1,62.9999980773926,10|10,0:2|0:0,0:0:0:0:
0,217,109818,6,0,P|48:205|97:201,1,99.0000030212403,14|2,0:3|0:2,0:0:0:0:
121,226,110072,1,0,0:0:0:0:
135,257,110157,1,8,0:2:0:0:
228,218,110326,6,0,P|215:198|194:177,1,36,0|0,0:2|0:0,0:0:0:0:
187,177,110496,1,2,2:2:0:0:
135,257,110665,1,10,2:3:0:0:
179,343,110834,1,10,2:2:0:0:
275,346,111004,1,2,2:0:0:0:
325,265,111173,5,12,0:3:0:0:
326,256,111257,1,8,0:3:0:0:
327,247,111342,1,8,0:3:0:0:
328,238,111427,1,8,0:3:0:0:
329,229,111512,2,0,L|326:182,1,36,8|0,0:0|0:0,0:0:0:0:
402,181,111681,6,0,P|346:146|411:75,1,180,2|10,2:0|2:3,0:0:0:0:
510,77,112190,6,0,B|403:73|403:73|338:64|322:0,1,215.999993408203,14|8,0:0|0:3,0:0:0:0:
324,7,112868,6,0,L|312:165,1,144,14|0,0:0|0:0,0:0:0:0:
313,150,113376,1,8,0:3:0:0:
248,261,113546,5,10,2:0:0:0:
227,176,113715,1,2,2:0:0:0:
153,130,113885,1,10,2:3:0:0:
67,149,114054,1,2,2:0:0:0:
137,234,114224,6,0,B|139:209|156:187|156:187|164:164|153:130|153:130|188:158|235:162|235:162|261:139|298:124,1,269.999991760254,14|0,0:2|0:0,0:0:0:0:
329,53,114733,6,0,P|333:25|332:-1,1,53.9999983520508,14|0,0:3|0:0,0:0:0:0:
373,117,114903,2,0,P|394:132|418:145,1,53.9999983520508,2|0,0:0|0:0,0:0:0:0:
296,125,115071,2,0,P|272:135|249:149,1,53.9999983520508,10|0,0:3|0:0,0:0:0:0:
221,189,115241,1,2,0:3:0:0:
293,288,115410,6,0,L|298:208,2,80.9999975280763,2|10|2,2:0|2:0|2:0,0:0:0:0:
194,360,115919,5,14,0:3:0:0:
221,189,116088,1,10,0:3:0:0:
293,288,116258,5,10,0:2:0:0:
122,261,116427,1,0,0:0:0:0:
221,189,116597,5,12,0:3:0:0:
221,178,116681,1,8,0:3:0:0:
221,168,116766,1,8,0:3:0:0:
221,158,116851,1,8,0:3:0:0:
222,148,116936,2,0,P|220:119|216:103,1,36,8|0,0:2|0:0,0:0:0:0:
148,72,117105,6,0,P|198:114|246:30,1,180,2|8,2:2|0:3,0:0:0:0:
148,72,117614,6,0,B|31:67|31:67|8:57|-8:20,1,161.999995056153,14|0,2:2|0:0,0:0:0:0:
22,49,117953,6,0,L|34:170,1,90,12|2,0:3|0:2,0:0:0:0:
39,225,118292,2,0,B|77:168|47:96|47:96|17:173,1,180,10|0,0:0|0:0,0:0:0:0:
135,205,118800,6,0,L|199:193,1,53.9999983520508,14|0,0:3|0:0,0:0:0:0:
199,277,118970,2,0,B|227:219|202:158|202:158|176:224,1,161.999995056153,10|0,0:2|0:0,0:0:0:0:
294,208,119309,6,0,P|301:174|301:135,1,62.9999980773926,10|2,0:3|0:0,0:0:0:0:
190,80,119648,2,0,P|183:46|183:7,1,62.9999980773926,14|2,0:3|0:0,0:0:0:0:
109,139,119987,1,8,0:0:0:0:
20,89,120156,5,6,0:0:0:0:
21,77,120241,1,10,0:0:0:0:
22,67,120325,1,10,0:3:0:0:
24,56,120410,1,2,0:0:0:0:
25,46,120495,1,10,0:0:0:0:
27,36,120580,1,2,0:0:0:0:
28,26,120665,6,0,B|81:7|118:51|118:51|165:60|183:15,1,180,14|8,0:3|0:2,0:0:0:0:
262,132,121173,2,0,P|261:47|182:18,1,180,10|0,0:3|0:0,0:0:0:0:
262,132,121681,2,0,P|346:131|375:52,1,180,10|0,0:2|0:0,0:0:0:0:
182,18,122190,5,8,0:3:0:0:
184,100,122359,1,8,0:3:0:0:
262,132,122529,2,0,B|309:161|309:161|335:227|294:278,1,180,8|10,0:2|0:3,0:0:0:0:
135,179,123037,5,10,0:2:0:0:
234,211,123207,1,2,0:2:0:0:
106,278,123376,6,0,P|149:204|234:211,1,180,12|8,0:3|0:2,0:0:0:0:
318,299,123885,2,0,P|403:306|446:232,1,180,10|0,0:3|0:0,0:0:0:0:
354,80,124393,5,10,0:2:0:0:
262,132,124563,2,0,B|177:142|177:142|122:121,1,135,2|0,0:2|0:0,0:0:0:0:
106,111,124902,1,10,0:3:0:0:
187,2,125071,5,6,0:2:0:0:
271,44,125241,2,0,P|274:88|261:131,1,90,8|0,0:2|0:0,0:0:0:0:
180,240,125580,5,6,0:2:0:0:
96,198,125750,2,0,P|92:153|105:110,1,90,8|0,0:2|0:0,0:0:0:0:
262,131,126088,6,0,B|311:102|356:137|356:137|404:136|412:92,1,180,14|8,0:3|0:2,0:0:0:0:
452,239,126597,2,0,P|471:153|409:91,1,180,10|0,0:3|0:0,0:0:0:0:
304,201,127105,2,0,P|368:259|453:238,1,180,10|0,0:2|0:0,0:0:0:0:
452,238,127613,1,8,0:3:0:0:
412,92,127783,5,14,0:3:0:0:
304,201,127952,1,10,0:2:0:0:
279,29,128122,5,2,0:2:0:0:
268,129,128291,1,10,0:3:0:0:
167,113,128461,6,0,P|214:105|269:130,1,108,14|0,0:2|0:0,0:0:0:0:
255,148,128800,6,0,P|170:145|140:65,1,180,10|8,0:3|0:2,0:0:0:0:
11,124,129309,2,0,P|56:52|140:66,1,180,10|0,0:3|0:0,0:0:0:0:
255,148,129817,2,0,L|270:32,1,90,8|0,0:2|0:0,0:0:0:0:
416,6,130156,5,8,2:3:0:0:
454,148,130326,1,10,2:3:0:0:
454,148,130410,1,10,2:3:0:0:
454,148,130495,1,10,2:2:0:0:
512,6,130665,5,8,2:0:0:0:
510,19,130749,1,8,2:3:0:0:
508,33,130834,1,8,2:3:0:0:
506,47,130919,1,8,2:3:0:0:
504,61,131004,1,8,2:3:0:0:
454,148,131173,6,0,B|432:147|409:140|409:140|414:146|414:146|379:137|379:137|384:143|384:143|346:135|346:135|350:141|350:141|322:132|297:135,1,188.999994232178,10|0,0:2|0:0,0:0:0:0:
256,192,131512,5,14,0:3:0:0:
256,192,131597,12,0,134732,0:0:0:0:
