osu file format v14

[General]
AudioFilename: audio.mp3
AudioLeadIn: 0
PreviewTime: 44054
Countdown: 0
SampleSet: Soft
StackLeniency: 0.7
Mode: 0
LetterboxInBreaks: 0
WidescreenStoryboard: 1

[Editor]
Bookmarks: 98970,109817
DistanceSpacing: 1
BeatDivisor: 4
GridSize: 16
TimelineZoom: 1.6

[Metadata]
Title:Pulsation
TitleUnicode:Pulsation
Artist:syrela
ArtistUnicode:syrela
Creator:Lasse
Version:Easy
Source:BMS
Tags:bofu2017 drumstep genkai records
BeatmapID:1443093
BeatmapSetID:677886

[Difficulty]
HPDrainRate:3
CircleSize:3
OverallDifficulty:3
ApproachRate:4
SliderMultiplier:1
SliderTickRate:1

[Events]
//Background and Video events
0,0,"bg.jpg",0,0
//Break Periods
2,68800,75955
//Storyboard Layer 0 (Background)
//Storyboard Layer 1 (Fail)
//Storyboard Layer 2 (Pass)
//Storyboard Layer 3 (Foreground)
//Storyboard Sound Samples

[TimingPoints]
1343,338.983050847458,4,2,23,30,1,0
1343,-142.857142857143,4,2,23,30,0,0
2868,-142.857142857143,4,2,23,36,0,0
4224,-142.857142857143,4,2,23,38,0,0
5580,-142.857142857143,4,2,23,42,0,0
6936,-142.857142857143,4,2,23,44,0,0
8292,-142.857142857143,4,2,23,46,0,0
9648,-142.857142857143,4,2,23,48,0,0
11004,-142.857142857143,4,2,23,50,0,0
12190,-117.647058823529,4,2,1,60,0,0
14902,-117.647058823529,4,2,1,62,0,0
17614,-117.647058823529,4,2,1,64,0,0
17783,-117.647058823529,4,2,1,32,0,0
17953,-117.647058823529,4,2,1,64,0,0
18122,-117.647058823529,4,2,1,32,0,0
18292,-117.647058823529,4,2,1,64,0,0
18461,-117.647058823529,4,2,1,32,0,0
18631,-117.647058823529,4,2,1,66,0,0
18800,-117.647058823529,4,2,1,33,0,0
18970,-117.647058823529,4,2,1,66,0,0
19139,-117.647058823529,4,2,1,33,0,0
19309,-117.647058823529,4,2,1,66,0,0
19478,-117.647058823529,4,2,1,33,0,0
19648,-117.647058823529,4,2,1,68,0,0
19817,-117.647058823529,4,2,1,34,0,0
19987,-117.647058823529,4,2,1,68,0,0
20156,-117.647058823529,4,2,1,34,0,0
20326,-117.647058823529,4,2,1,70,0,0
21681,-117.647058823529,4,2,1,50,0,0
21703,-117.647058823529,4,2,20,20,0,0
22698,-117.647058823529,4,2,23,70,0,0
23037,-100,4,1,1,80,0,0
23546,-100,4,1,1,74,0,0
24393,-100,4,1,1,76,0,0
25410,-100,4,1,1,80,0,0
26258,-100,4,1,1,74,0,0
27105,-100,4,1,1,70,0,0
27275,-100,4,1,1,60,0,0
27444,-100,4,1,1,76,0,0
27614,-100,4,1,1,78,0,0
27953,-100,4,1,1,76,0,0
28122,-100,4,1,1,80,0,0
28970,-100,4,1,1,74,0,0
30156,-100,4,1,1,80,0,0
30495,-100,4,1,1,40,0,0
30665,-100,4,1,1,80,0,0
31004,-100,4,1,1,40,0,0
31173,-100,4,1,1,76,0,0
31681,-100,4,1,1,74,0,0
32529,-100,4,2,1,50,0,0
32698,-100,4,2,1,30,0,0
32868,-100,4,2,1,60,0,0
33037,-100,4,2,1,30,0,0
33207,-100,4,2,1,70,0,0
33885,-100,4,1,1,80,0,0
34393,-100,4,1,1,74,0,0
35241,-100,4,1,1,78,0,0
35580,-100,4,1,1,76,0,0
36088,-100,4,1,1,60,0,0
36258,-100,4,1,1,80,0,0
37105,-100,4,1,1,74,0,0
37953,-100,4,1,1,66,0,0
38122,-100,4,1,1,60,0,0
38292,-100,4,1,1,74,0,0
38461,-100,4,1,1,78,0,0
38800,-100,4,1,1,74,0,0
39309,-100,4,1,1,78,0,0
39817,-100,4,1,1,74,0,0
40665,-100,4,1,1,72,0,0
40834,-100,4,1,1,60,0,0
41004,-100,4,1,1,74,0,0
41173,-100,4,1,1,76,0,0
41512,-100,4,1,1,74,0,0
41681,-100,4,1,1,78,0,0
42020,-100,4,1,1,80,0,0
42529,-100,4,1,1,74,0,0
43376,-100,4,2,1,60,0,0
43546,-100,4,2,1,40,0,0
43715,-100,4,2,1,68,0,0
43885,-100,4,2,23,64,0,0
44224,-100,4,2,1,60,0,0
44309,-100,4,2,23,62,0,0
44393,-100,4,2,23,64,0,0
44478,-100,4,2,23,66,0,0
44563,-100,4,2,23,68,0,0
44648,-100,4,2,23,70,0,0
44732,-100,4,1,34,90,0,1
44754,-100,4,1,1,80,0,1
54224,-100,4,1,1,50,0,1
54393,-99.9999999999999,4,2,1,60,0,0
54563,-99.9999999999999,4,2,1,70,0,0
54732,-99.9999999999999,4,2,1,60,0,0
54902,-99.9999999999999,4,2,23,64,0,0
55071,-99.9999999999999,4,2,23,66,0,0
55156,-99.9999999999999,4,2,23,68,0,0
55241,-99.9999999999999,4,2,23,70,0,0
55410,-99.9999999999999,4,2,23,72,0,0
55580,-100,4,1,34,80,0,1
55749,-100,4,1,1,80,0,1
56088,-100,4,1,1,70,0,1
56173,-100,4,1,1,74,0,1
56936,-100,4,1,1,76,0,1
57444,-100,4,1,1,78,0,1
57783,-100,4,1,1,80,0,1
58122,-100,4,1,1,70,0,1
58292,-100,4,1,1,80,0,1
58800,-100,4,1,1,70,0,1
58885,-100,4,1,1,74,0,1
59817,-100,4,1,1,70,0,1
59987,-100,4,1,1,78,0,1
60156,-100,4,1,1,70,0,1
60326,-100,4,1,1,72,0,1
61004,-100,4,1,1,74,0,1
62020,-100,4,1,1,76,0,1
62359,-100,4,1,1,70,0,1
62529,-100,4,1,1,60,0,1
62698,-100,4,1,1,74,0,1
63376,-100,4,1,1,78,0,1
63715,-100,4,1,1,80,0,1
64902,-100,4,1,1,78,0,1
65749,-100,4,2,23,60,0,1
66088,-100,4,2,23,58,0,1
66173,-100,4,2,23,56,0,1
66258,-100,4,2,23,54,0,1
66343,-100,4,2,23,52,0,1
66427,-100,4,1,34,40,0,0
76766,-125,4,1,23,60,0,0
77275,-142.857142857143,4,2,23,40,0,0
84393,-142.857142857143,4,2,23,42,0,0
85410,-142.857142857143,4,2,23,44,0,0
85749,-142.857142857143,4,2,23,46,0,0
85919,-142.857142857143,4,2,23,44,0,0
86088,-142.857142857143,4,2,23,42,0,0
86766,-142.857142857143,4,2,23,44,0,0
86851,-142.857142857143,4,2,23,45,0,0
86936,-142.857142857143,4,2,23,46,0,0
87105,-142.857142857143,4,2,2,50,0,0
87275,-142.857142857143,4,2,23,46,0,0
87359,-142.857142857143,4,2,23,47,0,0
87444,-142.857142857143,4,2,23,48,0,0
87614,-142.857142857143,4,2,1,50,0,0
87783,-142.857142857143,4,2,1,52,0,0
88122,-125,4,2,1,50,0,0
91851,-125,4,2,1,52,0,0
92529,-125,4,2,1,54,0,0
93546,-125,4,2,1,56,0,0
94563,-125,4,2,1,64,0,0
94676,-125,4,2,1,60,0,0
94902,-125,4,2,1,62,0,0
95241,-125,4,2,1,64,0,0
95580,-125,4,2,1,66,0,0
95749,-125,4,2,1,68,0,0
95919,-125,4,2,1,70,0,0
96088,-125,4,2,1,72,0,0
96258,-111.111111111111,4,2,1,74,0,0
96300,-111.111111111111,4,2,1,40,0,0
96597,-111.111111111111,4,2,1,76,0,0
96639,-111.111111111111,4,2,1,42,0,0
96936,-111.111111111111,4,2,1,76,0,0
96978,-111.111111111111,4,2,1,44,0,0
97105,-111.111111111111,4,2,1,76,0,0
97148,-111.111111111111,4,2,1,44,0,0
97275,-111.111111111111,4,2,1,70,0,0
97296,-111.111111111111,4,2,1,46,0,0
97614,-111.111111111111,4,1,23,70,0,0
97953,-111.111111111111,4,1,2,70,0,0
98122,-111.111111111111,4,2,1,70,0,0
98207,-111.111111111111,4,2,23,70,0,0
98461,-111.111111111111,4,2,1,70,0,0
98970,-100,4,1,1,80,0,0
99478,-100,4,1,1,74,0,0
100326,-100,4,1,1,76,0,0
101343,-100,4,1,1,80,0,0
102190,-100,4,1,1,74,0,0
103037,-100,4,1,1,70,0,0
103207,-100,4,1,1,60,0,0
103376,-100,4,1,1,76,0,0
103546,-100,4,1,1,78,0,0
103885,-100,4,1,1,76,0,0
104054,-100,4,1,1,80,0,0
104902,-100,4,1,1,74,0,0
106088,-100,4,1,1,80,0,0
106427,-100,4,1,1,60,0,0
106597,-100,4,1,1,80,0,0
107105,-100,4,1,1,76,0,0
107359,-100,4,2,99,5,0,0
107444,-100,4,1,1,76,0,0
107614,-100,4,1,1,74,0,0
108461,-100,4,2,1,50,0,0
108631,-100,4,2,1,30,0,0
108800,-100,4,2,1,60,0,0
108970,-100,4,2,1,30,0,0
109139,-100,4,2,1,70,0,0
109817,-100,4,1,1,80,0,0
110495,-100,4,1,1,74,0,0
111173,-100,4,2,2,70,0,0
111512,-100,4,2,1,70,0,0
111681,-100,4,1,1,72,0,0
112020,-100,4,2,1,72,0,0
112190,-100,4,2,1,80,0,0
112529,-100,4,1,1,80,0,0
112868,-100,4,2,23,60,0,0
113207,-100,4,2,23,40,0,0
113376,-100,4,2,23,60,0,0
113546,-100,4,1,1,70,0,0
113885,-100,4,1,1,72,0,0
114224,-100,4,2,1,80,0,0
114245,-100,4,2,20,60,0,0
114732,-100,4,2,1,74,0,0
115410,-100,4,1,1,68,0,0
115919,-100,4,1,1,80,0,0
116597,-100,4,2,2,70,0,0
116936,-100,4,2,1,70,0,0
117105,-100,4,1,1,70,0,0
117444,-100,4,2,1,70,0,0
117614,-100,4,2,1,74,0,0
117953,-100,4,2,1,70,0,0
118122,-100,4,2,1,60,0,0
118292,-100,4,2,1,66,0,0
118631,-100,4,2,1,54,0,0
118800,-100,4,2,1,70,0,0
118970,-100,4,1,1,76,0,0
119309,-100,4,2,1,60,0,0
119478,-100,4,2,1,40,0,0
119648,-100,4,2,1,66,0,0
119817,-100,4,2,1,40,0,0
119987,-100,4,2,1,62,0,0
120156,-100,4,2,1,60,0,0
120241,-100,4,2,1,62,0,0
120326,-100,4,2,1,64,0,0
120410,-100,4,2,1,66,0,0
120495,-100,4,2,1,68,0,0
120580,-100,4,2,1,70,0,0
120665,-100,4,1,34,90,0,1
120686,-100,4,1,1,80,0,1
130156,-100,4,2,1,74,0,1
130326,-100,4,2,2,68,0,1
130665,-100,4,2,23,66,0,1
130749,-100,4,2,2,66,0,1
131004,-100,4,2,1,70,0,1
131173,-100,4,2,23,74,0,1
131512,-100,4,2,34,20,0,0
131533,-100,4,2,20,10,0,0
134732,-100,4,2,99,5,0,0

[Colours]
Combo1 : 250,190,230
Combo2 : 130,200,230
Combo3 : 255,230,140
Combo4 : 170,245,170

[HitObjects]
108,75,1343,5,14,0:3:0:0:
150,323,2868,1,2,0:0:0:0:
370,285,4224,1,2,0:0:0:0:
332,65,5580,1,2,0:0:0:0:
182,231,6936,6,0,L|35:219,1,139.999995727539,2|10,0:0|0:3,0:0:0:0:
6,98,8292,2,0,L|152:89,1,139.999995727539,2|10,0:0|0:3,0:0:0:0:
250,159,9648,1,2,0:0:0:0:
355,89,10326,1,10,0:3:0:0:
454,166,11004,2,0,L|471:308,1,139.999995727539,2|10,0:0|0:3,0:0:0:0:
352,353,12190,6,0,P|305:343|252:336,1,85.0000016212464,12|8,0:3|0:0,0:0:0:0:
98,340,13207,1,8,0:0:0:0:
45,273,13546,2,0,P|55:226|62:173,1,85.0000016212464,8|8,0:3|0:0,0:0:0:0:
79,20,14563,1,8,0:0:0:0:
153,60,14902,6,0,L|241:55,1,85.0000016212464,14|10,0:3|0:0,0:0:0:0:
405,27,15919,1,10,0:0:0:0:
458,93,16258,2,0,L|453:181,1,85.0000016212464,10|10,0:3|0:0,0:0:0:0:
387,334,17275,1,10,0:0:0:0:
324,276,17614,6,0,B|301:246|300:216|300:216|325:169|302:114,1,170.000003242493,10|8,0:3|0:3,0:0:0:0:
233,65,18631,2,0,L|133:54,2,85.0000016212464,10|12|8,0:3|0:3|0:3,0:0:0:0:
307,24,19648,1,14,0:3:0:0:
474,55,20326,6,0,B|472:76|462:95|462:95|487:130|487:130|462:164|462:164|491:195|491:195|466:230|466:230|486:266|486:266|465:304|465:304|475:324|473:356,1,340.000006484985,14|10,0:3|0:3,0:0:0:0:
219,361,22698,1,8,0:0:0:0:
162,278,23037,6,0,B|123:234|129:185|129:185|156:153|156:153|148:118|166:96|166:96|217:71|263:107,1,300,14|10,0:3|2:2,0:0:0:0:
345,149,24393,2,0,B|380:144|380:144|398:148|398:148|418:139|418:139|504:139,2,150,2|10|14,0:2|0:2|0:2,0:0:0:0:
262,205,25749,5,14,0:3:0:0:
153,36,26427,1,2,2:2:0:0:
23,188,27105,2,0,B|9:222|9:222|12:299,1,100,2|14,0:3|0:3,0:0:0:0:
140,362,27953,1,14,0:3:0:0:
257,265,28461,6,0,B|293:231|350:252|350:252|373:236|373:236|406:267|460:273|501:231|488:182,1,300,14|10,0:3|2:2,0:0:0:0:
423,105,29817,2,0,L|308:98,1,100,2|14,0:2|0:3,0:0:0:0:
196,17,30665,1,10,0:3:0:0:
135,154,31173,6,0,B|112:207|137:252|137:252|111:314|49:289,1,200,10|2,0:3|2:2,0:0:0:0:
0,119,32529,2,0,P|27:65|60:39,1,100,2|6,0:0|0:0,0:0:0:0:
153,67,33207,2,0,L|268:61,1,100,10|10,0:0|0:0,0:0:0:0:
347,28,33885,6,0,B|405:21|441:51|441:51|430:80|413:105|413:105|400:148|417:182|417:182|419:210|406:246,1,300,14|10,0:3|2:2,0:0:0:0:
329,304,35241,2,0,B|233:273|233:273|181:294,2,150,14|12|14,0:3|0:3|0:2,0:0:0:0:
422,340,36597,5,14,0:3:0:0:
494,153,37275,1,2,2:2:0:0:
312,68,37953,2,0,L|206:54,1,100,2|14,0:2|0:3,0:0:0:0:
86,137,38800,1,6,0:3:0:0:
219,206,39309,6,0,B|276:197|278:212|310:204|310:204|336:195|336:195|354:235|393:242|393:242|428:212|428:212|461:207|489:223,1,300,14|10,0:3|2:2,0:0:0:0:
464,318,40665,2,0,P|402:345|352:336,1,100,10|14,0:3|0:2,0:0:0:0:
223,313,41512,1,2,0:2:0:0:
318,197,42020,6,0,B|316:162|334:138|334:138|321:123|319:103|319:103|345:41|286:-4|218:14|220:93,1,300,12|10,0:3|2:2,0:0:0:0:
195,179,43376,2,0,L|183:299,1,100,10|6,0:3|0:0,0:0:0:0:
68,373,44224,1,10,0:3:0:0:
18,231,44732,6,0,B|10:178|10:178|11:126|61:103,1,150,14|10,0:3|0:3,0:0:0:0:
195,179,45749,2,0,P|327:176|343:64,1,250,10|8,0:2|0:2,0:0:0:0:
210,23,47105,1,10,0:2:0:0:
130,83,47444,6,0,B|89:80|51:65|51:65|11:83|16:130,1,150,12|10,0:3|0:3,0:0:0:0:
53,265,48461,1,10,0:2:0:0:
183,182,48970,2,0,P|342:173|395:241,1,250,10|8,0:3|0:2,0:0:0:0:
327,309,50156,6,0,L|164:298,2,150,14|10|10,0:3|0:3|0:2,0:0:0:0:
481,180,51851,2,0,P|489:86|410:32,1,200,14|14,0:3|0:2,0:0:0:0:
337,101,52868,5,10,0:3:0:0:
207,25,53376,1,10,0:3:0:0:
67,80,53885,2,0,P|33:145|47:219,1,150,10|2,0:2|0:2,0:0:0:0:
158,317,54902,2,0,L|267:312,1,89.9999972534181,8|10,0:0|0:0,0:0:0:0:
356,332,55580,6,0,B|389:319|420:324|420:324|471:344|499:315,1,150,14|0,0:3|2:0,0:0:0:0:
500,165,56597,1,10,2:2:0:0:
402,188,56936,2,0,B|369:175|338:180|338:180|287:200|258:171,2,150,14|6|14,0:3|0:2|0:2,0:0:0:0:
473,258,58292,6,0,B|468:321|420:334|420:334|352:295|280:329|280:329|244:311|227:313,1,300,14|10,0:3|2:2,0:0:0:0:
85,352,59817,1,2,0:2:0:0:
11,167,60495,1,14,0:3:0:0:
124,69,61004,6,0,B|153:51|191:60|218:87|218:87|254:83|272:43|272:43|300:62|329:59|329:59|360:49|394:59,1,300,14|14,0:3|0:2,0:0:0:0:
495,224,62698,2,0,B|499:311|425:343|425:343|367:302,1,200,14|14,0:2|0:2,0:0:0:0:
306,247,63715,6,0,B|280:228|247:229|247:229|232:242|212:244|212:244|160:224|122:262|122:262|60:251|58:181,1,300,14|0,0:3|0:2,0:0:0:0:
99,102,65071,2,0,P|156:87|218:87,1,100,8|8,0:3|0:2,0:0:0:0:
289,124,65749,2,0,P|346:139|408:139,1,100,2|2,0:0|0:0,0:0:0:0:
467,81,66427,5,12,0:3:0:0:
179,266,77275,6,0,P|135:256|101:254,2,69.9999978637696,10|10|2,0:3|0:0|0:0,0:0:0:0:
448,342,79648,6,0,L|459:258,1,69.9999978637696,10|10,0:0|0:3,0:0:0:0:
310,190,81004,2,0,L|299:106,1,69.9999978637696,10|2,0:0|0:0,0:0:0:0:
211,53,82020,6,0,P|173:39|133:43,2,69.9999978637696,2|10|10,0:0|0:0|0:3,0:0:0:0:
283,138,83376,2,0,L|285:251,1,104.999996795654,2|2,0:0|0:0,0:0:0:0:
224,301,84393,2,0,P|169:305|115:282,1,104.999996795654,10|10,0:3|0:3,0:0:0:0:
63,228,85410,5,10,0:3:0:0:
89,104,86088,1,2,0:0:0:0:
213,125,86766,2,0,B|281:118|281:118|338:74|338:74|401:123,1,209.999993591309,10|10,0:3|0:0,0:0:0:0:
435,189,88122,6,0,L|430:273,1,80,12|8,0:3|0:0,0:0:0:0:
286,357,89139,1,8,0:0:0:0:
197,267,89648,2,0,P|157:254|104:253,1,80,10|10,0:3|0:0,0:0:0:0:
19,174,90495,1,10,0:0:0:0:
66,105,90834,6,0,P|106:92|159:91,1,80,8|8,0:3|0:0,0:0:0:0:
280,187,91851,1,10,0:0:0:0:
396,139,92359,2,0,B|409:108|409:108|401:51,1,80,8|10,0:3|0:0,0:0:0:0:
281,25,93207,1,10,0:0:0:0:
219,83,93546,6,0,B|167:89|120:67|120:67|88:72|60:100,1,160,10|0,0:3|0:0,0:0:0:0:
55,177,94563,2,0,B|72:199|102:209|102:209|152:194|202:207,1,160,10|2,0:3|0:0,0:0:0:0:
270,258,95580,1,2,0:0:0:0:
436,189,96258,6,0,B|434:149|464:116|464:116|461:103|461:103|490:43|444:5|385:5|369:52,1,269.999991760254,10|10,0:3|0:0,0:0:0:0:
310,120,97614,2,0,B|263:121|263:121|214:103|214:103|167:108,2,134.999995880127,10|8|8,1:3|0:0|0:0,0:0:0:0:
404,152,98970,6,0,B|443:196|437:245|437:245|410:277|410:277|418:312|400:334|400:334|349:359|309:327,1,300,14|10,0:3|2:2,0:0:0:0:
216,291,100326,2,0,B|188:283|161:289|161:289|144:283|144:283|104:295|57:281,2,150,2|10|14,0:2|0:2|1:2,0:0:0:0:
284,218,101681,5,14,0:3:0:0:
187,42,102359,1,2,2:2:0:0:
22,155,103037,2,0,P|7:192|17:268,1,100,2|14,0:2|0:3,0:1:0:0:
135,333,103885,1,14,0:3:0:0:
247,234,104393,6,0,B|283:200|340:221|340:221|363:205|363:205|403:233|452:220|452:220|493:225|514:279,1,300,14|10,0:3|2:2,0:0:0:0:
434,334,105749,2,0,L|321:322,1,100,2|14,0:2|0:3,0:0:0:0:
186,349,106597,1,10,0:3:0:0:
66,258,107105,6,0,B|88:206|63:161|63:161|86:102|140:121,1,200,10|2,0:3|2:2,0:0:0:0:
279,265,108461,2,0,P|329:274|396:259,1,100,2|6,0:0|0:0,0:0:0:0:
454,203,109139,2,0,L|459:97,1,100,10|10,0:0|0:2,0:0:0:0:
370,57,109817,6,0,B|338:56|314:49|314:49|275:64|275:64|238:22|184:22|184:22|145:65|161:115,1,300,14|10,0:3|2:2,0:0:0:0:
231,182,111173,2,0,B|247:177|247:177|262:177|262:177|282:170|282:170|302:172|302:172|324:168|324:168|341:173|341:173|355:169|355:169|379:172,2,150,12|2|14,0:3|2:0|0:0,0:0:0:0:
64,292,112868,6,0,P|21:205|49:111,1,200,14|10,0:0|2:0,0:0:0:0:
241,55,114224,2,0,L|404:52,1,150,14|14,0:2|0:3,0:0:0:0:
491,225,115410,5,2,2:0:0:0:
359,298,115919,2,0,P|293:278|246:279,1,100,14|10,0:3|0:2,0:0:0:0:
176,328,116597,2,0,B|130:321|130:321|76:331|76:331|7:308|-1:251|24:197|76:190,1,300,12|14,0:3|2:2,0:0:0:0:
175,191,117953,6,0,B|207:189|231:207|231:207|246:194|266:192|266:192|328:218|383:178|382:106|333:82,1,300,12|10,0:3|0:2,0:0:0:0:
241,47,119309,2,0,L|135:33,1,100,10|14,0:3|0:3,0:0:0:0:
60,92,119987,2,0,P|41:131|43:204,1,100,8|10,0:0|0:3,0:0:0:0:
98,267,120665,6,0,B|149:265|149:265|183:280|183:280|255:282,1,150,14|10,0:3|0:3,0:0:0:0:
379,348,121681,2,0,B|421:356|453:331|453:331|500:236|441:149,1,250,10|8,0:2|0:2,0:0:0:0:
305,133,123037,1,10,0:2:0:0:
224,193,123376,6,0,B|145:175|145:175|114:145|120:112,1,150,12|10,0:3|0:3,0:0:0:0:
237,19,124393,1,10,0:2:0:0:
378,68,124902,2,0,B|421:78|475:63|475:63|506:110|482:165,1,200,10|6,0:3|0:2,0:0:0:0:
377,266,126088,6,0,L|214:255,1,150,14|10,0:3|0:3,0:0:0:0:
86,206,127105,2,0,P|45:100|193:68,1,300,10|2,0:2|0:2,0:0:0:0:
266,249,128800,6,0,P|342:357|440:267,1,300,10|8,0:3|0:2,0:0:0:0:
454,168,130156,2,0,P|377:59|279:149,1,300,8|10,2:3|0:2,0:0:0:0:
266,249,131512,5,14,0:3:0:0:
256,192,131597,12,0,134732,0:0:0:0:
