osu file format v14

[General]
AudioFilename: audio.mp3
AudioLeadIn: 0
PreviewTime: 44054
Countdown: 0
SampleSet: Soft
StackLeniency: 0.7
Mode: 0
LetterboxInBreaks: 0
WidescreenStoryboard: 1

[Editor]
Bookmarks: 120665
DistanceSpacing: 1
BeatDivisor: 4
GridSize: 16
TimelineZoom: 2.2

[Metadata]
Title:Pulsation
TitleUnicode:Pulsation
Artist:syrela
ArtistUnicode:syrela
Creator:Lasse
Version:Normal
Source:BMS
Tags:bofu2017 drumstep genkai records
BeatmapID:1443094
BeatmapSetID:677886

[Difficulty]
HPDrainRate:4
CircleSize:3.4
OverallDifficulty:4
ApproachRate:5
SliderMultiplier:1.2
SliderTickRate:1

[Events]
//Background and Video events
0,0,"bg.jpg",0,0
//Break Periods
2,68800,75566
//Storyboard Layer 0 (Background)
//Storyboard Layer 1 (Fail)
//Storyboard Layer 2 (Pass)
//Storyboard Layer 3 (Foreground)
//Storyboard Sound Samples

[TimingPoints]
1343,338.983050847458,4,2,23,30,1,0
1343,-142.857142857143,4,2,23,30,0,0
2868,-142.857142857143,4,2,23,36,0,0
4224,-142.857142857143,4,2,23,38,0,0
5580,-142.857142857143,4,2,23,42,0,0
6936,-142.857142857143,4,2,23,44,0,0
8292,-142.857142857143,4,2,23,46,0,0
9648,-142.857142857143,4,2,23,48,0,0
11004,-142.857142857143,4,2,23,50,0,0
12190,-117.647058823529,4,2,1,60,0,0
14902,-117.647058823529,4,2,1,62,0,0
17614,-117.647058823529,4,2,1,64,0,0
17783,-117.647058823529,4,2,1,32,0,0
17953,-117.647058823529,4,2,1,64,0,0
18122,-117.647058823529,4,2,1,32,0,0
18292,-117.647058823529,4,2,1,64,0,0
18461,-117.647058823529,4,2,1,32,0,0
18631,-117.647058823529,4,2,1,66,0,0
18800,-117.647058823529,4,2,1,33,0,0
18970,-117.647058823529,4,2,1,66,0,0
19139,-117.647058823529,4,2,1,33,0,0
19309,-117.647058823529,4,2,1,66,0,0
19478,-117.647058823529,4,2,1,33,0,0
19648,-117.647058823529,4,2,1,68,0,0
19817,-117.647058823529,4,2,1,34,0,0
19987,-117.647058823529,4,2,1,68,0,0
20156,-117.647058823529,4,2,1,34,0,0
20326,-117.647058823529,4,2,1,70,0,0
21681,-117.647058823529,4,2,1,50,0,0
21703,-117.647058823529,4,2,20,20,0,0
22698,-117.647058823529,4,2,23,70,0,0
23037,-100,4,1,1,80,0,0
23546,-100,4,1,1,74,0,0
23885,-100,4,1,1,74,0,0
24054,-100,4,1,1,74,0,0
24224,-100,4,1,1,74,0,0
24393,-100,4,1,1,76,0,0
24563,-100,4,1,1,76,0,0
25241,-100,4,1,1,76,0,0
25410,-100,4,1,1,80,0,0
25749,-100,4,1,1,80,0,0
26088,-100,4,1,1,80,0,0
26258,-100,4,1,1,74,0,0
26597,-100,4,1,1,74,0,0
26766,-100,4,1,1,74,0,0
26936,-100,4,1,1,74,0,0
27105,-100,4,1,1,70,0,0
27275,-100,4,1,1,60,0,0
27444,-100,4,1,1,76,0,0
27614,-100,4,1,1,78,0,0
27953,-100,4,1,1,76,0,0
28122,-100,4,1,1,80,0,0
28461,-100,4,1,1,80,0,0
28970,-100,4,1,1,74,0,0
29309,-100,4,1,1,74,0,0
29478,-100,4,1,1,74,0,0
29648,-100,4,1,1,74,0,0
29817,-100,4,1,1,74,0,0
29987,-100,4,1,1,74,0,0
30156,-100,4,1,1,80,0,0
30326,-100,4,1,1,80,0,0
30495,-100,4,1,1,40,0,0
30665,-100,4,1,1,80,0,0
30834,-100,4,1,1,80,0,0
31004,-100,4,1,1,40,0,0
31173,-100,4,1,1,76,0,0
31512,-100,4,1,1,76,0,0
31681,-100,4,1,1,74,0,0
32190,-100,4,1,1,74,0,0
32359,-100,4,1,1,74,0,0
32529,-100,4,2,1,50,0,0
32698,-100,4,2,1,30,0,0
32868,-100,4,2,1,60,0,0
33037,-100,4,2,1,30,0,0
33207,-100,4,2,1,70,0,0
33885,-100,4,1,1,80,0,0
34393,-100,4,1,1,74,0,0
34732,-100,4,1,1,74,0,0
34902,-100,4,1,1,74,0,0
35071,-100,4,1,1,74,0,0
35241,-100,4,1,1,78,0,0
35580,-100,4,1,1,76,0,0
36088,-100,4,1,1,60,0,0
36258,-100,4,1,1,80,0,0
36597,-100,4,1,1,80,0,0
36936,-100,4,1,1,80,0,0
37105,-100,4,1,1,74,0,0
37444,-100,4,1,1,74,0,0
37614,-100,4,1,1,74,0,0
37783,-100,4,1,1,74,0,0
37953,-100,4,1,1,66,0,0
38122,-100,4,1,1,60,0,0
38292,-100,4,1,1,74,0,0
38461,-100,4,1,1,78,0,0
38800,-100,4,1,1,74,0,0
38970,-100,4,1,1,74,0,0
39139,-100,4,1,1,74,0,0
39309,-100,4,1,1,78,0,0
39648,-100,4,1,1,78,0,0
39817,-100,4,1,1,74,0,0
40156,-100,4,1,1,74,0,0
40326,-100,4,1,1,74,0,0
40495,-100,4,1,1,74,0,0
40665,-100,4,1,1,72,0,0
40834,-100,4,1,1,60,0,0
41004,-100,4,1,1,74,0,0
41173,-100,4,1,1,76,0,0
41512,-100,4,1,1,74,0,0
41681,-100,4,1,1,78,0,0
42020,-100,4,1,1,80,0,0
42359,-100,4,1,1,80,0,0
42529,-100,4,1,1,74,0,0
42868,-100,4,1,1,74,0,0
43037,-100,4,1,1,74,0,0
43207,-100,4,1,1,74,0,0
43376,-100,4,2,1,60,0,0
43546,-100,4,2,1,40,0,0
43715,-100,4,2,1,68,0,0
43885,-100,4,2,23,64,0,0
44224,-100,4,2,1,60,0,0
44309,-100,4,2,23,62,0,0
44393,-100,4,2,23,64,0,0
44478,-100,4,2,23,66,0,0
44563,-100,4,2,23,68,0,0
44648,-100,4,2,23,70,0,0
44732,-100,4,1,34,90,0,1
44754,-100,4,1,1,80,0,1
54224,-100,4,1,1,50,0,1
54393,-111.111111111111,4,2,1,60,0,0
54563,-111.111111111111,4,2,1,70,0,0
54732,-111.111111111111,4,2,1,60,0,0
54902,-111.111111111111,4,2,23,64,0,0
55071,-111.111111111111,4,2,23,66,0,0
55156,-111.111111111111,4,2,23,68,0,0
55241,-111.111111111111,4,2,23,70,0,0
55410,-111.111111111111,4,2,23,72,0,0
55580,-100,4,1,34,80,0,1
55749,-100,4,1,1,80,0,1
56088,-100,4,1,1,70,0,1
56173,-100,4,1,1,74,0,1
56427,-100,4,1,1,74,0,1
56936,-100,4,1,1,76,0,1
57275,-100,4,1,1,76,0,1
57444,-100,4,1,1,78,0,1
57783,-100,4,1,1,80,0,1
58122,-100,4,1,1,70,0,1
58292,-100,4,1,1,80,0,1
58631,-100,4,1,1,80,0,1
58800,-100,4,1,1,70,0,1
58885,-100,4,1,1,74,0,1
59648,-100,4,1,1,74,0,1
59817,-100,4,1,1,70,0,1
59987,-100,4,1,1,78,0,1
60156,-100,4,1,1,70,0,1
60326,-100,4,1,1,72,0,1
61004,-100,4,1,1,74,0,1
62020,-100,4,1,1,76,0,1
62359,-100,4,1,1,70,0,1
62529,-100,4,1,1,60,0,1
62698,-100,4,1,1,74,0,1
63037,-100,4,1,1,74,0,1
63207,-100,4,1,1,74,0,1
63376,-100,4,1,1,78,0,1
63715,-100,4,1,1,80,0,1
64902,-100,4,1,1,78,0,1
65749,-100,4,2,23,60,0,1
66088,-100,4,2,23,58,0,1
66173,-100,4,2,23,56,0,1
66258,-100,4,2,23,54,0,1
66343,-100,4,2,23,52,0,1
66427,-100,4,1,34,40,0,0
76766,-125,4,1,23,60,0,0
77275,-142.857142857143,4,2,23,40,0,0
84393,-142.857142857143,4,2,23,42,0,0
85410,-142.857142857143,4,2,23,44,0,0
85749,-142.857142857143,4,2,23,46,0,0
85919,-142.857142857143,4,2,23,44,0,0
86088,-142.857142857143,4,2,23,42,0,0
86766,-142.857142857143,4,2,23,44,0,0
86851,-142.857142857143,4,2,23,45,0,0
86936,-142.857142857143,4,2,23,46,0,0
87105,-142.857142857143,4,2,2,50,0,0
87275,-142.857142857143,4,2,23,46,0,0
87359,-142.857142857143,4,2,23,47,0,0
87444,-142.857142857143,4,2,23,48,0,0
87614,-142.857142857143,4,2,1,50,0,0
87783,-142.857142857143,4,2,1,52,0,0
88122,-125,4,2,1,50,0,0
91851,-125,4,2,1,52,0,0
92529,-125,4,2,1,54,0,0
93546,-111.111111111111,4,2,1,56,0,0
94563,-111.111111111111,4,2,1,64,0,0
94676,-111.111111111111,4,2,1,60,0,0
94902,-111.111111111111,4,2,1,62,0,0
95241,-111.111111111111,4,2,1,64,0,0
95580,-111.111111111111,4,2,1,66,0,0
95749,-111.111111111111,4,2,1,68,0,0
95919,-111.111111111111,4,2,1,70,0,0
96088,-111.111111111111,4,2,1,72,0,0
96258,-99.9999999999999,4,2,1,74,0,0
96300,-99.9999999999999,4,2,1,40,0,0
96597,-99.9999999999999,4,2,1,76,0,0
96639,-99.9999999999999,4,2,1,42,0,0
96936,-99.9999999999999,4,2,1,76,0,0
96978,-99.9999999999999,4,2,1,44,0,0
97105,-99.9999999999999,4,2,1,76,0,0
97148,-99.9999999999999,4,2,1,44,0,0
97275,-99.9999999999999,4,2,1,70,0,0
97296,-99.9999999999999,4,2,1,46,0,0
97614,-111.111111111111,4,1,23,70,0,0
97953,-111.111111111111,4,1,2,70,0,0
98122,-111.111111111111,4,2,1,70,0,0
98207,-111.111111111111,4,2,23,70,0,0
98461,-111.111111111111,4,2,1,70,0,0
98970,-100,4,1,1,80,0,0
99478,-100,4,1,1,74,0,0
100326,-100,4,1,1,76,0,0
100495,-100,4,1,1,76,0,0
101173,-100,4,1,1,76,0,0
101343,-100,4,1,1,80,0,0
101681,-100,4,1,1,80,0,0
102190,-100,4,1,1,74,0,0
103037,-100,4,1,1,70,0,0
103207,-100,4,1,1,60,0,0
103376,-100,4,1,1,76,0,0
103546,-100,4,1,1,78,0,0
103885,-100,4,1,1,76,0,0
104054,-100,4,1,1,80,0,0
104393,-100,4,1,1,80,0,0
104902,-100,4,1,1,74,0,0
105241,-100,4,1,1,74,0,0
105410,-100,4,1,1,74,0,0
105580,-100,4,1,1,74,0,0
105749,-100,4,1,1,74,0,0
105919,-100,4,1,1,74,0,0
106088,-100,4,1,1,80,0,0
106258,-100,4,1,1,80,0,0
106427,-100,4,1,1,60,0,0
106597,-100,4,1,1,80,0,0
106766,-100,4,1,1,80,0,0
107105,-100,4,1,1,76,0,0
107359,-100,4,2,99,5,0,0
107444,-100,4,1,1,76,0,0
107614,-100,4,1,1,74,0,0
108461,-100,4,2,1,50,0,0
108631,-100,4,2,1,30,0,0
108800,-100,4,2,1,60,0,0
108970,-100,4,2,1,30,0,0
109139,-100,4,2,1,70,0,0
109817,-100,4,1,1,80,0,0
110495,-100,4,1,1,74,0,0
111173,-100,4,2,2,70,0,0
111512,-100,4,2,1,70,0,0
111681,-100,4,1,1,72,0,0
112020,-100,4,2,1,72,0,0
112190,-100,4,2,1,80,0,0
112529,-100,4,1,1,80,0,0
112868,-100,4,2,23,60,0,0
113207,-100,4,2,23,40,0,0
113376,-100,4,2,23,60,0,0
113546,-100,4,1,1,70,0,0
113885,-100,4,1,1,72,0,0
114054,-100,4,1,1,72,0,0
114224,-100,4,2,1,80,0,0
114245,-100,4,2,20,60,0,0
114732,-100,4,2,1,74,0,0
115241,-100,4,2,1,74,0,0
115410,-100,4,1,1,68,0,0
115580,-100,4,1,1,68,0,0
115749,-100,4,1,1,68,0,0
115919,-100,4,1,1,80,0,0
116088,-100,4,1,1,80,0,0
116258,-100,4,1,1,80,0,0
116427,-100,4,1,1,80,0,0
116597,-100,4,2,2,70,0,0
116936,-100,4,2,1,70,0,0
117105,-100,4,1,1,70,0,0
117444,-100,4,2,1,70,0,0
117614,-100,4,2,1,74,0,0
117953,-100,4,2,1,70,0,0
118122,-100,4,2,1,60,0,0
118292,-100,4,2,1,66,0,0
118631,-100,4,2,1,54,0,0
118800,-100,4,2,1,70,0,0
118970,-100,4,1,1,76,0,0
119309,-100,4,2,1,60,0,0
119478,-100,4,2,1,40,0,0
119648,-100,4,2,1,66,0,0
119817,-100,4,2,1,40,0,0
119987,-100,4,2,1,62,0,0
120156,-100,4,2,1,60,0,0
120241,-100,4,2,1,62,0,0
120326,-100,4,2,1,64,0,0
120410,-100,4,2,1,66,0,0
120495,-100,4,2,1,68,0,0
120580,-100,4,2,1,70,0,0
120665,-100,4,1,34,90,0,1
120686,-100,4,1,1,80,0,1
130156,-100,4,2,1,74,0,1
130326,-100,4,2,2,68,0,1
130665,-100,4,2,23,66,0,1
130749,-100,4,2,2,66,0,1
131004,-100,4,2,1,70,0,1
131173,-100,4,2,23,74,0,1
131512,-100,4,2,34,20,0,0
131533,-100,4,2,20,10,0,0
134732,-100,4,2,99,5,0,0

[Colours]
Combo1 : 250,190,230
Combo2 : 130,200,230
Combo3 : 255,230,140
Combo4 : 170,245,170

[HitObjects]
38,51,1343,6,0,B|118:34|118:34|153:85|137:174,1,209.999993591309,14|10,0:3|0:3,0:0:0:0:
241,291,2868,2,0,L|423:282,1,167.999994873047,2|10,0:0|0:3,0:0:0:0:
492,136,4224,5,2,0:0:0:0:
379,11,4902,1,10,0:3:0:0:
225,79,5580,1,2,0:0:0:0:
249,245,6258,1,10,0:3:0:0:
94,314,6936,6,0,B|54:282|54:282|51:160,1,167.999994873047,2|10,0:0|0:3,0:0:0:0:
184,62,8292,2,0,B|293:102|293:102|310:150,1,167.999994873047,2|10,0:0|0:3,0:0:0:0:
341,316,9648,5,2,0:0:0:0:
469,207,10326,1,10,0:3:0:0:
311,151,11004,2,0,L|216:142,1,83.9999974365235,2|8,0:0|0:0,0:0:0:0:
157,189,11681,2,0,P|134:175|112:156,1,41.9999987182618,10|8,0:3|0:0,0:0:0:0:
30,122,12190,6,0,L|14:22,1,102.000001945496,12|8,0:3|0:0,0:0:0:0:
157,76,13037,2,0,L|166:13,1,51.0000009727478,8|8,0:3|0:0,0:0:0:0:
263,52,13546,2,0,L|362:36,1,102.000001945496,8|8,0:3|0:0,0:0:0:0:
435,172,14393,2,0,L|497:181,1,51.0000009727478,8|8,0:3|0:0,0:0:0:0:
505,280,14902,6,0,B|488:312|489:346|489:346|475:359|455:363,1,102.000001945496,14|10,0:3|0:0,0:0:0:0:
315,312,15749,1,10,0:3:0:0:
315,312,15919,1,10,0:0:0:0:
217,342,16258,2,0,B|202:339|188:326|188:326|189:292|172:260,1,102.000001945496,10|10,0:3|0:0,0:0:0:0:
38,184,17105,1,10,0:3:0:0:
38,184,17275,1,10,0:0:0:0:
119,122,17614,6,0,L|131:19,2,102.000001945496,10|8|8,0:3|0:3|0:3,0:0:0:0:
162,214,18631,1,10,0:3:0:0:
258,182,18970,2,0,L|361:170,1,102.000001945496,12|8,0:3|0:3,0:0:0:0:
383,70,19648,2,0,L|280:58,1,102.000001945496,14|8,0:3|0:3,0:0:0:0:
181,35,20326,5,14,0:3:0:0:
256,192,20410,12,0,21681,0:0:0:0:
156,309,22698,5,8,0:0:0:0:
256,243,23037,6,0,L|258:124,1,120,14|8,0:3|0:2,0:0:0:0:
283,68,23546,2,0,P|334:39|449:70,1,180,10|10,2:3|2:2,0:0:0:0:
485,187,24393,1,2,0:2:0:0:
485,187,24563,1,10,0:3:0:0:
445,300,24902,1,10,0:2:0:0:
339,255,25241,1,0,0:0:0:0:
339,255,25410,1,14,0:2:0:0:
250,335,25749,6,0,L|118:322,1,120,14|8,0:3|0:2,0:0:0:0:
71,312,26258,2,0,B|40:282|40:282|25:194|119:154,1,180,10|10,2:3|2:2,0:0:0:0:
205,211,27105,1,2,0:3:0:0:
308,147,27444,1,14,0:3:0:0:
308,147,27614,1,10,0:2:0:0:
404,227,27953,1,14,0:3:0:0:
404,227,28122,1,10,0:2:0:0:
490,143,28461,6,0,P|506:103|492:24,1,120,14|8,0:3|0:2,0:0:0:0:
437,39,28970,1,10,2:3:0:0:
437,39,29139,2,0,L|307:31,1,120,2|10,2:2|2:2,0:0:0:0:
232,117,29817,1,2,0:2:0:0:
124,63,30156,1,14,0:3:0:0:
124,63,30326,1,10,0:2:0:0:
39,149,30665,1,10,0:3:0:0:
39,149,30834,1,14,0:2:0:0:
94,256,31173,6,0,L|224:264,1,120,10|8,0:3|0:2,0:0:0:0:
266,292,31681,2,0,B|320:285|320:285|364:316|364:316|464:312,1,180,10|10,2:3|2:2,0:0:0:0:
506,215,32529,5,2,0:0:0:0:
457,105,32868,1,6,0:0:0:0:
337,93,33207,2,0,B|264:81|264:81|216:54,1,120,10|10,0:0|0:0,0:0:0:0:
103,61,33885,6,0,L|93:185,1,120,14|8,0:3|0:2,0:0:0:0:
115,236,34393,2,0,P|188:213|298:248,1,180,2|10,2:2|2:2,0:0:0:0:
370,324,35241,2,0,B|424:345|424:345|482:325,1,120,14|8,0:3|0:2,0:0:0:0:
502,268,35749,2,0,B|498:230|498:230|517:196|517:196|512:144,1,120,12|0,0:3|0:0,0:0:0:0:
491,96,36258,1,14,0:2:0:0:
376,131,36597,6,0,P|324:134|258:113,1,120,14|8,0:3|0:2,0:0:0:0:
202,130,37105,2,0,P|143:104|24:119,1,180,2|10,2:2|2:2,0:0:0:0:
10,234,37953,1,2,0:2:0:0:
104,311,38292,1,14,0:3:0:0:
104,311,38461,1,10,0:2:0:0:
217,268,38800,1,6,0:3:0:0:
217,268,38970,1,10,0:2:0:0:
236,148,39309,6,0,P|289:121|362:137,1,120,14|8,0:3|0:2,0:0:0:0:
401,166,39817,1,2,2:2:0:0:
401,166,39987,2,0,L|409:286,1,120,2|10,2:2|2:2,0:0:0:0:
319,366,40665,1,10,0:3:0:0:
220,309,41004,1,14,0:2:0:0:
220,309,41173,1,10,0:3:0:0:
108,346,41512,1,2,0:2:0:0:
108,346,41681,1,14,0:2:0:0:
16,268,42020,6,0,L|14:139,1,120,12|8,0:3|0:2,0:0:0:0:
48,98,42529,2,0,B|80:99|102:91|102:91|136:118|136:118|169:104|217:111,1,180,2|10,2:2|2:2,0:0:0:0:
317,175,43376,5,10,0:3:0:0:
422,118,43715,1,6,0:0:0:0:
494,282,44224,1,10,0:3:0:0:
327,350,44732,6,0,L|189:340,1,120,14|8,0:3|0:2,0:0:0:0:
150,320,45241,2,0,P|127:264|133:205,1,120,10|0,0:3|0:0,0:0:0:0:
163,154,45749,1,10,0:2:0:0:
340,122,46258,2,0,L|422:113,2,60,8|8|8,0:3|0:3|0:2,0:0:0:0:
253,49,46936,1,10,0:3:0:0:
253,49,47105,1,10,0:2:0:0:
147,106,47444,6,0,L|10:94,1,120,12|8,0:3|0:2,0:0:0:0:
26,156,47953,2,0,B|46:189|46:189|31:277,1,120,10|0,0:3|0:0,0:0:0:0:
59,329,48461,1,10,0:2:0:0:
59,329,48631,1,2,0:2:0:0:
182,345,48970,1,10,0:3:0:0:
182,345,49139,2,0,L|254:340,1,60,6|8,0:2|0:2,0:0:0:0:
363,365,49648,1,6,0:2:0:0:
363,365,49817,1,8,0:2:0:0:
447,280,50156,6,0,L|452:157,1,120,14|8,0:3|0:2,0:0:0:0:
431,102,50665,2,0,P|402:79|303:99,1,120,10|0,0:3|0:0,0:0:0:0:
284,129,51173,2,0,B|276:193|276:193|293:242|293:242|278:319,1,180,10|8,0:2|0:3,0:0:0:0:
233,341,51851,1,14,0:3:0:0:
114,362,52190,1,2,0:2:0:0:
36,269,52529,1,14,0:2:0:0:
77,154,52868,6,0,B|114:132|114:132|155:126|189:142,1,120,10|8,0:3|0:2,0:0:0:0:
231,184,53376,2,0,P|287:199|343:180,1,120,10|0,0:3|0:0,0:0:0:0:
379,131,53885,1,10,0:2:0:0:
251,30,54393,1,2,0:2:0:0:
251,30,54563,1,6,0:0:0:0:
152,74,54902,2,0,L|30:57,1,107.999996704102,8|10,0:0|0:0,0:0:0:0:
10,174,55580,6,0,P|39:230|39:294,1,120,14|10,0:3|0:2,0:0:0:0:
70,338,56088,2,0,L|198:334,1,120,0|10,2:0|2:3,0:0:0:0:
244,359,56597,1,10,2:2:0:0:
363,372,56936,1,14,0:3:0:0:
433,275,57275,1,8,0:2:0:0:
433,275,57444,1,6,0:2:0:0:
383,165,57783,2,0,L|389:100,2,60,8|14|2,0:3|0:2|0:2,0:0:0:0:
332,199,58292,6,0,L|197:185,1,120,14|8,0:3|0:2,0:0:0:0:
155,168,58800,2,0,P|134:126|146:47,1,120,0|10,2:0|2:3,0:0:0:0:
196,29,59309,1,10,2:2:0:0:
196,29,59478,2,0,B|261:28|261:28|297:50|297:50|380:53,1,180,2|12,2:2|0:2,0:0:0:0:
468,121,60326,2,0,P|485:152|497:202,2,60,2|14|10,0:2|0:3|0:2,0:0:0:0:
364,182,61004,6,0,P|302:169|236:170,1,120,14|10,0:3|2:0,0:0:0:0:
197,205,61512,2,0,P|137:204|78:191,1,120,2|10,2:0|2:3,0:0:0:0:
23,167,62020,2,0,L|16:33,1,120,14|8,0:2|0:3,0:0:0:0:
131,11,62698,1,14,0:2:0:0:
261,135,63207,1,10,0:3:0:0:
261,135,63376,1,14,0:2:0:0:
343,47,63715,6,0,P|399:31|451:64,1,120,14|8,0:3|0:2,0:0:0:0:
469,118,64224,1,8,0:3:0:0:
469,118,64393,2,0,L|460:244,1,120,8|2,0:2|0:2,0:0:0:0:
375,322,65071,1,8,0:3:0:0:
254,322,65410,1,8,0:2:0:0:
169,237,65749,2,0,L|160:107,1,120,2|2,0:0|0:0,0:0:0:0:
59,52,66427,5,12,0:3:0:0:
160,284,76766,6,0,L|157:215,1,48,8|8,0:3|0:2,0:0:0:0:
127,157,77275,6,0,P|83:147|29:147,2,83.9999974365235,10|10|2,0:3|0:0|0:0,0:0:0:0:
413,332,79648,5,10,0:0:0:0:
422,248,79987,1,10,0:3:0:0:
180,321,81004,1,10,0:0:0:0:
171,237,81343,1,2,0:0:0:0:
232,81,82020,6,0,P|265:56|319:37,2,83.9999974365235,2|10|10,0:0|0:0|0:3,0:0:0:0:
117,203,83376,2,0,P|58:202|-3:170,1,125.999996154785,2|2,0:0|0:0,0:0:0:0:
23,48,84393,2,0,P|82:49|143:81,1,125.999996154785,10|10,0:3|0:3,0:0:0:0:
233,164,85410,5,10,0:3:0:0:
345,37,86088,1,2,0:0:0:0:
397,197,86766,2,0,L|406:292,1,83.9999974365235,10|10,0:3|0:0,0:0:0:0:
465,339,87444,2,0,P|486:333|521:330,2,41.9999987182618,10|10|10,0:3|0:3|0:0,0:0:0:0:
373,369,88122,6,0,L|260:362,1,96,12|8,0:3|0:0,0:0:0:0:
139,317,88970,2,0,P|132:285|132:251,1,48,8|8,0:3|0:0,0:0:0:0:
172,131,89648,2,0,P|179:99|179:65,2,48,10|10|10,0:3|0:3|0:0,0:0:0:0:
238,200,90326,2,0,L|302:195,1,48,10|10,0:3|0:0,0:0:0:0:
372,154,90834,6,0,B|384:126|378:92|378:92|346:58,1,96,8|8,0:3|0:0,0:0:0:0:
220,36,91681,1,10,0:3:0:0:
220,36,91851,1,10,0:0:0:0:
90,98,92359,2,0,P|65:87|38:83,2,48,8|10|10,0:3|0:3|0:0,0:0:0:0:
126,189,93037,1,10,0:3:0:0:
126,189,93207,1,10,0:0:0:0:
226,154,93546,6,0,P|260:144|334:151,2,107.999996704102,10|8|0,0:3|0:0|0:0,0:0:0:0:
187,192,94393,1,10,0:3:0:0:
187,192,94563,6,0,B|160:318|160:318|115:334|66:286,1,215.999993408203,10|2,0:3|0:0,0:0:0:0:
48,261,95410,1,10,0:0:0:0:
48,261,95580,2,0,L|47:140,1,107.999996704102,2|10,0:0|0:0,0:0:0:0:
124,61,96258,6,0,P|178:37|257:41,1,120,10|10,0:3|0:2,0:0:0:0:
347,87,96936,2,0,L|413:76,2,60,10|10|10,0:3|0:3|0:0,0:0:0:0:
273,166,97614,6,0,B|258:198|258:198|256:282,1,107.999996704102,10|8,1:3|1:2,0:0:0:0:
286,315,98122,2,0,L|405:308,1,107.999996704102,8|8,0:0|0:3,0:0:0:0:
440,335,98631,1,8,0:0:0:0:
495,228,98970,6,0,L|501:108,1,120,14|8,0:3|0:2,0:0:0:0:
468,57,99478,2,0,P|417:28|302:59,1,180,10|10,2:3|2:2,0:0:0:0:
243,159,100326,1,2,0:2:0:0:
243,159,100495,1,10,0:3:0:0:
126,135,100834,1,10,0:2:0:0:
59,234,101173,1,8,0:3:0:0:
59,234,101343,1,14,1:2:0:0:
133,328,101681,6,0,L|260:321,1,120,14|8,0:3|0:2,0:0:0:0:
309,344,102190,2,0,B|353:329|403:352|403:352|456:336|466:285,1,180,10|10,2:3|2:2,0:0:0:0:
496,183,103037,1,2,0:2:0:0:
414,97,103376,1,14,0:3:0:0:
414,97,103546,1,10,0:2:0:0:
306,148,103885,1,14,0:3:0:0:
306,148,104054,1,10,0:2:0:0:
224,61,104393,6,0,P|155:44|97:57,1,120,14|8,0:3|0:2,0:0:0:0:
84,108,104902,1,10,2:3:0:0:
84,108,105071,2,0,L|89:236,1,120,2|10,2:2|2:2,0:0:0:0:
183,301,105749,1,2,0:2:0:0:
256,206,106088,1,14,0:3:0:0:
256,206,106258,1,10,0:2:0:0:
331,303,106597,1,10,0:3:0:0:
331,303,106766,1,14,0:2:0:0:
423,227,107105,6,0,L|428:108,1,120,10|8,0:3|0:2,0:0:0:0:
387,62,107614,2,0,B|333:55|333:55|289:86|289:86|194:73,1,180,10|10,2:3|2:2,0:0:0:0:
105,35,108461,5,2,0:0:0:0:
32,129,108800,1,6,0:0:0:0:
99,228,109139,2,0,B|111:262|111:262|91:303|116:344,1,120,10|10,0:0|0:2,0:0:0:0:
234,350,109817,6,0,P|293:338|372:335,1,120,14|8,0:3|0:2,0:0:0:0:
403,367,110326,2,0,L|419:178,1,180,0|10,0:2|2:2,0:0:0:0:
370,77,111173,2,0,B|312:56|312:56|254:65,1,120,12|8,0:3|0:0,0:0:0:0:
209,105,111681,2,0,B|199:146|199:146|214:182|214:182|205:220,1,120,2|10,2:0|2:3,0:0:0:0:
169,268,112190,1,14,0:0:0:0:
63,211,112529,6,0,L|60:82,1,120,8|14,0:3|0:0,0:0:0:0:
230,32,113376,1,8,0:3:0:0:
230,32,113546,2,0,P|282:52|352:44,1,120,10|10,2:0|2:3,0:0:0:0:
457,3,114224,1,14,0:2:0:0:
379,165,114732,2,0,P|349:154|314:152,2,60,14|2|10,0:3|0:0|0:3,0:0:0:0:
407,218,115241,6,0,L|396:349,1,120,0|10,0:3|2:0,0:0:0:0:
285,291,115919,2,0,L|274:227,2,60,14|10|10,0:3|0:3|0:2,0:0:0:0:
180,350,116597,1,12,0:3:0:0:
76,301,116936,1,8,0:2:0:0:
76,301,117105,1,2,2:2:0:0:
72,184,117444,1,8,0:3:0:0:
72,184,117614,1,14,2:2:0:0:
171,114,117953,6,0,L|296:104,1,120,12|10,0:3|0:0,0:0:0:0:
459,167,118800,2,0,P|453:206|456:228,1,60,14|10,0:3|0:2,0:0:0:0:
492,340,119309,5,10,0:3:0:0:
379,320,119648,1,14,0:3:0:0:
202,354,120156,1,6,0:0:0:0:
35,285,120665,6,0,L|21:163,1,120,14|8,0:3|0:2,0:0:0:0:
19,105,121173,2,0,P|66:70|127:69,1,120,10|0,0:3|0:0,0:0:0:0:
178,97,121681,1,10,0:2:0:0:
340,174,122190,2,0,L|410:167,2,60,8|8|8,0:3|0:3|0:2,0:0:0:0:
238,238,122868,1,10,0:3:0:0:
238,238,123037,1,10,0:2:0:0:
315,329,123376,6,0,B|359:338|359:338|384:328|384:328|434:338,1,120,12|8,0:3|0:2,0:0:0:0:
484,308,123885,2,0,B|498:183,1,120,10|0,0:3|0:0,0:0:0:0:
492,133,124393,1,10,0:2:0:0:
492,133,124563,1,2,0:2:0:0:
405,58,124902,1,10,0:3:0:0:
405,58,125071,2,0,L|332:49,1,60,6|8,0:2|0:2,0:0:0:0:
232,84,125580,1,6,0:2:0:0:
232,84,125749,1,8,0:2:0:0:
316,169,126088,6,0,P|329:226|312:291,1,120,14|8,0:3|0:2,0:0:0:0:
273,329,126597,2,0,L|148:319,1,120,10|0,0:3|0:0,0:0:0:0:
97,296,127105,2,0,B|86:245|86:245|107:186|107:186|94:122,1,180,10|8,0:2|0:3,0:0:0:0:
54,76,127783,1,14,0:3:0:0:
164,28,128122,1,2,0:2:0:0:
249,111,128461,1,14,0:2:0:0:
354,54,128800,6,0,P|402:44|472:78,1,120,10|8,0:3|0:2,0:0:0:0:
478,129,129309,2,0,L|473:257,1,120,10|0,0:3|0:0,0:0:0:0:
484,308,129817,1,8,0:2:0:0:
374,358,130156,2,0,P|316:332|254:331,1,120,8|10,2:3|2:2,0:0:0:0:
204,353,130665,2,0,L|73:343,1,120,8|8,2:0|2:3,0:0:0:0:
26,361,131173,1,10,0:2:0:0:
0,243,131512,5,14,0:3:0:0:
256,192,131597,12,0,134732,0:0:0:0:
