osu file format v14

[General]
AudioFilename: audio.mp3
AudioLeadIn: 0
PreviewTime: 44054
Countdown: 0
SampleSet: Normal
StackLeniency: 0.7
Mode: 0
LetterboxInBreaks: 0
WidescreenStoryboard: 1

[Editor]
DistanceSpacing: 1.4
BeatDivisor: 4
GridSize: 16
TimelineZoom: 2.2

[Metadata]
Title:Pulsation
TitleUnicode:Pulsation
Artist:syrela
ArtistUnicode:syrela
Creator:Lasse
Version:Hard
Source:BMS
Tags:bofu2017 drumstep genkai records
BeatmapID:1442852
BeatmapSetID:677886

[Difficulty]
HPDrainRate:5
CircleSize:3.6
OverallDifficulty:6
ApproachRate:7.8
SliderMultiplier:1.5
SliderTickRate:1

[Events]
//Background and Video events
0,0,"bg.jpg",0,0
//Break Periods
2,68800,75987
//Storyboard Layer 0 (Background)
//Storyboard Layer 1 (Fail)
//Storyboard Layer 2 (Pass)
//Storyboard Layer 3 (Foreground)
//Storyboard Sound Samples

[TimingPoints]
1343,338.983050847458,4,2,23,30,1,0
1343,-142.857142857143,4,2,23,30,0,0
2868,-142.857142857143,4,2,23,36,0,0
4224,-142.857142857143,4,2,23,38,0,0
5580,-142.857142857143,4,2,23,42,0,0
6936,-142.857142857143,4,2,23,44,0,0
8292,-142.857142857143,4,2,23,46,0,0
9648,-142.857142857143,4,2,23,48,0,0
11004,-142.857142857143,4,2,23,50,0,0
12190,-117.647058823529,4,2,1,60,0,0
14902,-117.647058823529,4,2,1,62,0,0
17614,-117.647058823529,4,2,1,64,0,0
17783,-117.647058823529,4,2,1,32,0,0
17953,-117.647058823529,4,2,1,64,0,0
18122,-117.647058823529,4,2,1,32,0,0
18292,-117.647058823529,4,2,1,64,0,0
18461,-117.647058823529,4,2,1,32,0,0
18631,-117.647058823529,4,2,1,66,0,0
18800,-117.647058823529,4,2,1,33,0,0
18970,-117.647058823529,4,2,1,66,0,0
19139,-117.647058823529,4,2,1,33,0,0
19309,-117.647058823529,4,2,1,66,0,0
19478,-117.647058823529,4,2,1,33,0,0
19648,-117.647058823529,4,2,1,68,0,0
19817,-117.647058823529,4,2,1,34,0,0
19987,-117.647058823529,4,2,1,68,0,0
20156,-117.647058823529,4,2,1,34,0,0
20326,-117.647058823529,4,2,1,70,0,0
21681,-153.846153846153,4,2,1,50,0,0
21703,-153.846153846153,4,2,20,20,0,0
22698,-153.846153846153,4,2,23,70,0,0
23037,-100,4,1,1,80,0,0
23546,-100,4,1,1,74,0,0
24393,-100,4,1,1,76,0,0
24563,-100,4,1,1,76,0,0
25241,-100,4,1,1,76,0,0
25410,-100,4,1,1,80,0,0
25665,-100,4,2,99,5,0,0
25749,-100,4,1,1,80,0,0
26088,-100,4,1,1,80,0,0
26258,-100,4,1,1,74,0,0
26597,-100,4,1,1,74,0,0
26766,-100,4,1,1,74,0,0
26936,-100,4,1,1,74,0,0
27105,-100,4,1,1,70,0,0
27275,-100,4,1,1,60,0,0
27444,-100,4,1,1,76,0,0
27614,-100,4,1,1,78,0,0
27953,-100,4,1,1,76,0,0
28122,-100,4,1,1,80,0,0
28461,-100,4,1,1,80,0,0
28970,-100,4,1,1,74,0,0
29309,-100,4,1,1,74,0,0
29478,-100,4,1,1,74,0,0
29648,-100,4,1,1,74,0,0
29732,-100,4,2,99,5,0,0
29817,-100,4,1,1,74,0,0
29902,-100,4,2,99,5,0,0
29987,-100,4,1,1,74,0,0
30156,-100,4,1,1,80,0,0
30326,-100,4,1,1,80,0,0
30495,-100,4,1,1,40,0,0
30665,-100,4,1,1,80,0,0
30834,-100,4,1,1,80,0,0
31004,-100,4,1,1,40,0,0
31173,-100,4,1,1,76,0,0
31512,-100,4,1,1,76,0,0
31681,-100,4,1,1,74,0,0
32020,-100,4,1,1,74,0,0
32190,-100,4,1,1,74,0,0
32359,-100,4,1,1,74,0,0
32529,-125,4,2,1,50,0,0
32698,-125,4,2,1,30,0,0
32868,-125,4,2,1,60,0,0
33037,-125,4,2,1,30,0,0
33207,-125,4,2,1,70,0,0
33885,-100,4,1,1,80,0,0
34393,-100,4,1,1,74,0,0
34732,-100,4,1,1,74,0,0
34902,-100,4,1,1,74,0,0
35071,-100,4,1,1,74,0,0
35241,-100,4,1,1,78,0,0
35580,-100,4,1,1,76,0,0
36088,-100,4,1,1,60,0,0
36258,-100,4,1,1,80,0,0
36597,-100,4,1,1,80,0,0
36936,-100,4,1,1,80,0,0
37105,-100,4,1,1,74,0,0
37953,-100,4,1,1,66,0,0
38122,-100,4,1,1,60,0,0
38292,-100,4,1,1,74,0,0
38461,-100,4,1,1,78,0,0
38800,-100,4,1,1,74,0,0
38970,-100,4,1,1,74,0,0
39139,-100,4,1,1,74,0,0
39309,-100,4,1,1,78,0,0
39648,-100,4,1,1,78,0,0
39817,-100,4,1,1,74,0,0
40156,-100,4,1,1,74,0,0
40326,-100,4,1,1,74,0,0
40495,-100,4,1,1,74,0,0
40665,-100,4,1,1,72,0,0
40834,-100,4,1,1,60,0,0
41004,-100,4,1,1,74,0,0
41173,-100,4,1,1,76,0,0
41512,-100,4,1,1,74,0,0
41681,-100,4,1,1,78,0,0
42020,-100,4,1,1,80,0,0
42529,-100,4,1,1,74,0,0
43376,-125,4,2,1,60,0,0
43546,-125,4,2,1,40,0,0
43715,-125,4,2,1,68,0,0
43885,-125,4,2,23,64,0,0
44224,-125,4,2,1,60,0,0
44309,-125,4,2,23,62,0,0
44393,-125,4,2,23,64,0,0
44478,-125,4,2,23,66,0,0
44563,-125,4,2,23,68,0,0
44648,-125,4,2,23,70,0,0
44732,-100,4,1,34,90,0,1
44754,-100,4,1,1,80,0,1
54224,-100,4,1,1,50,0,1
54393,-111.111111111111,4,2,1,60,0,0
54563,-111.111111111111,4,2,1,70,0,0
54732,-111.111111111111,4,2,1,60,0,0
54902,-111.111111111111,4,2,23,64,0,0
55071,-111.111111111111,4,2,23,66,0,0
55156,-111.111111111111,4,2,23,68,0,0
55241,-111.111111111111,4,2,23,70,0,0
55410,-100,4,2,23,72,0,0
55580,-100,4,1,34,80,0,1
55749,-100,4,1,1,80,0,1
56088,-100,4,1,1,70,0,1
56173,-100,4,1,1,74,0,1
57444,-100,4,1,1,78,0,1
57783,-100,4,1,1,80,0,1
58122,-100,4,1,1,70,0,1
58292,-100,4,1,1,80,0,1
58631,-100,4,1,1,80,0,1
58800,-100,4,1,1,70,0,1
58885,-100,4,1,1,74,0,1
59139,-100,4,1,1,74,0,1
59817,-100,4,1,1,70,0,1
59987,-100,4,1,1,78,0,1
60156,-100,4,1,1,70,0,1
60326,-100,4,1,1,72,0,1
61004,-100,4,1,1,74,0,1
62020,-100,4,1,1,76,0,1
62275,-100,4,2,99,5,0,1
62359,-100,4,1,1,70,0,1
62529,-100,4,1,1,60,0,1
62698,-100,4,1,1,74,0,1
63376,-100,4,1,1,78,0,1
63715,-100,4,1,1,80,0,1
64902,-100,4,1,1,78,0,1
65071,-125,4,1,1,78,0,1
65749,-125,4,2,23,60,0,1
66088,-125,4,2,23,58,0,1
66173,-100,4,2,23,56,0,1
66258,-100,4,2,23,54,0,1
66343,-100,4,2,23,52,0,1
66427,-100,4,1,34,40,0,0
76766,-125,4,1,23,60,0,0
77275,-200,4,2,23,40,0,0
84393,-200,4,2,23,42,0,0
85410,-200,4,2,23,44,0,0
85749,-200,4,2,23,46,0,0
85919,-200,4,2,23,44,0,0
86088,-200,4,2,23,42,0,0
86766,-200,4,2,23,44,0,0
86851,-200,4,2,23,45,0,0
86936,-200,4,2,23,46,0,0
87105,-200,4,2,2,50,0,0
87275,-200,4,2,23,46,0,0
87359,-200,4,2,23,47,0,0
87444,-200,4,2,23,48,0,0
87614,-200,4,2,1,50,0,0
87783,-200,4,2,1,52,0,0
88122,-142.857142857143,4,2,1,50,0,0
91851,-142.857142857143,4,2,1,52,0,0
92529,-142.857142857143,4,2,1,54,0,0
93546,-125,4,2,1,56,0,0
94563,-125,4,2,1,64,0,0
94676,-125,4,2,1,60,0,0
94902,-125,4,2,1,62,0,0
95241,-125,4,2,1,64,0,0
95580,-125,4,2,1,66,0,0
95749,-125,4,2,1,68,0,0
95919,-125,4,2,1,70,0,0
96088,-125,4,2,1,72,0,0
96258,-111.111111111111,4,2,1,74,0,0
96300,-111.111111111111,4,2,1,40,0,0
96597,-111.111111111111,4,2,1,76,0,0
96639,-111.111111111111,4,2,1,42,0,0
96936,-111.111111111111,4,2,1,76,0,0
96978,-111.111111111111,4,2,1,44,0,0
97105,-111.111111111111,4,2,1,76,0,0
97148,-111.111111111111,4,2,1,44,0,0
97275,-111.111111111111,4,2,1,70,0,0
97296,-111.111111111111,4,2,1,46,0,0
97614,-125,4,1,23,70,0,0
97953,-125,4,1,2,70,0,0
98122,-125,4,2,1,70,0,0
98207,-125,4,2,23,70,0,0
98461,-125,4,2,1,70,0,0
98970,-100,4,1,1,80,0,0
99478,-100,4,1,1,74,0,0
100326,-100,4,1,1,76,0,0
100495,-100,4,1,1,76,0,0
101343,-100,4,1,1,80,0,0
102190,-100,4,1,1,74,0,0
103037,-100,4,1,1,70,0,0
103207,-100,4,1,1,60,0,0
103376,-100,4,1,1,76,0,0
103546,-100,4,1,1,78,0,0
103885,-100,4,1,1,76,0,0
104054,-100,4,1,1,80,0,0
104902,-100,4,1,1,74,0,0
106088,-100,4,1,1,80,0,0
106427,-100,4,1,1,60,0,0
106597,-100,4,1,1,80,0,0
107105,-100,4,1,1,76,0,0
107614,-100,4,1,1,74,0,0
108461,-125,4,2,1,50,0,0
108631,-125,4,2,1,30,0,0
108800,-125,4,2,1,60,0,0
108970,-125,4,2,1,30,0,0
109139,-125,4,2,1,70,0,0
109817,-100,4,1,1,80,0,0
110495,-100,4,1,1,74,0,0
111173,-100,4,2,2,70,0,0
111512,-100,4,2,1,70,0,0
111681,-100,4,1,1,72,0,0
112190,-100,4,2,1,80,0,0
112529,-100,4,1,1,80,0,0
112868,-100,4,2,23,60,0,0
113207,-100,4,2,23,40,0,0
113376,-100,4,2,23,60,0,0
113546,-100,4,1,1,70,0,0
113885,-100,4,1,1,72,0,0
114224,-100,4,2,1,80,0,0
114245,-100,4,2,20,60,0,0
114732,-100,4,2,1,74,0,0
115410,-100,4,1,1,68,0,0
115919,-100,4,1,1,80,0,0
116597,-100,4,2,2,70,0,0
117614,-100,4,2,1,74,0,0
117953,-100,4,2,1,70,0,0
118122,-100,4,2,1,60,0,0
118292,-100,4,2,1,66,0,0
118631,-100,4,2,1,54,0,0
118800,-100,4,2,1,70,0,0
118970,-100,4,1,1,76,0,0
119309,-125,4,2,1,60,0,0
119478,-125,4,2,1,40,0,0
119648,-125,4,2,1,66,0,0
119817,-125,4,2,1,40,0,0
119987,-125,4,2,1,62,0,0
120156,-125,4,2,1,60,0,0
120241,-125,4,2,1,62,0,0
120326,-125,4,2,1,64,0,0
120410,-125,4,2,1,66,0,0
120495,-125,4,2,1,68,0,0
120580,-125,4,2,1,70,0,0
120665,-100,4,1,34,90,0,1
120686,-100,4,1,1,80,0,1
120919,-100,4,2,99,5,0,1
121004,-100,4,1,1,80,0,1
122783,-100,4,2,99,5,0,1
122868,-100,4,1,1,80,0,1
123631,-100,4,2,99,5,0,1
123715,-100,4,1,1,80,0,1
124817,-100,4,2,99,5,0,1
124902,-100,4,1,1,80,0,1
126343,-100,4,2,99,5,0,1
126427,-100,4,1,1,80,0,1
128715,-100,4,2,99,5,0,1
128800,-100,4,1,1,80,0,1
129054,-100,4,2,99,5,0,1
129139,-100,4,1,1,80,0,1
130156,-100,4,2,1,74,0,1
130326,-100,4,2,2,68,0,1
130665,-100,4,2,23,66,0,1
130749,-100,4,2,2,66,0,1
131004,-100,4,2,1,70,0,1
131173,-125,4,2,23,74,0,1
131427,-100,4,2,99,5,0,1
131512,-100,4,2,34,20,0,0
131533,-100,4,2,20,10,0,0
134732,-100,4,2,99,5,0,0

[Colours]
Combo1 : 250,190,230
Combo2 : 130,200,230
Combo3 : 255,230,140
Combo4 : 170,245,170

[HitObjects]
106,83,1343,5,14,0:3:0:0:
119,103,2190,2,0,P|129:181|134:259,1,157.499995193482,10|8,0:3|0:3,0:0:0:0:
188,325,2868,6,0,L|309:317,1,104.999996795654,2|8,0:0|0:0,0:0:0:0:
412,359,3546,1,10,0:3:0:0:
412,359,3715,2,0,P|419:309|431:253,1,104.999996795654,10|8,0:0|0:3,0:0:0:0:
413,173,4224,6,0,L|292:165,1,104.999996795654,2|8,0:0|0:0,0:0:0:0:
189,207,4902,1,10,0:3:0:0:
189,207,5071,2,0,P|182:157|170:101,1,104.999996795654,10|8,0:0|0:3,0:0:0:0:
253,107,5580,6,0,P|260:55|271:3,1,104.999996795654,2|8,0:0|0:0,0:0:0:0:
393,55,6258,1,10,0:3:0:0:
393,55,6427,2,0,L|514:63,1,104.999996795654,10|8,0:0|0:3,0:0:0:0:
468,141,6936,6,0,P|457:192|450:244,1,104.999996795654,2|8,0:0|0:0,0:0:0:0:
359,332,7614,1,10,0:3:0:0:
359,332,7783,2,0,L|238:324,1,104.999996795654,10|8,0:0|0:3,0:0:0:0:
227,235,8292,6,0,L|331:228,1,104.999996795654,2|8,0:0|0:0,0:0:0:0:
447,279,8970,1,10,0:3:0:0:
447,279,9139,2,0,P|454:226|464:175,1,104.999996795654,10|8,0:0|0:3,0:0:0:0:
416,105,9648,6,0,L|311:98,1,104.999996795654,2|8,0:0|0:0,0:0:0:0:
205,167,10326,1,10,0:3:0:0:
205,167,10495,2,0,P|197:114|187:63,1,104.999996795654,10|0,0:0|0:3,0:0:0:0:
108,31,11004,6,0,B|39:36|39:36|1:22,1,104.999996795654,2|8,0:0|0:0,0:0:0:0:
28,147,11681,2,0,L|19:192,2,26.2499991989136,10|8|8,0:3|0:3|0:0,0:0:0:0:
187,63,12190,6,0,B|230:66|230:66|263:87|263:87|310:89,1,127.50000243187,12|8,0:3|0:0,0:0:0:0:
364,159,12698,2,0,B|360:202|360:202|339:235|339:235|337:282,1,127.50000243187,2|8,0:0|0:3,0:0:0:0:
263,331,13207,1,8,0:0:0:0:
263,331,13546,6,0,B|219:327|219:327|186:306|186:306|139:304,1,127.50000243187,8|8,0:3|0:0,0:0:0:0:
86,235,14054,2,0,B|89:191|89:191|110:158|110:158|112:111,1,127.50000243187,2|8,0:0|0:3,0:0:0:0:
46,52,14563,1,8,0:0:0:0:
46,52,14902,6,0,B|85:66|85:66|193:53,2,127.50000243187,14|10|0,0:3|0:0|0:0,0:0:0:0:
9,133,15749,1,10,0:3:0:0:
55,209,15919,2,0,B|60:301,1,63.7500012159348,10|0,0:0|0:0,0:0:0:0:
110,345,16258,6,0,B|149:331|149:331|257:344,2,127.50000243187,10|10|0,0:3|0:0|0:0,0:0:0:0:
58,272,17105,1,10,0:3:0:0:
109,199,17275,2,0,B|114:107,1,63.7500012159348,10|0,0:0|0:0,0:0:0:0:
181,59,17614,5,10,0:3:0:0:
259,190,17953,1,8,0:3:0:0:
337,59,18292,1,8,0:3:0:0:
172,80,18631,5,10,0:3:0:0:
323,40,18970,1,12,0:3:0:0:
281,187,19309,1,8,0:3:0:0:
304,25,19648,5,14,0:3:0:0:
169,103,19987,1,8,0:3:0:0:
330,115,20326,6,0,P|297:106|252:107,1,63.7500012159348,14|8,0:3|0:3,0:0:0:0:
288,201,20665,2,0,P|321:210|366:209,1,63.7500012159348,8|8,0:3|0:3,0:0:0:0:
393,126,21004,6,0,P|362:117|330:115,1,63.7500012159348,8|8,0:3|0:3,0:0:0:0:
351,211,21343,2,0,P|381:219|413:221,1,63.7500012159348,8|8,0:3|0:3,0:0:0:0:
499,134,21681,6,0,B|462:107|422:119|422:119|377:133|332:130|311:94|311:94|345:104|372:102|396:83,1,292.499986610413,10|8,0:3|0:0,0:0:0:0:
394,84,23037,6,0,L|399:243,1,150,14|8,0:3|0:2,0:0:0:0:
334,318,23546,1,10,2:3:0:0:
334,318,23631,1,2,2:2:0:0:
333,317,23715,2,0,P|301:299|265:306,1,75,2|2,2:2|2:2,0:0:0:0:
167,343,24054,2,0,P|130:349|98:331,1,75,10|2,2:2|2:2,0:0:0:0:
22,226,24393,5,2,0:2:0:0:
22,226,24563,2,0,B|41:193|41:193|42:156,1,75,10|8,0:3|0:3,0:0:0:0:
41,51,24902,1,10,0:2:0:0:
250,24,25241,1,0,0:0:0:0:
274,128,25410,2,0,B|283:163|283:163|310:190,1,75,14|0,0:2|0:0,0:0:0:0:
424,138,25749,6,0,L|241:126,1,150,14|8,0:3|0:2,0:0:0:0:
176,169,26258,2,0,P|143:150|107:158,2,75,10|2|2,2:3|2:2|2:2,0:0:0:0:
214,267,26766,2,0,P|246:285|282:277,1,75,10|2,2:2|2:2,0:0:0:0:
359,304,27105,6,0,L|435:302,1,75,2|8,0:3|0:3,0:0:0:0:
504,224,27444,1,14,0:3:0:0:
426,152,27614,2,0,B|406:135|406:135|396:61,1,75,10|0,0:2|0:0,0:0:0:0:
314,24,27953,1,14,0:3:0:0:
216,61,28122,2,0,B|167:54|167:54|150:34,1,75,10|0,0:2|0:0,0:0:0:0:
79,139,28461,6,0,B|97:45|97:45|156:33,1,150,14|8,0:3|0:2,0:0:0:0:
246,78,28970,1,10,2:3:0:0:
246,78,29139,2,0,P|281:85|313:67,1,75,2|2,2:2|2:2,0:0:0:0:
403,123,29478,2,0,P|438:115|470:133,1,75,10|2,2:2|2:2,0:0:0:0:
504,231,29817,6,0,L|495:309,1,75,2|10,0:2|0:3,0:0:0:0:
406,361,30156,1,14,0:3:0:0:
335,282,30326,2,0,B|318:262|318:262|269:255,1,75,10|0,0:2|0:0,0:0:0:0:
170,291,30665,1,10,0:3:0:0:
72,250,30834,2,0,B|52:232|52:232|46:184,1,75,14|0,0:2|0:0,0:0:0:0:
85,108,31173,6,0,B|80:159|80:159|66:178|66:178|77:195|77:195|72:251,1,150,10|8,0:3|0:2,0:0:0:0:
134,349,31681,2,0,P|102:330|66:337,2,75,10|2|2,2:3|2:2|2:2,0:0:0:0:
239,346,32190,2,0,P|264:319|301:317,1,75,10|2,2:2|2:2,0:0:0:0:
402,350,32529,6,0,L|406:280,1,60,2|2,0:0|0:0,0:0:0:0:
301,317,32868,2,0,L|297:247,1,60,6|2,0:0|0:0,0:0:0:0:
378,208,33207,2,0,P|421:201|436:188,1,60,10|8,0:0|0:3,0:0:0:0:
432,191,33461,1,8,0:3:0:0:
432,191,33546,2,0,L|435:131,1,60,10|10,0:0|0:0,0:0:0:0:
363,35,33885,6,0,L|199:27,1,150,14|8,0:3|0:2,0:0:0:0:
114,64,34393,1,2,2:2:0:0:
114,64,34563,2,0,P|141:89|143:126,1,75,2|10,2:2|2:3,0:0:0:0:
93,218,34902,2,0,P|66:243|64:280,1,75,10|2,2:2|2:0,0:0:0:0:
145,346,35241,6,0,B|192:328|192:328|226:346|226:346|314:352,1,150,14|8,0:3|0:2,0:0:0:0:
367,290,35749,2,0,B|385:243|385:243|367:209|367:209|361:121,1,150,12|0,0:3|0:0,0:0:0:0:
494,143,36258,2,0,L|503:67,1,75,14|0,0:2|0:0,0:0:0:0:
372,17,36597,6,0,B|402:55|402:55|507:69,1,150,14|8,0:3|0:2,0:0:0:0:
409,165,37105,2,0,P|377:146|341:153,2,75,2|2|10,2:2|2:2|2:3,0:0:0:0:
395,270,37614,2,0,P|358:276|327:257,1,75,10|2,2:2|2:0,0:0:0:0:
242,195,37953,6,0,L|164:189,1,75,2|8,0:2|0:3,0:0:0:0:
67,222,38292,1,14,0:3:0:0:
6,136,38461,2,0,B|-3:112|-3:112|12:62,1,75,10|0,0:2|0:0,0:0:0:0:
105,17,38800,1,6,0:3:0:0:
191,78,38970,2,0,B|215:87|215:87|265:72,1,75,10|2,0:2|0:2,0:0:0:0:
393,124,39309,6,0,B|363:86|363:86|262:72,1,150,14|8,0:3|0:2,0:0:0:0:
164,111,39817,1,2,2:2:0:0:
164,111,39987,2,0,P|161:147|134:172,1,75,2|10,2:2|2:3,0:0:0:0:
147,276,40326,2,0,P|179:293|191:327,1,75,10|2,2:2|2:0,0:0:0:0:
289,364,40665,5,10,0:3:0:0:
473,263,41004,1,14,0:2:0:0:
413,177,41173,2,0,B|400:157|400:157|408:91,1,75,10|0,0:3|0:0,0:0:0:0:
327,35,41512,1,2,0:2:0:0:
226,63,41681,2,0,B|200:76|200:76|141:67,1,75,14|0,0:2|0:0,0:0:0:0:
213,204,42020,6,0,B|218:153|218:153|232:134|232:134|221:117|221:117|226:61,1,150,12|8,0:3|0:2,0:0:0:0:
327,35,42529,2,0,P|363:32|388:4,2,75,2|2|10,2:2|2:2|2:3,0:0:0:0:
226,62,43037,2,0,P|197:38|161:40,1,75,10|2,2:2|2:0,0:0:0:0:
91,126,43376,6,0,L|96:189,1,60,10|2,0:3|0:0,0:0:0:0:
215,201,43715,2,0,L|210:264,1,60,6|8,0:0|0:0,0:0:0:0:
363,361,44224,6,0,L|401:356,1,30,10|2,0:3|0:0,0:0:0:0:
434,351,44393,2,0,L|457:320,1,30,10|2,0:0|0:0,0:0:0:0:
477,293,44563,2,0,L|471:254,1,30,2|2,0:0|0:0,0:0:0:0:
466,221,44732,6,0,B|426:210|426:210|386:168|420:109,1,150,14|8,0:3|0:2,0:0:0:0:
493,15,45241,2,0,B|503:55|503:55|487:110|419:110,1,150,10|0,0:3|0:0,0:0:0:0:
301,96,45749,2,0,B|330:66|330:66|386:53|420:112,1,150,10|0,0:2|0:0,0:0:0:0:
466,221,46258,5,8,0:3:0:0:
466,221,46427,1,8,0:3:0:0:
363,195,46597,2,0,L|203:176,1,150,8|10,0:2|0:3,0:0:0:0:
111,152,47105,5,10,0:2:0:0:
111,152,47275,1,2,0:2:0:0:
214,177,47444,2,0,P|246:241|217:308,1,150,12|8,0:3|0:2,0:0:0:0:
103,246,47953,2,0,P|142:185|214:177,1,150,10|0,0:3|0:0,0:0:0:0:
317,193,48461,5,10,0:2:0:0:
415,156,48631,2,0,B|446:126|446:126|460:62|414:21,1,150,2|10,0:2|0:3,0:0:0:0:
315,38,49139,6,0,L|225:29,1,75,6|8,0:2|0:2,0:0:0:0:
77,163,49648,2,0,L|3:155,1,75,6|8,0:2|0:2,0:0:0:0:
139,314,50156,6,0,P|209:303|227:234,1,150,14|8,0:3|0:2,0:0:0:0:
203,118,50665,2,0,P|177:184|227:234,1,150,10|0,0:3|0:0,0:0:0:0:
340,272,51173,2,0,P|295:216|227:234,1,150,10|0,0:2|0:0,0:0:0:0:
227,233,51681,1,8,0:3:0:0:
203,118,51851,6,0,L|195:21,1,75,14|10,0:3|0:2,0:0:0:0:
330,97,52190,2,0,L|338:0,1,75,2|10,0:2|0:3,0:0:0:0:
463,92,52529,1,14,0:2:0:0:
462,92,52868,6,0,B|432:109|432:109|391:158|418:216,1,150,10|8,0:3|0:2,0:0:0:0:
505,316,53376,2,0,B|505:281|505:281|483:221|418:216,1,150,10|0,0:3|0:0,0:0:0:0:
289,242,53885,2,0,B|318:259|318:259|381:270|418:217,1,150,10|0,0:2|0:0,0:0:0:0:
418,216,54393,5,2,0:2:0:0:
370,135,54563,2,0,B|306:113|305:149|237:122,1,134.999995880127,6|8,0:0|0:0,0:0:0:0:
123,105,55071,1,14,0:3:0:0:
135,113,55156,1,10,0:3:0:0:
143,125,55241,2,0,P|156:163|153:206,1,67.4999979400635,10|10,0:0|0:0,0:0:0:0:
6,195,55580,6,0,L|170:189,1,150,14|10,0:3|0:2,0:0:0:0:
241,250,56088,1,0,2:0:0:0:
241,250,56258,2,0,P|277:247|302:220,1,75,2|10,2:0|2:3,0:0:0:0:
292,115,56597,2,0,P|259:98|224:109,1,75,10|2,2:2|2:0,0:0:0:0:
155,189,56936,6,0,B|48:187|48:187|10:142,1,150,14|8,0:3|0:2,0:0:0:0:
89,74,57444,2,0,B|196:76|196:76|234:121,1,150,6|8,0:2|0:3,0:0:0:0:
155,189,57953,2,0,B|148:211|148:211|144:286,1,75,14|2,0:2|0:2,0:0:0:0:
215,341,58292,6,0,B|252:328|252:328|297:343|297:343|364:340,1,150,14|8,0:3|0:2,0:0:0:0:
463,318,58800,1,0,2:0:0:0:
463,318,58970,2,0,P|481:286|471:250,1,75,2|10,2:0|2:3,0:0:0:0:
411,163,59309,1,10,2:2:0:0:
411,163,59478,1,2,2:2:0:0:
301,197,59648,6,0,B|209:190,1,75,10|2,0:3|0:2,0:0:0:0:
130,233,59987,2,0,B|38:225,1,75,12|0,0:2|0:0,0:0:0:0:
16,129,60326,1,2,0:2:0:0:
82,47,60495,1,14,0:3:0:0:
187,64,60665,2,0,B|278:71,1,75,10|0,0:2|0:0,0:0:0:0:
395,97,61004,6,0,B|362:60|362:60|252:71,1,150,14|10,0:3|2:0,0:0:0:0:
204,157,61512,2,0,P|222:189|212:225,2,75,2|2|10,2:0|2:0|2:3,0:0:0:0:
105,120,62020,2,0,P|69:129|51:162,1,75,14|0,0:2|0:0,0:0:0:0:
106,251,62359,5,8,0:3:0:0:
106,251,62698,2,0,B|126:226|126:226|127:343,1,150,14|2,0:2|0:2,0:0:0:0:
226,379,63207,1,10,0:3:0:0:
317,327,63376,2,0,B|351:315|351:315|401:318,1,75,14|0,0:2|0:0,0:0:0:0:
495,259,63715,5,14,0:3:0:0:
495,259,63885,1,8,0:3:0:0:
403,181,64054,2,0,P|391:145|398:109,1,75,8|8,0:2|0:3,0:0:0:0:
278,119,64393,2,0,P|289:83|282:47,1,75,8|8,0:2|0:3,0:0:0:0:
170,1,64732,1,2,0:2:0:0:
170,1,64902,1,8,0:2:0:0:
89,75,65071,6,0,L|17:71,1,60,8|0,0:3|0:2,0:0:0:0:
80,162,65410,2,0,P|87:190|89:228,1,60,8|0,0:2|0:0,0:0:0:0:
177,278,65749,2,0,P|179:248|186:219,1,60,2|10,0:0|0:3,0:0:0:0:
259,156,66088,2,0,L|262:119,3,30,2|2|2|2,0:0|0:0|0:0|0:0,0:0:0:0:
256,80,66427,5,12,0:3:0:0:
65,146,76766,6,0,L|59:103,2,30,8|8|8,0:3|0:3|0:2,0:0:0:0:
206,202,77275,6,0,P|250:192|296:198,2,75,10|10|2,0:3|0:0|0:0,0:0:0:0:
128,294,78292,1,8,0:0:0:0:
65,125,78800,5,8,0:3:0:0:
65,125,78970,1,8,0:3:0:0:
65,125,79139,2,0,L|74:45,1,75,8|8,0:0|0:3,0:0:0:0:
158,28,79648,6,0,L|208:19,1,37.5,10|2,0:0|0:0,0:0:0:0:
250,43,79987,2,0,L|300:34,1,37.5,10|2,0:3|0:0,0:0:0:0:
360,83,80326,5,8,0:0:0:0:
360,83,80495,2,0,L|367:32,1,37.5,8|0,0:3|0:0,0:0:0:0:
458,154,81004,6,0,L|408:145,1,37.5,10|2,0:0|0:0,0:0:0:0:
366,169,81343,2,0,L|316:160,1,37.5,2|10,0:0|0:3,0:0:0:0:
251,182,81681,1,8,0:3:0:0:
251,182,81851,1,8,0:0:0:0:
251,182,82020,6,0,L|256:235,1,37.5,2|8,0:0|0:3,0:0:0:0:
222,270,82359,2,0,L|227:323,1,37.5,10|0,0:0|0:0,0:0:0:0:
188,354,82698,2,0,L|112:347,1,75,10|8,0:3|0:0,0:0:0:0:
51,298,83207,1,8,0:3:0:0:
51,298,83376,6,0,P|56:259|57:210,1,75,2|8,0:0|0:0,0:0:0:0:
24,172,83885,2,0,P|25:134|30:97,1,75,2|8,0:0|0:3,0:0:0:0:
100,44,84393,5,10,0:3:0:0:
100,44,84563,1,8,0:0:0:0:
148,153,84902,1,10,0:3:0:0:
148,153,85071,1,8,0:0:0:0:
259,78,85410,6,0,P|293:63|330:66,1,75,10|8,0:3|0:0,0:0:0:0:
399,122,85919,1,8,0:3:0:0:
399,122,86088,2,0,L|392:207,1,75,2|8,0:0|0:0,0:0:0:0:
417,323,86766,6,0,L|448:329,2,18.75,10|8|8,0:3|0:3|0:3,0:0:0:0:
330,351,87105,2,0,P|294:344|281:343,1,37.5,10|8,0:0|0:3,0:0:0:0:
222,286,87444,5,10,0:3:0:0:
222,286,87614,1,10,0:3:0:0:
203,373,87783,1,10,0:0:0:0:
86,252,88122,6,0,B|97:220|97:220|86:134,2,104.999996795654,12|8|0,0:3|0:0|0:0,0:0:0:0:
33,317,88970,1,8,0:3:0:0:
33,317,89139,2,0,P|45:340|53:369,1,52.4999983978272,8|2,0:0|0:0,0:0:0:0:
220,359,89648,5,10,0:3:0:0:
220,359,89817,1,10,0:3:0:0:
220,359,89987,2,0,P|221:332|227:307,1,52.4999983978272,10|0,0:0|0:0,0:0:0:0:
274,237,90326,1,10,0:3:0:0:
274,237,90495,2,0,P|273:210|267:185,1,52.4999983978272,10|2,0:0|0:0,0:0:0:0:
197,138,90834,6,0,B|165:149|165:149|79:138,2,104.999996795654,8|8|0,0:3|0:0|0:0,0:0:0:0:
271,189,91681,1,10,0:3:0:0:
271,189,91851,2,0,P|294:177|323:169,1,52.4999983978272,10|2,0:0|0:0,0:0:0:0:
460,78,92359,5,8,0:3:0:0:
460,78,92529,1,10,0:3:0:0:
460,78,92698,2,0,P|437:66|408:58,1,52.4999983978272,10|0,0:0|0:0,0:0:0:0:
328,73,93037,1,10,0:3:0:0:
328,73,93207,2,0,P|302:71|272:64,1,52.4999983978272,10|2,0:0|0:0,0:0:0:0:
182,84,93546,6,0,B|142:81|142:81|111:61|111:61|68:60,2,120,10|8|0,0:3|0:0|0:0,0:0:0:0:
265,145,94393,1,10,0:3:0:0:
355,95,94563,6,0,B|394:87|394:87|428:98|428:98|470:88,1,120,10|2,0:3|0:0,0:0:0:0:
384,172,95071,2,0,P|375:199|375:233,2,60,10|2|10,0:3|0:0|0:0,0:0:0:0:
500,239,95580,6,0,P|509:210|509:180,1,60,2|10,0:0|0:3,0:0:0:0:
471,88,95919,2,0,P|461:59|461:29,1,60,10|2,0:0|0:0,0:0:0:0:
359,55,96258,6,0,B|303:45|303:45|274:26|274:26|201:36,2,134.999995880127,10|10|10,0:3|0:2|0:3,0:0:0:0:
405,152,97105,1,10,0:3:0:0:
386,258,97275,1,10,0:0:0:0:
238,158,97614,6,0,B|201:152|201:152|173:161|173:161|101:142,1,120,10|8,1:3|1:2,0:0:0:0:
50,83,98122,2,0,P|40:53|22:25,2,60,8|8|8,0:0|0:3|0:3,0:0:0:0:
30,176,98631,1,8,0:0:0:0:
186,315,98970,6,0,L|345:310,1,150,14|8,0:3|0:2,0:0:0:0:
442,355,99478,1,10,2:3:0:0:
442,355,99563,1,2,2:2:0:0:
443,354,99648,2,0,P|461:322|454:286,1,75,2|2,2:2|2:2,0:0:0:0:
412,189,99987,2,0,P|394:157|401:121,1,75,10|2,2:2|2:2,0:0:0:0:
487,32,100326,5,2,0:2:0:0:
487,32,100495,2,0,B|448:37|448:37|414:25,1,75,10|8,0:3|0:3,0:0:0:0:
313,57,100834,1,10,0:2:0:0:
109,4,101173,1,8,0:3:0:0:
26,70,101343,2,0,B|14:103|14:103|19:142,1,75,14|0,1:2|0:0,0:0:0:0:
14,287,101681,6,0,B|24:237|24:237|8:200|8:200|19:143,1,150,14|8,0:3|0:2,0:0:0:0:
118,178,102190,2,0,P|151:159|187:167,2,75,10|2|2,2:3|2:2|2:2,0:0:0:0:
172,268,102698,2,0,P|204:286|240:278,1,75,10|2,2:2|2:2,0:0:0:0:
306,220,103037,6,0,L|387:218,1,75,2|8,0:2|0:3,0:0:0:0:
484,235,103376,1,14,0:3:0:0:
445,137,103546,2,0,B|440:101|440:101|457:65,1,75,10|0,0:2|0:0,0:0:0:0:
369,6,103885,1,14,0:3:0:0:
273,48,104054,2,0,B|237:53|237:53|202:36,1,75,10|0,0:2|0:0,0:0:0:0:
130,141,104393,6,0,B|147:49|147:49|217:33,1,150,14|8,0:3|0:2,0:0:0:0:
253,132,104902,1,10,2:3:0:0:
253,132,105071,2,0,P|288:139|320:121,1,75,2|2,2:2|2:2,0:0:0:0:
425,130,105410,2,0,P|460:122|492:140,1,75,10|2,2:2|2:2,0:0:0:0:
511,244,105749,6,0,L|500:325,1,75,2|10,0:2|0:3,0:0:0:0:
404,359,106088,1,14,0:3:0:0:
328,283,106258,2,0,B|301:259|301:259|262:256,1,75,10|0,0:2|0:0,0:0:0:0:
171,310,106597,1,10,0:3:0:0:
69,272,106766,2,0,B|54:238|54:238|63:200,1,75,14|0,0:2|0:0,0:0:0:0:
204,189,107105,6,0,B|153:194|153:194|134:208|134:208|117:197|117:197|62:201,1,150,10|8,0:3|0:2,0:0:0:0:
29,100,107614,2,0,P|48:68|41:32,2,75,10|2|2,2:3|2:2|2:2,0:0:0:0:
62,201,108122,2,0,P|89:226|91:263,1,75,10|2,2:2|2:2,0:0:0:0:
8,322,108461,6,0,L|2:251,1,60,2|0,0:0|0:0,0:0:0:0:
96,358,108800,2,0,L|102:287,1,60,6|2,0:0|0:0,0:0:0:0:
173,246,109139,2,0,P|206:236|255:244,1,60,10|8,0:0|0:3,0:0:0:0:
231,236,109393,1,8,0:3:0:0:
231,236,109478,2,0,L|237:165,1,60,10|10,0:2|0:0,0:0:0:0:
379,167,109817,6,0,B|333:191|333:191|222:174,1,150,14|8,0:3|0:2,0:0:0:0:
237,176,110495,2,0,P|244:141|227:109,1,75,2|10,2:2|2:3,0:0:0:0:
121,96,110834,2,0,P|92:118|85:154,1,75,10|2,2:2|2:0,0:0:0:0:
150,237,111173,6,0,L|141:288,2,37.5,12|8|8,0:3|0:3|0:3,0:0:0:0:
236,175,111512,1,8,0:0:0:0:
327,226,111681,2,0,P|364:230|419:135,1,150,2|10,2:0|2:3,0:0:0:0:
354,66,112190,6,0,B|263:52|263:52|181:6,1,150,14|8,0:0|0:3,0:0:0:0:
213,24,112868,2,0,B|303:37|303:37|385:83,1,150,14|0,0:0|0:0,0:0:0:0:
422,147,113376,1,8,0:3:0:0:
332,202,113546,6,0,L|248:189,1,75,10|2,2:0|2:0,0:0:0:0:
155,216,113885,2,0,L|71:203,1,75,10|2,2:3|2:0,0:0:0:0:
42,97,114224,6,0,P|100:136|82:204,1,150,14|0,0:2|0:0,0:0:0:0:
16,287,114732,1,14,0:3:0:0:
103,345,114902,2,0,L|193:339,1,75,2|10,0:0|0:3,0:0:0:0:
279,369,115241,5,8,0:3:0:0:
353,295,115410,2,0,P|350:243|368:212,2,75,2|10|2,2:0|2:0|2:0,0:0:0:0:
430,374,115919,5,14,0:3:0:0:
430,374,116088,1,10,0:3:0:0:
451,274,116258,1,10,0:2:0:0:
451,274,116427,1,0,0:0:0:0:
359,223,116597,6,0,L|302:213,2,37.5,12|8|8,0:3|0:3|0:3,0:0:0:0:
449,168,116936,1,8,0:2:0:0:
382,87,117105,2,0,B|331:75|285:101|285:101|217:71,1,150,2|8,2:2|0:3,0:0:0:0:
127,130,117614,2,0,P|175:143|200:175,1,75,14|0,2:2|0:0,0:0:0:0:
245,250,117953,6,0,P|197:263|172:295,1,75,12|2,0:3|0:2,0:0:0:0:
256,352,118292,2,0,L|410:348,1,150,10|0,0:0|0:0,0:0:0:0:
487,281,118800,1,14,0:3:0:0:
419,200,118970,2,0,P|403:166|406:129,1,75,10|0,0:2|0:0,0:0:0:0:
341,52,119309,6,0,L|258:44,1,60,10|2,0:3|0:0,0:0:0:0:
406,129,119648,2,0,L|489:137,1,60,14|2,0:3|0:0,0:0:0:0:
510,206,119987,1,8,0:0:0:0:
458,278,120156,6,0,L|427:254,1,30,6|10,0:0|0:0,0:0:0:0:
401,234,120325,2,0,L|362:239,1,30,10|2,0:3|0:0,0:0:0:0:
329,245,120495,2,0,L|305:276,1,30,10|2,0:0|0:0,0:0:0:0:
286,303,120665,6,0,P|206:304|163:243,1,150,14|8,0:3|0:2,0:0:0:0:
149,124,121173,2,0,P|189:191|158:260,1,150,10|0,0:3|0:0,0:0:0:0:
63,334,121681,2,0,P|101:264|176:257,1,150,10|0,0:2|0:0,0:0:0:0:
290,307,122190,5,8,0:3:0:0:
290,307,122359,1,8,0:3:0:0:
381,255,122529,2,0,L|387:98,1,150,8|10,0:2|0:3,0:0:0:0:
298,47,123037,5,10,0:2:0:0:
298,47,123207,1,2,0:2:0:0:
241,135,123376,2,0,B|158:149|158:149|124:136|107:107,1,150,12|8,0:3|0:2,0:0:0:0:
194,8,123885,2,0,B|225:19|242:51|242:51|241:135,1,150,10|0,0:3|0:0,0:0:0:0:
193,228,124393,5,10,0:2:0:0:
276,291,124563,2,0,P|333:264|434:267,1,150,2|10,0:2|0:3,0:0:0:0:
494,189,125071,6,0,L|501:106,1,75,6|8,0:2|0:2,0:0:0:0:
289,114,125580,2,0,L|282:31,1,75,6|8,0:2|0:2,0:0:0:0:
163,212,126088,6,0,P|119:164|26:172,1,150,14|8,0:3|0:2,0:0:0:0:
60,297,126597,2,0,P|123:282|163:198,1,150,10|0,0:3|0:0,0:0:0:0:
39,164,127105,2,0,P|21:230|68:302,1,150,10|0,0:2|0:0,0:0:0:0:
60,297,127613,1,8,0:3:0:0:
163,211,127783,6,0,L|260:203,1,75,14|10,0:3|0:2,0:0:0:0:
329,257,128122,2,0,L|426:249,1,75,2|10,0:2|0:3,0:0:0:0:
496,301,128461,1,14,0:2:0:0:
496,301,128800,6,0,B|466:284|466:284|430:241|470:168,1,150,10|8,0:3|0:2,0:0:0:0:
436,49,129309,2,0,B|466:66|466:66|502:109|462:182,1,150,10|0,0:3|0:0,0:0:0:0:
360,170,129817,2,0,L|250:155,1,75,8|0,0:2|0:0,0:0:0:0:
186,194,130156,5,8,2:3:0:0:
97,139,130326,1,10,2:3:0:0:
97,139,130410,1,10,2:3:0:0:
97,139,130495,2,0,L|83:50,1,75,10|8,2:2|2:0,0:0:0:0:
189,80,130834,2,0,L|203:-9,1,75,8|8,2:3|2:3,0:0:0:0:
307,56,131173,6,0,B|318:54|335:49|335:49|338:51|338:51|357:47|357:47|361:49|361:49|383:43|418:45,1,90,10|0,0:2|0:0,0:0:0:0:
424,58,131512,5,14,0:3:0:0:
256,192,131597,12,0,134732,0:0:0:0:
