osu file format v14

[General]
AudioFilename: audio.mp3
AudioLeadIn: 0
PreviewTime: 44054
Countdown: 0
SampleSet: Soft
StackLeniency: 0.7
Mode: 0
LetterboxInBreaks: 0
WidescreenStoryboard: 1

[Editor]
Bookmarks: 1343,12216,23063,42385,54250,55606,66453,77301,88148,97105,120665,131538,134732
DistanceSpacing: 0.8
BeatDivisor: 4
GridSize: 8
TimelineZoom: 1.9

[Metadata]
Title:Pulsation
TitleUnicode:Pulsation
Artist:syrela
ArtistUnicode:syrela
Creator:Lasse
Version:Expert
Source:BMS
Tags:bofu2017 drumstep genkai records
BeatmapID:1433497
BeatmapSetID:677886

[Difficulty]
HPDrainRate:7
CircleSize:4
OverallDifficulty:8.2
ApproachRate:9.2
SliderMultiplier:2
SliderTickRate:1

[Events]
//Background and Video events
0,0,"bg.jpg",0,0
//Break Periods
2,68800,76196
//Storyboard Layer 0 (Background)
//Storyboard Layer 1 (Fail)
//Storyboard Layer 2 (Pass)
//Storyboard Layer 3 (Foreground)
//Storyboard Sound Samples

[TimingPoints]
1343,338.983050847458,4,2,23,30,1,0
1343,-200,4,2,23,30,0,0
2868,-200,4,2,23,36,0,0
4224,-181.818181818182,4,2,23,38,0,0
5580,-166.666666666667,4,2,23,42,0,0
6936,-153.846153846154,4,2,23,44,0,0
8292,-142.857142857143,4,2,23,46,0,0
9648,-133.333333333333,4,2,23,48,0,0
11004,-125,4,2,23,50,0,0
12190,-111.111111111111,4,2,1,60,0,0
14902,-100,4,2,1,62,0,0
17614,-90.9090909090909,4,2,1,64,0,0
17783,-90.9090909090909,4,2,1,32,0,0
17953,-90.9090909090909,4,2,1,64,0,0
18122,-90.9090909090909,4,2,1,32,0,0
18292,-90.9090909090909,4,2,1,64,0,0
18461,-90.9090909090909,4,2,1,32,0,0
18631,-83.3333333333333,4,2,1,66,0,0
18800,-83.3333333333333,4,2,1,33,0,0
18970,-83.3333333333333,4,2,1,66,0,0
19139,-83.3333333333333,4,2,1,33,0,0
19309,-83.3333333333333,4,2,1,66,0,0
19478,-83.3333333333333,4,2,1,33,0,0
19648,-76.9230769230769,4,2,1,68,0,0
19817,-76.9230769230769,4,2,1,34,0,0
19987,-76.9230769230769,4,2,1,68,0,0
20156,-76.9230769230769,4,2,1,34,0,0
20326,-76.9230769230769,4,2,1,70,0,0
21681,-1000,4,2,1,50,0,0
21703,-1000,4,2,20,20,0,0
22698,-1000,4,2,23,70,0,0
23037,-66.6666666666667,4,1,1,80,0,0
23546,-100,4,1,1,74,0,0
23800,-100,4,2,99,5,0,0
23885,-100,4,1,1,74,0,0
23970,-100,4,2,99,5,0,0
24054,-100,4,1,1,74,0,0
24139,-100,4,2,99,5,0,0
24224,-100,4,1,1,74,0,0
24309,-100,4,2,99,5,0,0
24393,-83.3333333333333,4,1,1,76,0,0
24478,-83.3333333333333,4,2,99,5,0,0
24563,-83.3333333333333,4,1,1,76,0,0
25156,-83.3333333333333,4,2,99,5,0,0
25241,-83.3333333333333,4,1,1,76,0,0
25410,-55.5555555555556,4,1,1,80,0,0
25665,-55.5555555555556,4,2,99,5,0,0
25749,-83.3333333333333,4,1,1,80,0,0
26004,-83.3333333333333,4,2,99,5,0,0
26088,-83.3333333333333,4,1,1,80,0,0
26258,-100,4,1,1,74,0,0
26512,-100,4,2,99,5,0,0
26597,-100,4,1,1,74,0,0
26681,-100,4,2,99,5,0,0
26766,-100,4,1,1,74,0,0
26851,-100,4,2,99,5,0,0
26936,-100,4,1,1,74,0,0
27020,-100,4,2,99,5,0,0
27105,-125,4,1,1,70,0,0
27275,-125,4,1,1,60,0,0
27444,-76.9230769230769,4,1,1,76,0,0
27529,-76.9230769230769,4,2,99,5,0,0
27614,-66.6666666666667,4,1,1,78,0,0
27868,-66.6666666666667,4,2,99,5,0,0
27953,-76.9230769230769,4,1,1,76,0,0
28037,-76.9230769230769,4,2,99,5,0,0
28122,-66.6666666666667,4,1,1,80,0,0
28376,-66.6666666666667,4,2,99,5,0,0
28461,-76.9230769230769,4,1,1,80,0,0
28970,-100,4,1,1,74,0,0
29224,-100,4,2,99,5,0,0
29309,-100,4,1,1,74,0,0
29393,-100,4,2,99,5,0,0
29478,-100,4,1,1,74,0,0
29563,-100,4,2,99,5,0,0
29648,-100,4,1,1,74,0,0
29732,-100,4,2,99,5,0,0
29817,-83.3333333333333,4,1,1,74,0,0
29902,-83.3333333333333,4,2,99,5,0,0
29987,-83.3333333333333,4,1,1,74,0,0
30071,-83.3333333333333,4,2,99,5,0,0
30156,-66.6666666666667,4,1,1,80,0,0
30241,-66.6666666666667,4,2,99,5,0,0
30326,-62.5,4,1,1,80,0,0
30495,-62.5,4,1,1,40,0,0
30665,-66.6666666666667,4,1,1,80,0,0
30749,-66.6666666666667,4,2,99,5,0,0
30834,-55.5555555555556,4,1,1,80,0,0
31004,-62.5,4,1,1,40,0,0
31088,-55.5555555555556,4,2,99,5,0,0
31173,-83.3333333333333,4,1,1,76,0,0
31427,-83.3333333333333,4,2,99,5,0,0
31512,-83.3333333333333,4,1,1,76,0,0
31681,-100,4,1,1,74,0,0
31936,-100,4,2,99,5,0,0
32020,-100,4,1,1,74,0,0
32105,-100,4,2,99,5,0,0
32190,-100,4,1,1,74,0,0
32275,-100,4,2,99,5,0,0
32359,-100,4,1,1,74,0,0
32444,-100,4,2,99,5,0,0
32529,-142.857142857143,4,2,1,50,0,0
32698,-142.857142857143,4,2,1,30,0,0
32868,-111.111111111111,4,2,1,60,0,0
33037,-111.111111111111,4,2,1,30,0,0
33207,-111.111111111111,4,2,1,70,0,0
33885,-66.6666666666667,4,1,1,80,0,0
34393,-100,4,1,1,74,0,0
34648,-100,4,2,99,5,0,0
34732,-100,4,1,1,74,0,0
34817,-100,4,2,99,5,0,0
34902,-100,4,1,1,74,0,0
34987,-100,4,2,99,5,0,0
35071,-100,4,1,1,74,0,0
35156,-100,4,2,99,5,0,0
35241,-83.3333333333333,4,1,1,78,0,0
35495,-83.3333333333333,4,2,99,5,0,0
35580,-83.3333333333333,4,1,1,76,0,0
35749,-71.4285714285714,4,1,1,76,0,0
36088,-71.4285714285714,4,1,1,60,0,0
36258,-55.5555555555556,4,1,1,80,0,0
36512,-55.5555555555556,4,2,99,5,0,0
36597,-83.3333333333333,4,1,1,80,0,0
36851,-83.3333333333333,4,2,99,5,0,0
36936,-83.3333333333333,4,1,1,80,0,0
37105,-100,4,1,1,74,0,0
37359,-100,4,2,99,5,0,0
37444,-100,4,1,1,74,0,0
37529,-100,4,2,99,5,0,0
37614,-100,4,1,1,74,0,0
37698,-100,4,2,99,5,0,0
37783,-100,4,1,1,74,0,0
37868,-100,4,2,99,5,0,0
37953,-125,4,1,1,66,0,0
38122,-125,4,1,1,60,0,0
38292,-76.9230769230769,4,1,1,74,0,0
38376,-76.9230769230769,4,2,99,5,0,0
38461,-66.6666666666667,4,1,1,78,0,0
38715,-66.6666666666667,4,2,99,5,0,0
38800,-71.4285714285714,4,1,1,74,0,0
38885,-71.4285714285714,4,2,99,5,0,0
38970,-71.4285714285714,4,1,1,74,0,0
39054,-71.4285714285714,4,2,99,5,0,0
39139,-71.4285714285714,4,1,1,74,0,0
39224,-71.4285714285714,4,2,99,5,0,0
39309,-71.4285714285714,4,1,1,78,0,0
39563,-71.4285714285714,4,2,99,5,0,0
39648,-71.4285714285714,4,1,1,78,0,0
39817,-100,4,1,1,74,0,0
40071,-100,4,2,99,5,0,0
40156,-100,4,1,1,74,0,0
40241,-100,4,2,99,5,0,0
40326,-100,4,1,1,74,0,0
40410,-100,4,2,99,5,0,0
40495,-100,4,1,1,74,0,0
40580,-100,4,2,99,5,0,0
40665,-125,4,1,1,72,0,0
40834,-125,4,1,1,60,0,0
41004,-76.9230769230769,4,1,1,74,0,0
41088,-76.9230769230769,4,2,99,5,0,0
41173,-66.6666666666667,4,1,1,76,0,0
41427,-66.6666666666667,4,2,99,5,0,0
41512,-71.4285714285714,4,1,1,74,0,0
41597,-71.4285714285714,4,2,99,5,0,0
41681,-58.8235294117647,4,1,1,78,0,0
41936,-58.8235294117647,4,2,99,5,0,0
42020,-83.3333333333333,4,1,1,80,0,0
42275,-83.3333333333333,4,2,99,5,0,0
42359,-83.3333333333333,4,1,1,80,0,0
42529,-100,4,1,1,74,0,0
42783,-100,4,2,99,5,0,0
42868,-100,4,1,1,74,0,0
42953,-100,4,2,99,5,0,0
43037,-100,4,1,1,74,0,0
43122,-100,4,2,99,5,0,0
43207,-100,4,1,1,74,0,0
43292,-100,4,2,99,5,0,0
43376,-142.857142857143,4,2,1,60,0,0
43546,-142.857142857143,4,2,1,40,0,0
43715,-111.111111111111,4,2,1,68,0,0
43885,-111.111111111111,4,2,23,64,0,0
44224,-111.111111111111,4,2,1,60,0,0
44309,-111.111111111111,4,2,23,62,0,0
44393,-111.111111111111,4,2,23,64,0,0
44478,-111.111111111111,4,2,23,66,0,0
44563,-111.111111111111,4,2,23,68,0,0
44648,-111.111111111111,4,2,23,70,0,0
44732,-100,4,1,34,90,0,1
44754,-100,4,1,1,80,0,1
44987,-100,4,2,99,5,0,1
45071,-100,4,1,1,80,0,1
46851,-100,4,2,99,5,0,1
46936,-100,4,1,1,80,0,1
47698,-100,4,2,99,5,0,1
47783,-100,4,1,1,80,0,1
48885,-100,4,2,99,5,0,1
48970,-100,4,1,1,80,0,1
50410,-100,4,2,99,5,0,1
50495,-100,4,1,1,80,0,1
52529,-142.857142857143,4,1,1,80,0,1
52783,-142.857142857143,4,2,99,5,0,1
52868,-100,4,1,1,80,0,1
53122,-100,4,2,99,5,0,1
53207,-100,4,1,1,80,0,1
54224,-100,4,1,1,50,0,1
54393,-100,4,2,1,60,0,0
54563,-100,4,2,1,70,0,0
54732,-100,4,2,1,60,0,0
54902,-100,4,2,23,64,0,0
55071,-100,4,2,23,66,0,0
55156,-100,4,2,23,68,0,0
55241,-100,4,2,23,70,0,0
55410,-100,4,2,23,72,0,0
55580,-100,4,1,34,80,0,1
55749,-100,4,1,1,80,0,1
55919,-83.3333333333333,4,1,1,80,0,1
56088,-100,4,1,1,70,0,1
56173,-100,4,1,1,74,0,1
56343,-100,4,2,99,5,0,1
56427,-100,4,1,1,74,0,1
56512,-100,4,2,99,5,0,1
56597,-100,4,1,1,74,0,1
56681,-100,4,2,99,5,0,1
56766,-100,4,1,1,74,0,1
56851,-100,4,2,99,5,0,1
56936,-83.3333333333333,4,1,1,76,0,1
57190,-83.3333333333333,4,2,99,5,0,1
57275,-83.3333333333333,4,1,1,76,0,1
57444,-71.4285714285714,4,1,1,78,0,1
57698,-71.4285714285714,4,2,99,5,0,1
57783,-71.4285714285714,4,1,1,80,0,1
57953,-62.5,4,1,1,80,0,1
58122,-62.5,4,1,1,70,0,1
58292,-100,4,1,1,80,0,1
58546,-100,4,2,99,5,0,1
58631,-100,4,1,1,80,0,1
58800,-100,4,1,1,70,0,1
58885,-100,4,1,1,74,0,1
59054,-100,4,2,99,5,0,1
59139,-100,4,1,1,74,0,1
59224,-100,4,2,99,5,0,1
59309,-100,4,1,1,74,0,1
59393,-100,4,2,99,5,0,1
59478,-100,4,1,1,74,0,1
59563,-100,4,2,99,5,0,1
59648,-100,4,1,1,74,0,1
59817,-100,4,1,1,70,0,1
59987,-100,4,1,1,78,0,1
60156,-100,4,1,1,70,0,1
60326,-100,4,1,1,72,0,1
61004,-100,4,1,1,74,0,1
61427,-100,4,2,99,5,0,1
61512,-100,4,1,1,74,0,1
61597,-100,4,2,99,5,0,1
61681,-100,4,1,1,74,0,1
61766,-100,4,2,99,5,0,1
61851,-100,4,1,1,74,0,1
61936,-100,4,2,99,5,0,1
62020,-83.3333333333333,4,1,1,76,0,1
62275,-83.3333333333333,4,2,99,5,0,1
62359,-83.3333333333333,4,1,1,70,0,1
62529,-83.3333333333333,4,1,1,60,0,1
62698,-100,4,1,1,74,0,1
62953,-100,4,2,99,5,0,1
63037,-100,4,1,1,74,0,1
63122,-100,4,2,99,5,0,1
63207,-100,4,1,1,74,0,1
63292,-100,4,2,99,5,0,1
63376,-83.3333333333333,4,1,1,78,0,1
63631,-83.3333333333333,4,2,99,5,0,1
63715,-100,4,1,1,80,0,1
64902,-100,4,1,1,78,0,1
65749,-100,4,2,23,60,0,1
66088,-100,4,2,23,58,0,1
66173,-100,4,2,23,56,0,1
66258,-100,4,2,23,54,0,1
66343,-100,4,2,23,52,0,1
66427,-100,4,1,34,40,0,0
76766,-100,4,1,23,60,0,0
77275,-200,4,2,23,40,0,0
84393,-200,4,2,23,42,0,0
85410,-166.666666666667,4,2,23,44,0,0
85749,-166.666666666667,4,2,23,46,0,0
85919,-166.666666666667,4,2,23,44,0,0
86088,-166.666666666667,4,2,23,42,0,0
86766,-166.666666666667,4,2,23,44,0,0
86851,-166.666666666667,4,2,23,45,0,0
86936,-166.666666666667,4,2,23,46,0,0
87105,-166.666666666667,4,2,2,50,0,0
87275,-166.666666666667,4,2,23,46,0,0
87359,-166.666666666667,4,2,23,47,0,0
87444,-166.666666666667,4,2,23,48,0,0
87614,-166.666666666667,4,2,1,50,0,0
87783,-166.666666666667,4,2,1,52,0,0
88122,-142.857142857143,4,2,1,50,0,0
91851,-125,4,2,1,52,0,0
92529,-125,4,2,1,54,0,0
93546,-125,4,2,1,56,0,0
94563,-111.111111111111,4,2,1,64,0,0
94676,-111.111111111111,4,2,1,60,0,0
94902,-111.111111111111,4,2,1,62,0,0
95241,-111.111111111111,4,2,1,64,0,0
95580,-111.111111111111,4,2,1,66,0,0
95749,-111.111111111111,4,2,1,68,0,0
95919,-111.111111111111,4,2,1,70,0,0
96088,-111.111111111111,4,2,1,72,0,0
96258,-100,4,2,1,74,0,0
96300,-100,4,2,1,40,0,0
96597,-83.3333333333333,4,2,1,76,0,0
96639,-83.3333333333333,4,2,1,42,0,0
96936,-71.4285714285714,4,2,1,76,0,0
96978,-71.4285714285714,4,2,1,44,0,0
97105,-71.4285714285714,4,2,1,76,0,0
97148,-71.4285714285714,4,2,1,44,0,0
97275,-50,4,2,1,70,0,0
97296,-50,4,2,1,46,0,0
97614,-1000,4,1,23,70,0,0
97953,-1000,4,1,2,70,0,0
98122,-1000,4,2,1,70,0,0
98207,-1000,4,2,23,70,0,0
98461,-1000,4,2,1,70,0,0
98970,-66.6666666666667,4,1,1,80,0,0
99478,-100,4,1,1,74,0,0
99732,-100,4,2,99,5,0,0
99817,-100,4,1,1,74,0,0
99902,-100,4,2,99,5,0,0
99987,-100,4,1,1,74,0,0
100071,-100,4,2,99,5,0,0
100156,-100,4,1,1,74,0,0
100241,-100,4,2,99,5,0,0
100326,-83.3333333333333,4,1,1,76,0,0
100410,-83.3333333333333,4,2,99,5,0,0
100495,-83.3333333333333,4,1,1,76,0,0
101088,-83.3333333333333,4,2,99,5,0,0
101173,-83.3333333333333,4,1,1,76,0,0
101343,-55.5555555555556,4,1,1,80,0,0
101597,-55.5555555555556,4,2,99,5,0,0
101681,-83.3333333333333,4,1,1,80,0,0
101936,-83.3333333333333,4,2,99,5,0,0
102020,-83.3333333333333,4,1,1,80,0,0
102190,-100,4,1,1,74,0,0
102444,-100,4,2,99,5,0,0
102529,-100,4,1,1,74,0,0
102614,-100,4,2,99,5,0,0
102698,-100,4,1,1,74,0,0
102783,-100,4,2,99,5,0,0
102868,-100,4,1,1,74,0,0
102953,-100,4,2,99,5,0,0
103037,-125,4,1,1,70,0,0
103207,-125,4,1,1,60,0,0
103376,-76.9230769230769,4,1,1,76,0,0
103461,-76.9230769230769,4,2,99,5,0,0
103546,-66.6666666666667,4,1,1,78,0,0
103800,-66.6666666666667,4,2,99,5,0,0
103885,-76.9230769230769,4,1,1,76,0,0
103970,-76.9230769230769,4,2,99,5,0,0
104054,-66.6666666666667,4,1,1,80,0,0
104309,-66.6666666666667,4,2,99,5,0,0
104393,-76.9230769230769,4,1,1,80,0,0
104902,-100,4,1,1,74,0,0
105156,-100,4,2,99,5,0,0
105241,-100,4,1,1,74,0,0
105326,-100,4,2,99,5,0,0
105410,-100,4,1,1,74,0,0
105495,-100,4,2,99,5,0,0
105580,-100,4,1,1,74,0,0
105665,-100,4,2,99,5,0,0
105749,-83.3333333333333,4,1,1,74,0,0
105834,-83.3333333333333,4,2,99,5,0,0
105919,-83.3333333333333,4,1,1,74,0,0
106004,-83.3333333333333,4,2,99,5,0,0
106088,-66.6666666666667,4,1,1,80,0,0
106173,-66.6666666666667,4,2,99,5,0,0
106258,-62.5,4,1,1,80,0,0
106427,-62.5,4,1,1,60,0,0
106597,-66.6666666666667,4,1,1,80,0,0
106681,-66.6666666666667,4,2,99,5,0,0
106766,-55.5555555555556,4,1,1,80,0,0
107020,-55.5555555555556,4,2,99,5,0,0
107105,-83.3333333333333,4,1,1,76,0,0
107359,-83.3333333333333,4,2,99,5,0,0
107444,-83.3333333333333,4,1,1,76,0,0
107614,-100,4,1,1,74,0,0
107868,-100,4,2,99,5,0,0
107953,-100,4,1,1,74,0,0
108037,-100,4,2,99,5,0,0
108122,-100,4,1,1,74,0,0
108207,-100,4,2,99,5,0,0
108292,-100,4,1,1,74,0,0
108376,-100,4,2,99,5,0,0
108461,-142.857142857143,4,2,1,50,0,0
108631,-142.857142857143,4,2,1,30,0,0
108800,-111.111111111111,4,2,1,60,0,0
108970,-111.111111111111,4,2,1,30,0,0
109139,-111.111111111111,4,2,1,70,0,0
109817,-66.6666666666667,4,1,1,80,0,0
110156,-83.3333333333333,4,1,1,80,0,0
110495,-100,4,1,1,74,0,0
110580,-100,4,2,99,5,0,0
110665,-100,4,1,1,74,0,0
110749,-100,4,2,99,5,0,0
110834,-100,4,1,1,74,0,0
110919,-100,4,2,99,5,0,0
111004,-100,4,1,1,74,0,0
111088,-100,4,2,99,5,0,0
111173,-83.3333333333333,4,2,2,70,0,0
111512,-83.3333333333333,4,2,1,70,0,0
111597,-83.3333333333333,4,2,99,5,0,0
111681,-100,4,1,1,72,0,0
111936,-100,4,2,99,5,0,0
112020,-100,4,2,1,72,0,0
112105,-100,4,2,99,5,0,0
112190,-55.5555555555556,4,2,1,80,0,0
112529,-83.3333333333333,4,1,1,80,0,0
112868,-142.857142857143,4,2,23,60,0,0
113207,-142.857142857143,4,2,23,40,0,0
113376,-142.857142857143,4,2,23,60,0,0
113546,-111.111111111111,4,1,1,70,0,0
113631,-111.111111111111,4,2,99,5,0,0
113715,-111.111111111111,4,1,1,70,0,0
113800,-111.111111111111,4,2,99,5,0,0
113885,-100,4,1,1,72,0,0
113970,-100,4,2,99,5,0,0
114054,-100,4,1,1,72,0,0
114139,-100,4,2,99,5,0,0
114224,-55.5555555555556,4,2,1,80,0,0
114245,-55.5555555555556,4,2,20,60,0,0
114648,-55.5555555555556,4,2,99,5,0,0
114732,-71.4285714285714,4,2,1,74,0,0
114817,-71.4285714285714,4,2,99,5,0,0
114902,-71.4285714285714,4,2,1,74,0,0
114987,-71.4285714285714,4,2,99,5,0,0
115071,-71.4285714285714,4,2,1,74,0,0
115156,-71.4285714285714,4,2,99,5,0,0
115241,-71.4285714285714,4,2,1,74,0,0
115410,-100,4,1,1,68,0,0
115495,-100,4,2,99,5,0,0
115580,-100,4,1,1,68,0,0
115665,-100,4,2,99,5,0,0
115749,-100,4,1,1,68,0,0
115834,-100,4,2,99,5,0,0
115919,-62.5,4,1,1,80,0,0
116004,-62.5,4,2,99,5,0,0
116088,-62.5,4,1,1,80,0,0
116173,-62.5,4,2,99,5,0,0
116258,-62.5,4,1,1,80,0,0
116343,-62.5,4,2,99,5,0,0
116427,-62.5,4,1,1,80,0,0
116512,-62.5,4,2,99,5,0,0
116597,-83.3333333333333,4,2,2,70,0,0
116936,-71.4285714285714,4,2,1,70,0,0
117020,-71.4285714285714,4,2,99,5,0,0
117105,-66.6666666666667,4,1,1,70,0,0
117359,-66.6666666666667,4,2,99,5,0,0
117444,-71.4285714285714,4,2,1,70,0,0
117529,-71.4285714285714,4,2,99,5,0,0
117614,-58.8235294117647,4,2,1,74,0,0
117868,-58.8235294117647,4,2,99,5,0,0
117953,-83.3333333333333,4,2,1,70,0,0
118122,-83.3333333333333,4,2,1,60,0,0
118292,-125,4,2,1,66,0,0
118461,-100,4,2,1,66,0,0
118631,-100,4,2,1,54,0,0
118800,-83.3333333333333,4,2,1,70,0,0
118885,-83.3333333333333,4,2,99,5,0,0
118970,-71.4285714285714,4,1,1,76,0,0
119224,-71.4285714285714,4,2,99,5,0,0
119309,-142.857142857143,4,2,1,60,0,0
119478,-142.857142857143,4,2,1,40,0,0
119648,-111.111111111111,4,2,1,66,0,0
119817,-111.111111111111,4,2,1,40,0,0
119987,-111.111111111111,4,2,1,62,0,0
120156,-111.111111111111,4,2,1,60,0,0
120241,-111.111111111111,4,2,1,62,0,0
120326,-111.111111111111,4,2,1,64,0,0
120410,-111.111111111111,4,2,1,66,0,0
120495,-111.111111111111,4,2,1,68,0,0
120580,-111.111111111111,4,2,1,70,0,0
120665,-100,4,1,34,90,0,1
120686,-100,4,1,1,80,0,1
120919,-100,4,2,99,5,0,1
121004,-100,4,1,1,80,0,1
122783,-100,4,2,99,5,0,1
122868,-100,4,1,1,80,0,1
123631,-100,4,2,99,5,0,1
123715,-100,4,1,1,80,0,1
124817,-100,4,2,99,5,0,1
124902,-100,4,1,1,80,0,1
126343,-100,4,2,99,5,0,1
126427,-100,4,1,1,80,0,1
128461,-142.857142857143,4,1,1,80,0,1
128715,-142.857142857143,4,2,99,5,0,1
128800,-100,4,1,1,80,0,1
129054,-100,4,2,99,5,0,1
129139,-100,4,1,1,80,0,1
130156,-100,4,2,1,74,0,1
130326,-100,4,2,2,68,0,1
130665,-100,4,2,23,66,0,1
130749,-100,4,2,2,66,0,1
131004,-100,4,2,1,70,0,1
131173,-50,4,2,23,74,0,1
131427,-50,4,2,99,5,0,1
131512,-1000,4,2,34,20,0,0
131533,-1000,4,2,20,10,0,0
134732,-1000,4,2,99,5,0,0

[Colours]
Combo1 : 250,190,230
Combo2 : 130,200,230
Combo3 : 255,230,140
Combo4 : 170,245,170

[HitObjects]
129,127,1343,6,0,B|104:175|121:222|121:222|139:273|108:318,1,200,14|0,0:3|0:0,0:0:0:0:
109,319,2190,2,0,L|116:160,1,150,10|8,0:3|0:3,0:0:0:0:
165,105,2868,6,0,P|207:88|278:94,1,100,2|8,0:0|0:0,0:0:0:0:
410,148,3546,1,10,0:3:0:0:
410,148,3715,2,0,L|416:32,1,100,10|8,0:0|0:3,0:0:0:0:
427,155,4224,6,0,L|433:39,1,110.000003356934,2|8,0:0|0:0,0:0:0:0:
265,92,4902,1,10,0:3:0:0:
265,92,5071,2,0,P|218:74|153:77,1,110.000003356934,10|8,0:0|0:3,0:0:0:0:
273,76,5580,6,0,P|223:57|155:60,1,119.999996337891,2|8,0:0|0:0,0:0:0:0:
37,159,6258,1,10,0:3:0:0:
37,159,6427,2,0,L|35:21,1,119.999996337891,10|8,0:0|0:3,0:0:0:0:
21,167,6936,6,0,L|19:29,1,129.999994049073,2|8,0:0|0:0,0:0:0:0:
151,185,7614,1,10,0:3:0:0:
151,185,7783,2,0,P|207:164|280:171,1,129.999994049073,10|8,0:0|0:3,0:0:0:0:
148,170,8292,6,0,P|208:148|286:157,1,139.999995727539,2|8,0:0|0:0,0:0:0:0:
430,290,8970,1,10,0:3:0:0:
430,290,9139,2,0,L|438:144,1,139.999995727539,10|8,0:0|0:3,0:0:0:0:
445,298,9648,6,0,L|453:140,1,150.000005722046,2|8,0:0|0:0,0:0:0:0:
330,271,10326,1,10,0:3:0:0:
330,271,10495,2,0,P|258:246|183:255,1,150.000005722046,10|0,0:0|0:3,0:0:0:0:
184,240,11004,6,0,P|263:231|338:257,1,160,2|8,0:0|0:0,0:0:0:0:
461,334,11681,2,0,L|464:294,2,40,10|8|8,0:3|0:3|0:0,0:0:0:0:
461,334,12190,6,0,B|399:326|399:326|348:344|348:344|284:337,1,179.999994506836,12|8,0:3|0:0,0:0:0:0:
281,161,12698,2,0,B|274:225|274:225|292:276|292:276|284:339,1,179.999994506836,2|8,0:0|0:3,0:0:0:0:
173,351,13207,2,0,L|81:344,1,89.9999972534181,8|0,0:0|0:0,0:0:0:0:
0,172,13546,6,0,B|64:165|64:165|115:183|115:183|176:175,1,179.999994506836,8|8,0:3|0:0,0:0:0:0:
173,351,14054,2,0,B|165:289|165:289|183:238|183:238|176:174,1,179.999994506836,2|8,0:0|0:3,0:0:0:0:
276,96,14563,2,0,L|283:4,1,89.9999972534181,8|0,0:0|0:0,0:0:0:0:
478,206,14902,6,0,B|481:171|481:171|471:142|471:142|475:108,1,100,14|0,0:3|0:0,0:0:0:0:
475,304,15241,1,10,0:0:0:0:
475,304,15410,2,0,B|472:269|472:269|482:240|482:240|478:206,1,100,2|0,0:0|0:0,0:0:0:0:
474,108,15749,1,10,0:3:0:0:
478,206,15919,2,0,B|481:171|481:171|471:142|471:142|475:108,1,100,10|0,0:0|0:0,0:0:0:0:
342,258,16258,6,0,B|339:223|339:223|349:194|349:194|345:160,1,100,10|0,0:3|0:0,0:0:0:0:
345,356,16597,1,10,0:0:0:0:
345,356,16766,2,0,B|348:321|348:321|338:292|338:292|342:258,1,100,2|0,0:0|0:0,0:0:0:0:
345,160,17105,1,10,0:3:0:0:
342,258,17275,2,0,B|339:223|339:223|349:194|349:194|345:160,1,100,10|0,0:0|0:0,0:0:0:0:
146,176,17614,6,0,L|262:185,1,110.000003356934,10|0,0:3|0:0,0:0:0:0:
77,207,17953,2,0,L|193:216,1,110.000003356934,8|0,0:3|0:0,0:0:0:0:
8,238,18292,2,0,L|124:247,1,110.000003356934,8|0,0:3|0:0,0:0:0:0:
330,334,18631,6,0,L|210:324,1,119.999996337891,10|0,0:3|0:0,0:0:0:0:
94,124,18970,6,0,L|213:133,1,119.999996337891,12|0,0:3|0:0,0:0:0:0:
25,155,19309,2,0,L|144:164,1,119.999996337891,8|0,0:3|0:0,0:0:0:0:
436,31,19648,6,0,L|303:20,1,129.999994049073,14|0,0:3|0:0,0:0:0:0:
503,76,19987,2,0,L|370:65,1,129.999994049073,8|0,0:3|0:0,0:0:0:0:
89,79,20326,5,14,0:3:0:0:
80,208,20495,1,8,0:3:0:0:
197,151,20665,5,8,0:3:0:0:
306,21,20834,1,8,0:3:0:0:
206,21,21004,5,8,0:3:0:0:
315,151,21173,1,8,0:3:0:0:
432,208,21343,5,8,0:3:0:0:
423,79,21512,1,8,0:3:0:0:
256,272,21681,6,0,L|256:212,1,60,10|8,0:3|0:0,0:0:0:0:
256,212,23037,5,14,0:3:0:0:
386,163,23207,2,0,B|418:143|418:143|384:119,1,75.0000028610231,2|0,0:2|0:0,0:0:0:0:
278,74,23376,1,8,0:2:0:0:
138,133,23546,5,10,2:3:0:0:
138,133,23631,1,2,2:2:0:0:
138,133,23715,2,0,P|161:131|184:109,1,50,2|0,2:2|2:0,0:0:0:0:
171,170,23885,2,0,P|185:152|186:120,1,50,2|0,2:2|2:0,0:0:0:0:
65,269,24054,6,0,P|67:246|89:223,1,50,10|0,2:2|2:0,0:0:0:0:
28,236,24224,2,0,P|45:222|77:221,1,50,2|0,2:2|2:0,0:0:0:0:
232,284,24393,6,0,L|150:276,1,59.9999981689454,2|0,0:2|0:0,0:0:0:0:
304,346,24563,2,0,P|326:303|311:234,1,119.999996337891,10|8,0:3|0:3,0:0:0:0:
304,346,24902,6,0,P|366:293|293:238,1,179.999994506836,10|0,0:2|0:0,0:0:0:0:
311,235,25241,1,0,0:0:0:0:
304,346,25410,6,0,B|340:359|382:328|382:328|413:222|351:150,1,269.999991760254,14|0,0:2|0:0,0:0:0:0:
251,149,25749,6,0,L|71:131,1,179.999994506836,14|0,0:3|0:0,0:0:0:0:
48,127,26088,1,8,0:2:0:0:
214,64,26258,5,10,2:3:0:0:
214,64,26343,1,2,2:2:0:0:
214,64,26427,2,0,P|228:39|226:10,1,50,2|0,2:2|2:0,0:0:0:0:
261,67,26597,2,0,P|261:38|244:14,1,50,2|0,2:2|2:0,0:0:0:0:
265,194,26766,6,0,P|251:169|253:140,1,50,10|0,2:2|2:0,0:0:0:0:
218,197,26936,2,0,P|218:168|235:144,1,50,2|0,2:2|2:0,0:0:0:0:
415,160,27105,6,0,B|373:167|373:167|337:154,1,80,2|8,0:3|0:3,0:0:0:0:
362,310,27444,6,0,L|367:245,1,64.9999970245363,14|0,0:3|0:0,0:0:0:0:
338,155,27614,2,0,P|430:138|371:65,1,225.000008583069,10|0,0:2|0:0,0:0:0:0:
270,108,27953,6,0,L|264:29,1,64.9999970245363,14|0,0:3|0:0,0:0:0:0:
338,155,28122,2,0,P|431:160|401:20,1,225.000008583069,10|0,0:2|0:0,0:0:0:0:
393,0,28461,5,14,0:3:0:0:
270,108,28631,2,0,L|265:37,1,64.9999970245363,2|0,0:2|0:0,0:0:0:0:
168,12,28800,1,8,0:2:0:0:
80,160,28970,5,10,2:3:0:0:
80,160,29054,1,2,2:2:0:0:
79,160,29139,2,0,P|106:157|140:133,1,50,2|0,2:2|2:0,0:0:0:0:
126,145,29309,2,0,P|135:123|136:98,1,50,2|0,2:2|2:0,0:0:0:0:
28,242,29478,6,0,P|55:245|89:269,1,50,10|0,2:2|2:0,0:0:0:0:
75,256,29648,2,0,P|84:278|85:303,1,50,2|0,2:2|2:0,0:0:0:0:
267,238,29817,6,0,L|205:231,1,59.9999981689454,2|0,0:2|0:0,0:0:0:0:
147,224,29987,2,0,L|207:231,1,59.9999981689454,10|0,0:3|0:0,0:0:0:0:
339,279,30156,6,0,P|347:243|342:206,1,75.0000028610231,14|0,0:3|0:0,0:0:0:0:
387,93,30326,2,0,P|324:132|341:205,1,160,10|0,0:2|0:0,0:0:0:0:
512,172,30665,6,0,P|472:173|432:155,1,75.0000028610231,10|0,0:3|0:0,0:0:0:0:
387,93,30834,2,0,B|336:79|302:118|302:118|272:221|340:280,1,269.999991760254,14|0,0:2|0:0,0:0:0:0:
417,345,31173,6,0,B|353:308|304:346|304:346|271:346|239:321,1,179.999994506836,10|0,0:3|0:0,0:0:0:0:
234,309,31512,1,8,0:2:0:0:
104,220,31681,5,10,2:3:0:0:
104,220,31766,1,2,2:2:0:0:
104,219,31851,2,0,P|128:222|146:239,1,50,2|0,2:2|2:0,0:0:0:0:
146,239,32020,2,0,P|128:256|103:259,1,50,2|0,2:2|2:0,0:0:0:0:
272,219,32190,6,0,P|248:216|230:199,1,50,10|0,2:2|2:0,0:0:0:0:
230,199,32359,2,0,P|248:182|273:179,1,50,2|0,2:2|2:0,0:0:0:0:
158,66,32529,6,0,P|152:100|158:135,1,69.9999978637696,2|2,0:0|0:0,0:0:0:0:
228,370,32868,6,0,P|238:336|215:282,1,89.9999972534181,6|2,0:0|0:0,0:0:0:0:
0,95,33207,5,10,0:0:0:0:
158,135,33376,1,8,0:3:0:0:
158,100,33461,1,8,0:3:0:0:
158,66,33546,1,10,0:0:0:0:
293,135,33715,1,10,0:0:0:0:
432,17,33885,5,14,0:3:0:0:
392,159,34054,2,0,B|398:104|398:104|383:117,1,75.0000028610231,2|0,0:2|0:0,0:0:0:0:
293,135,34224,1,8,0:2:0:0:
362,266,34393,5,2,2:2:0:0:
362,266,34478,1,2,2:2:0:0:
362,266,34563,2,0,P|343:252|311:253,1,50,2|0,2:2|2:0,0:0:0:0:
327,226,34732,2,0,P|304:230|282:253,1,50,10|0,2:3|2:0,0:0:0:0:
162,307,34902,6,0,P|181:321|213:320,1,50,10|0,2:2|2:0,0:0:0:0:
197,347,35071,2,0,P|220:343|242:320,1,50,2|0,2:0|2:0,0:0:0:0:
124,145,35241,6,0,B|155:127|195:142|195:142|230:194|205:254,1,179.999994506836,14|0,0:3|0:0,0:0:0:0:
162,307,35580,1,8,0:2:0:0:
124,144,35749,6,0,P|243:131|208:243,1,279.999991455078,12|0,0:3|0:0,0:0:0:0:
124,144,36258,6,0,B|142:111|187:94|187:94|243:113|255:155|255:155|304:171|342:126,1,269.999991760254,14|0,0:2|0:0,0:0:0:0:
464,108,36597,6,0,B|407:70|351:95|351:95|323:86|315:44,1,179.999994506836,14|0,0:3|0:0,0:0:0:0:
319,25,36936,1,8,0:2:0:0:
145,52,37105,5,2,2:2:0:0:
145,52,37190,1,2,2:2:0:0:
145,52,37275,2,0,P|173:47|199:59,1,50,2|0,2:2|2:0,0:0:0:0:
189,27,37444,2,0,P|216:36|232:61,1,50,10|0,2:3|2:0,0:0:0:0:
108,187,37614,6,0,P|89:164|86:135,1,50,10|0,2:2|2:0,0:0:0:0:
65,162,37783,2,0,P|59:133|72:106,1,50,2|0,2:0|2:0,0:0:0:0:
244,139,37953,6,0,B|216:136|216:136|194:128|194:128|166:133,1,80,2|8,0:2|0:3,0:0:0:0:
180,270,38292,6,0,L|187:204,1,64.9999970245363,14|0,0:3|0:0,0:0:0:0:
244,139,38461,2,0,B|399:129|399:129|369:100|303:114,1,225.000008583069,10|0,0:2|0:0,0:0:0:0:
244,139,38800,6,0,P|269:164|301:178,1,69.9999978637696,6|0,0:3|0:0,0:0:0:0:
389,185,38970,2,0,P|422:175|450:155,1,69.9999978637696,10|0,0:2|0:0,0:0:0:0:
501,82,39139,2,0,P|509:48|505:13,1,69.9999978637696,2|0,0:2|0:0,0:0:0:0:
392,36,39309,6,0,B|328:23|328:23|272:46|272:46|161:33,1,209.999993591309,14|0,0:3|0:0,0:0:0:0:
160,31,39648,1,8,0:2:0:0:
44,73,39817,5,2,2:2:0:0:
44,73,39902,1,2,2:2:0:0:
43,73,39987,2,0,P|70:76|104:100,1,50,2|0,2:2|2:0,0:0:0:0:
90,86,40156,2,0,P|99:108|100:133,1,50,10|0,2:3|2:0,0:0:0:0:
233,162,40326,6,0,P|206:165|172:189,1,50,10|0,2:2|2:0,0:0:0:0:
185,175,40495,2,0,P|176:197|175:222,1,50,2|0,2:0|2:0,0:0:0:0:
264,324,40665,6,0,L|267:232,1,80,10|0,0:3|0:0,0:0:0:0:
434,313,41004,6,0,P|398:305|360:311,1,64.9999970245363,14|0,0:2|0:0,0:0:0:0:
266,244,41173,2,0,P|203:205|280:102,1,225.000008583069,10|0,0:3|0:0,0:0:0:0:
333,140,41512,6,0,P|369:132|407:138,1,69.9999978637696,2|0,0:2|0:0,0:0:0:0:
266,244,41681,2,0,P|186:199|287:107,1,255.000004863739,14|0,0:2|0:0,0:0:0:0:
336,155,42020,6,0,B|385:137|432:159|432:159|486:170|514:131,1,179.999994506836,12|0,0:3|0:0,0:0:0:0:
510,115,42359,1,8,0:2:0:0:
408,278,42529,5,2,2:2:0:0:
408,278,42614,1,2,2:2:0:0:
408,277,42698,2,0,P|402:253|383:237,1,50,2|0,2:2|2:0,0:0:0:0:
367,281,42868,2,0,P|368:256|384:238,1,50,10|0,2:3|2:0,0:0:0:0:
231,297,43037,6,0,P|254:291|278:299,1,50,10|0,2:2|2:0,0:0:0:0:
248,335,43207,2,0,P|269:323|278:299,1,50,2|0,2:0|2:0,0:0:0:0:
74,263,43376,6,0,P|105:278|139:276,1,69.9999978637696,10|2,0:3|0:0,0:0:0:0:
320,92,43715,6,0,P|288:76|229:80,1,89.9999972534181,6|8,0:0|0:0,0:0:0:0:
234,78,44224,5,10,0:3:0:0:
265,81,44309,1,2,0:0:0:0:
297,95,44393,1,10,0:0:0:0:
317,130,44478,1,2,0:0:0:0:
313,174,44563,1,2,0:0:0:0:
279,210,44648,1,2,0:0:0:0:
204,184,44732,6,0,B|166:168|132:184|132:184|95:201|58:180,1,150,14|0,0:3|0:0,0:0:0:0:
32,170,45071,1,8,0:2:0:0:
128,317,45241,2,0,P|198:262|136:174,1,200,10|0,0:3|0:0,0:0:0:0:
45,88,45749,2,0,P|61:178|153:179,1,200,10|0,0:2|0:0,0:0:0:0:
265,53,46258,5,8,0:3:0:0:
174,83,46427,1,8,0:3:0:0:
341,113,46597,2,0,P|410:87|496:114,1,150,8|0,0:2|0:0,0:0:0:0:
508,120,46936,1,10,0:3:0:0:
303,223,47105,5,10,0:2:0:0:
418,201,47275,1,2,0:2:0:0:
413,346,47444,6,0,B|397:309|414:274|414:274|433:238|418:201,1,150,12|0,0:3|0:0,0:0:0:0:
400,177,47783,1,8,0:2:0:0:
260,152,47953,2,0,P|163:158|111:68,1,200,10|0,0:3|0:0,0:0:0:0:
51,224,48461,5,10,0:2:0:0:
170,294,48631,2,0,P|196:218|148:146,1,150,2|0,0:2|0:0,0:0:0:0:
142,143,48970,1,10,0:3:0:0:
0,34,49139,5,6,0:2:0:0:
68,79,49309,2,0,P|117:70|162:50,1,100,8|0,0:2|0:0,0:0:0:0:
332,222,49648,5,6,0:2:0:0:
259,185,49817,2,0,P|242:138|236:88,1,100,8|0,0:2|0:0,0:0:0:0:
473,57,50156,6,0,B|436:65|403:42|403:42|369:17|330:28,1,150,14|0,0:3|0:0,0:0:0:0:
302,37,50495,1,8,0:2:0:0:
380,158,50665,2,0,P|464:132|424:53,1,200,10|0,0:3|0:0,0:0:0:0:
313,223,51173,2,0,P|229:196|268:118,1,200,10|0,0:2|0:0,0:0:0:0:
396,42,51681,1,8,0:3:0:0:
388,246,51851,5,14,0:3:0:0:
297,109,52020,1,10,0:2:0:0:
238,286,52190,5,2,0:2:0:0:
224,182,52359,1,10,0:3:0:0:
103,363,52529,6,0,L|71:258,1,104.999996795654,14|0,0:2|0:0,0:0:0:0:
0,227,52868,6,0,B|38:233|71:212|71:212|104:191|143:203,1,150,10|0,0:3|0:0,0:0:0:0:
160,226,53207,1,8,0:2:0:0:
230,92,53376,2,0,P|146:133|160:226,1,200,10|0,0:3|0:0,0:0:0:0:
240,353,53885,2,0,P|246:259|159:225,1,200,10|0,0:2|0:0,0:0:0:0:
87,321,54393,5,2,0:2:0:0:
240,353,54563,2,0,P|292:337|357:338,1,100,6|0,0:0|0:0,0:0:0:0:
512,384,54902,1,8,0:0:0:0:
392,241,55071,5,14,0:3:0:0:
385,202,55156,1,10,0:3:0:0:
395,163,55241,1,10,0:0:0:0:
460,86,55410,1,10,0:0:0:0:
485,208,55580,6,0,L|385:202,1,100,14|0,0:3|0:0,0:0:0:0:
274,285,55919,2,0,B|277:250|277:250|301:220|291:166,1,119.999996337891,10|0,0:2|2:0,0:0:0:0:
227,124,56173,1,2,2:2:0:0:
199,135,56258,6,0,L|135:123,1,50,2|0,2:0|2:0,0:0:0:0:
129,147,56427,2,0,L|79:137,1,50,10|0,2:3|2:0,0:0:0:0:
4,74,56597,6,0,L|68:62,1,50,10|0,2:2|2:0,0:0:0:0:
66,37,56766,2,0,L|115:27,1,50,2|0,2:0|2:0,0:0:0:0:
264,53,56936,6,0,B|228:38|179:42|192:56|152:95|99:37|157:-17|199:40,1,179.999994506836,14|0,0:3|0:0,0:0:0:0:
182,24,57275,1,8,0:2:0:0:
264,53,57444,6,0,P|163:84|160:202,1,209.999993591309,6|0,0:2|0:0,0:0:0:0:
146,176,57783,1,8,0:3:0:0:
379,194,57953,6,0,P|316:147|238:147,1,160,14|2,0:2|0:2,0:0:0:0:
379,194,58292,6,0,P|332:135|251:131,1,150,14|0,0:3|0:0,0:0:0:0:
238,147,58631,2,0,L|229:262,1,100,8|0,0:2|2:0,0:0:0:0:
161,287,58885,1,2,2:0:0:0:
139,308,58970,6,0,L|80:301,1,50,2|0,2:0|2:0,0:0:0:0:
67,323,59139,2,0,L|8:316,1,50,10|0,2:3|2:0,0:0:0:0:
20,206,59309,6,0,L|79:199,1,50,10|0,2:2|2:0,0:0:0:0:
92,221,59478,2,0,L|151:214,1,50,2|0,2:2|2:0,0:0:0:0:
230,246,59648,6,0,B|267:244|267:244|292:254|292:254|336:251,1,100,10|2,0:3|0:2,0:0:0:0:
471,97,59987,2,0,B|453:130|453:130|431:146|431:146|412:186,1,100,12|0,0:2|0:0,0:0:0:0:
327,252,60326,5,2,0:2:0:0:
415,177,60495,1,14,0:3:0:0:
479,380,60665,2,0,B|458:347|458:347|455:321|455:321|430:284,1,100,10|0,0:2|0:0,0:0:0:0:
297,254,61004,6,0,P|321:210|328:161,1,100,14|0,0:3|0:0,0:0:0:0:
298,89,61258,1,0,0:0:0:0:
277,66,61343,6,0,L|218:58,1,50,10|0,2:0|2:0,0:0:0:0:
206,36,61512,2,0,L|147:28,1,50,2|0,2:0|2:0,0:0:0:0:
194,135,61681,6,0,L|135:127,1,50,2|0,2:0|2:0,0:0:0:0:
123,105,61851,2,0,L|64:97,1,50,10|0,2:3|2:0,0:0:0:0:
57,223,62020,6,0,B|85:222|85:222|90:215|90:215|96:221|96:221|234:214,1,179.999994506836,14|0,0:2|0:0,0:0:0:0:
268,213,62359,2,0,P|209:267|230:347,1,119.999996337891,8|0,0:3|0:0,0:0:0:0:
118,220,62698,6,0,L|268:213,1,150,14|0,0:2|0:0,0:0:0:0:
336,258,63037,2,0,P|348:232|347:199,1,50,2|0,0:2|0:0,0:0:0:0:
405,153,63207,2,0,P|393:127|394:94,1,50,10|0,0:3|0:0,0:0:0:0:
212,97,63376,6,0,L|396:106,1,179.999994506836,14|0,0:2|0:0,0:0:0:0:
471,106,63715,5,14,0:3:0:0:
356,26,63885,1,8,0:3:0:0:
349,210,64054,5,8,0:2:0:0:
298,102,64224,1,8,0:3:0:0:
163,210,64393,5,8,0:2:0:0:
218,106,64563,1,8,0:3:0:0:
218,106,64902,5,8,0:2:0:0:
41,106,65071,1,8,0:3:0:0:
156,26,65241,5,0,0:2:0:0:
167,214,65410,1,8,0:2:0:0:
167,214,65749,5,2,0:0:0:0:
298,102,65919,1,10,0:3:0:0:
349,210,66088,5,2,0:0:0:0:
330,186,66173,1,2,0:0:0:0:
299,179,66258,1,2,0:0:0:0:
270,193,66343,1,2,0:0:0:0:
215,138,66427,5,12,0:3:0:0:
152,128,76766,5,8,0:3:0:0:
151,113,76851,1,8,0:3:0:0:
150,98,76936,1,8,0:2:0:0:
49,284,77275,6,0,L|56:219,1,50,10|0,0:3|0:0,0:0:0:0:
126,320,77614,2,0,L|133:255,1,50,10|8,0:0|0:3,0:0:0:0:
203,356,77953,2,0,L|210:291,1,50,2|0,0:0|0:0,0:0:0:0:
300,248,78292,6,0,P|346:229|394:238,1,100,8|0,0:0|0:0,0:0:0:0:
436,308,78800,1,8,0:3:0:0:
353,310,78970,1,8,0:3:0:0:
394,238,79139,2,0,L|388:122,1,100,8|8,0:0|0:3,0:0:0:0:
347,36,79648,5,10,0:0:0:0:
270,19,79817,1,2,0:0:0:0:
217,78,79987,1,10,0:3:0:0:
241,153,80156,1,2,0:0:0:0:
294,95,80326,5,8,0:0:0:0:
164,136,80495,2,0,L|102:125,1,50,8|0,0:3|0:0,0:0:0:0:
114,127,81004,5,10,0:0:0:0:
167,187,81173,1,2,0:0:0:0:
162,262,81343,1,2,0:0:0:0:
105,311,81512,1,10,0:3:0:0:
175,335,81681,5,8,0:3:0:0:
162,262,81851,1,8,0:0:0:0:
105,311,82020,6,0,L|36:301,1,50,2|8,0:0|0:3,0:0:0:0:
175,335,82359,2,0,L|244:345,1,50,10|0,0:0|0:0,0:0:0:0:
55,304,82698,2,0,L|-14:294,1,50,10|0,0:3|0:0,0:0:0:0:
58,307,83037,5,8,0:0:0:0:
5,296,83207,1,8,0:3:0:0:
93,210,83376,6,0,P|138:194|196:195,1,100,2|8,0:0|0:0,0:0:0:0:
252,269,83885,2,0,P|215:238|187:186,1,100,2|8,0:0|0:3,0:0:0:0:
224,102,84393,5,10,0:3:0:0:
189,193,84563,1,8,0:0:0:0:
189,193,84902,5,10,0:3:0:0:
228,106,85071,1,8,0:0:0:0:
228,106,85410,6,0,P|273:90|351:94,1,119.999996337891,10|8,0:3|0:0,0:0:0:0:
344,92,85919,1,8,0:3:0:0:
472,45,86088,6,0,L|405:34,1,59.9999981689454,2|0,0:0|0:0,0:0:0:0:
412,157,86427,2,0,L|479:146,1,59.9999981689454,8|0,0:0|0:0,0:0:0:0:
469,283,86766,5,10,0:3:0:0:
439,278,86851,1,8,0:3:0:0:
409,273,86936,1,8,0:3:0:0:
312,337,87105,1,10,0:0:0:0:
236,168,87275,5,8,0:3:0:0:
278,185,87359,1,8,0:3:0:0:
306,221,87444,1,10,0:3:0:0:
312,337,87614,1,10,0:3:0:0:
409,273,87783,1,10,0:0:0:0:
130,330,88122,6,0,B|132:306|132:306|127:285|127:285|130:260,1,69.9999978637696,12|2,0:3|0:0,0:0:0:0:
31,161,88461,1,8,0:0:0:0:
32,230,88631,2,0,B|34:206|34:206|29:185|29:185|32:160,1,69.9999978637696,2|0,0:2|0:0,0:0:0:0:
129,260,88970,1,8,0:3:0:0:
226,158,89139,5,8,0:0:0:0:
226,227,89309,2,0,B|228:203|228:203|223:182|223:182|226:157,1,69.9999978637696,2|0,0:0|0:0,0:0:0:0:
314,269,89648,1,10,0:3:0:0:
394,214,89817,1,10,0:3:0:0:
463,353,89987,2,0,B|465:329|465:329|460:308|460:308|463:283,1,69.9999978637696,10|0,0:0|0:0,0:0:0:0:
438,128,90326,1,10,0:3:0:0:
314,200,90495,5,10,0:0:0:0:
314,269,90665,2,0,B|316:245|316:245|311:224|311:224|314:199,1,69.9999978637696,2|8,0:0|0:3,0:0:0:0:
131,275,91004,2,0,B|133:251|133:251|128:230|128:230|131:205,1,69.9999978637696,2|8,0:0|0:0,0:0:0:0:
225,367,91343,2,0,B|227:343|227:343|222:322|222:322|225:297,1,69.9999978637696,2|0,0:0|0:0,0:0:0:0:
314,200,91681,1,10,0:3:0:0:
225,140,91851,5,10,0:0:0:0:
225,298,92020,2,0,B|229:252|229:252|218:195|218:195|225:139,1,160,2|8,0:0|0:3,0:0:0:0:
302,57,92529,5,10,0:3:0:0:
413,136,92698,2,0,B|415:109|415:109|409:85|409:85|413:57,1,80,10|0,0:0|0:0,0:0:0:0:
224,139,93037,5,10,0:3:0:0:
114,95,93207,2,0,B|111:67|111:67|117:44|117:44|114:15,1,80,10|2,0:0|0:0,0:0:0:0:
35,239,93546,6,0,B|37:211|37:211|31:188|31:188|35:159,1,80,10|2,0:3|0:0,0:0:0:0:
219,218,93885,1,8,0:0:0:0:
219,297,94054,2,0,B|216:269|216:269|222:246|222:246|219:217,1,80,2|0,0:0|0:0,0:0:0:0:
35,239,94393,1,10,0:3:0:0:
190,144,94563,6,0,B|216:137|216:137|258:146,2,59.9999981689454,10|2|2,0:3|0:0|0:0,0:0:0:0:
90,164,94902,2,0,L|-9:157,1,89.9999972534181,2|10,0:0|0:3,0:0:0:0:
150,32,95241,5,2,0:0:0:0:
219,218,95410,1,10,0:0:0:0:
276,53,95580,6,0,P|301:47|335:48,1,44.999998626709,2|0,0:0|0:0,0:0:0:0:
399,57,95749,2,0,P|420:70|444:95,1,44.999998626709,10|0,0:3|0:0,0:0:0:0:
483,146,95919,2,0,P|489:170|488:205,1,44.999998626709,10|0,0:0|0:0,0:0:0:0:
479,268,96088,2,0,P|465:289|440:313,1,44.999998626709,2|0,0:0|0:0,0:0:0:0:
389,351,96258,6,0,L|344:341,6,25,10|0|0|0|0|0|0,0:3|0:0|0:0|0:0|0:0|0:0|0:0,0:0:0:0:
286,354,96597,6,0,L|241:344,6,29.9999990844727,10|0|0|0|0|0|0,0:2|0:0|0:0|0:0|0:0|0:0|0:0,0:0:0:0:
175,346,96936,6,0,L|134:346,2,34.9999989318848,10|0|0,0:3|0:0|0:0,0:0:0:0:
216,276,97105,2,0,L|202:237,2,34.9999989318848,10|0|0,0:3|0:0|0:0,0:0:0:0:
132,271,97275,6,0,L|91:261,12,25,10|0|0|0|0|0|0|0|0|0|0|0|0,0:0|0:0|0:0|0:0|0:0|0:0|0:0|0:0|0:0|0:0|0:0|0:0|0:0,0:0:0:0:
26,300,97614,5,10,1:3:0:0:
24,311,97698,1,8,1:3:0:0:
22,322,97783,1,8,1:3:0:0:
12,120,97953,1,8,1:2:0:0:
216,276,98122,5,8,0:0:0:0:
220,253,98207,1,8,0:3:0:0:
224,230,98292,1,8,0:3:0:0:
122,58,98461,1,8,0:3:0:0:
20,333,98631,1,8,0:0:0:0:
0,17,98970,5,14,0:3:0:0:
92,141,99139,2,0,B|122:136|122:136|140:141|140:141|186:135,1,75.0000028610231,2|0,0:2|0:0,0:0:0:0:
233,31,99309,1,8,0:2:0:0:
342,161,99478,5,10,2:3:0:0:
342,161,99563,1,2,2:2:0:0:
342,161,99648,2,0,P|340:138|318:115,1,50,2|0,2:2|2:0,0:0:0:0:
379,128,99817,2,0,P|361:114|329:113,1,50,2|0,2:2|2:0,0:0:0:0:
171,185,99987,6,0,P|161:164|168:133,1,50,10|0,2:2|2:0,0:0:0:0:
121,174,100156,2,0,P|128:153|155:136,1,50,2|0,2:2|2:0,0:0:0:0:
297,239,100326,6,0,L|215:231,1,59.9999981689454,2|0,0:2|0:0,0:0:0:0:
290,350,100495,2,0,P|313:297|297:240,1,119.999996337891,10|8,0:3|0:3,0:0:0:0:
290,350,100834,6,0,B|320:357|350:330|350:330|356:259|286:235,1,179.999994506836,10|0,0:2|0:0,0:0:0:0:
296,239,101173,1,8,0:3:0:0:
290,350,101343,6,0,B|344:363|375:333|375:333|413:227|345:137,1,269.999991760254,14|0,1:2|0:0,0:0:0:0:
287,118,101681,6,0,B|238:107|238:107|167:122|167:122|105:104,1,179.999994506836,14|0,0:3|0:0,0:0:0:0:
89,97,102020,1,8,0:2:0:0:
0,212,102190,5,10,2:3:0:0:
0,212,102275,1,2,2:2:0:0:
0,212,102359,2,0,P|19:191|25:162,1,50,2|0,2:2|2:0,0:0:0:0:
44,227,102529,2,0,P|51:198|41:171,1,50,2|0,2:2|2:0,0:0:0:0:
206,203,102698,6,0,P|181:188|168:162,1,50,10|0,2:2|2:0,0:0:0:0:
166,229,102868,2,0,P|151:203|154:174,1,50,2|0,2:2|2:0,0:0:0:0:
63,311,103037,6,0,B|99:299|99:299|139:311,1,80,2|8,0:2|0:3,0:0:0:0:
285,337,103376,6,0,L|220:332,1,64.9999970245363,14|0,0:3|0:0,0:0:0:0:
139,311,103546,2,0,B|101:293|64:311|64:311|-2:258|50:173,1,225.000008583069,10|0,0:2|0:0,0:0:0:0:
129,154,103885,6,0,L|193:149,1,64.9999970245363,14|0,0:3|0:0,0:0:0:0:
139,311,104054,2,0,B|101:343|60:308|60:308|94:238|43:174,1,225.000008583069,10|0,0:2|0:0,0:0:0:0:
0,110,104393,5,14,0:3:0:0:
129,154,104563,2,0,L|193:149,1,64.9999970245363,2|0,0:2|0:0,0:0:0:0:
274,205,104732,1,8,0:2:0:0:
348,48,104902,5,10,2:3:0:0:
348,48,104987,1,2,2:2:0:0:
349,48,105071,2,0,P|322:51|288:75,1,50,2|0,2:2|2:0,0:0:0:0:
301,61,105241,2,0,P|292:83|291:108,1,50,2|0,2:2|2:0,0:0:0:0:
437,185,105410,6,0,P|410:182|376:158,1,50,10|0,2:2|2:0,0:0:0:0:
393,174,105580,2,0,P|384:152|383:127,1,50,2|0,2:2|2:0,0:0:0:0:
490,304,105749,6,0,L|428:297,1,59.9999981689454,2|0,0:2|0:0,0:0:0:0:
370,290,105919,2,0,L|430:297,1,59.9999981689454,10|0,0:3|0:0,0:0:0:0:
276,312,106088,6,0,P|288:276|284:239,1,75.0000028610231,14|0,0:3|0:0,0:0:0:0:
178,167,106258,2,0,P|208:236|283:241,1,160,10|0,0:2|0:0,0:0:0:0:
321,104,106597,6,0,P|271:104|234:96,1,75.0000028610231,10|0,0:3|0:0,0:0:0:0:
178,167,106766,2,0,B|148:216|185:268|185:268|214:315|200:353|200:353|188:314|153:302,1,269.999991760254,14|0,0:2|0:0,0:0:0:0:
77,337,107105,6,0,B|53:363|53:363|6:293|57:217,1,179.999994506836,10|0,0:3|0:0,0:0:0:0:
66,208,107444,1,8,0:2:0:0:
224,191,107614,5,10,2:3:0:0:
224,191,107698,1,2,2:2:0:0:
224,192,107783,2,0,P|200:189|182:172,1,50,2|0,2:2|2:0,0:0:0:0:
182,172,107953,2,0,P|200:155|225:152,1,50,2|0,2:2|2:0,0:0:0:0:
134,23,108122,6,0,P|158:26|176:43,1,50,10|0,2:2|2:0,0:0:0:0:
176,43,108292,2,0,P|158:60|133:63,1,50,2|0,2:2|2:0,0:0:0:0:
66,208,108461,6,0,P|58:174|63:137,1,69.9999978637696,2|0,0:0|0:0,0:0:0:0:
306,307,108800,6,0,P|318:265|303:218,1,89.9999972534181,6|2,0:0|0:0,0:0:0:0:
62,139,109139,5,10,0:0:0:0:
181,272,109309,1,8,0:3:0:0:
185,237,109393,1,8,0:3:0:0:
190,203,109478,1,10,0:2:0:0:
281,109,109648,1,10,0:0:0:0:
412,278,109817,5,14,0:3:0:0:
410,156,109987,2,0,B|416:101|416:101|395:121,1,75.0000028610231,2|0,0:2|0:0,0:0:0:0:
305,221,110156,2,0,B|268:209|268:209|236:215|236:215|178:199,1,119.999996337891,8|0,0:2|0:2,0:0:0:0:
251,373,110495,6,0,P|265:354|264:322,1,50,2|0,2:2|2:0,0:0:0:0:
291,338,110665,2,0,P|287:315|264:293,1,50,10|0,2:3|2:0,0:0:0:0:
97,289,110834,6,0,P|116:303|148:302,1,50,10|0,2:2|2:0,0:0:0:0:
132,329,111004,2,0,P|155:325|177:302,1,50,2|0,2:0|2:0,0:0:0:0:
172,124,111173,5,12,0:3:0:0:
169,138,111258,1,8,0:3:0:0:
167,153,111343,1,8,0:3:0:0:
165,168,111427,1,8,0:3:0:0:
163,183,111512,2,0,L|96:190,1,59.9999981689454,8|0,0:0|0:0,0:0:0:0:
27,247,111681,6,0,B|34:220|20:193|20:193|30:158|30:158|21:131|24:100,1,150,2|0,2:0|0:0,0:0:0:0:
103,63,112020,2,0,L|109:10,1,50,10|0,2:3|0:0,0:0:0:0:
261,144,112190,6,0,B|226:111|177:126|177:126|142:167|81:170|45:143|45:143|81:170|92:213|66:252,1,359.999989013672,14|8,0:0|0:3,0:0:0:0:
66,252,112868,6,0,L|216:244,1,139.999995727539,14|0,0:0|0:0,0:0:0:0:
284,314,113376,1,8,0:3:0:0:
325,173,113546,6,0,P|310:189|304:211,1,44.999998626709,10|0,2:0|2:0,0:0:0:0:
358,206,113715,2,0,P|335:207|316:218,1,44.999998626709,2|0,2:0|2:0,0:0:0:0:
429,350,113885,6,0,P|446:331|448:305,1,50,10|0,2:3|2:0,0:0:0:0:
390,321,114054,2,0,P|415:319|435:302,1,50,2|0,2:0|2:0,0:0:0:0:
458,109,114224,6,0,B|409:52|333:83|333:83|308:119|267:123|267:123|331:154|312:221|312:221|292:233|274:257|274:257|292:281|284:314,1,449.99998626709,14|0,0:2|0:0,0:0:0:0:
210,357,114732,6,0,P|168:353|137:332,1,69.9999978637696,14|0,0:3|0:0,0:0:0:0:
85,286,114902,2,0,P|67:247|70:210,1,69.9999978637696,2|0,0:0|0:0,0:0:0:0:
85,143,115071,2,0,P|109:108|143:92,1,69.9999978637696,10|0,0:3|0:0,0:0:0:0:
209,74,115241,1,8,0:3:0:0:
163,221,115410,6,0,P|161:187|170:168,1,50,2|0,2:0|2:0,0:0:0:0:
167,172,115580,2,0,P|195:154|217:152,1,50,10|0,2:0|2:0,0:0:0:0:
211,151,115749,2,0,P|240:167|252:184,1,50,2|0,2:0|2:0,0:0:0:0:
231,335,115919,6,0,L|226:243,1,80,14|0,0:3|0:0,0:0:0:0:
317,137,116088,2,0,L|239:187,1,80,10|0,0:3|0:0,0:0:0:0:
102,162,116258,6,0,L|184:203,1,80,10|0,0:2|0:0,0:0:0:0:
226,255,116427,2,0,L|308:296,1,80,0|0,0:0|0:0,0:0:0:0:
150,331,116597,5,12,0:3:0:0:
147,317,116681,1,8,0:3:0:0:
145,302,116766,1,8,0:3:0:0:
143,287,116851,1,8,0:3:0:0:
141,272,116936,6,0,L|58:263,1,69.9999978637696,8|0,0:2|0:0,0:0:0:0:
12,133,117105,2,0,P|106:169|64:268,1,225.000008583069,2|0,2:2|0:0,0:0:0:0:
5,313,117444,6,0,L|-10:237,1,69.9999978637696,8|0,0:3|0:0,0:0:0:0:
12,133,117614,2,0,B|65:114|101:158|101:158|137:198|200:199|236:147,1,255.000004863739,14|0,2:2|0:0,0:0:0:0:
305,72,117953,6,0,L|446:60,1,119.999996337891,12|2,0:3|0:2,0:0:0:0:
424,62,118292,6,0,P|375:123|361:201,1,160,10|0,0:0|0:0,0:0:0:0:
505,160,118800,6,0,P|508:141|497:87,1,59.9999981689454,14|0,0:3|0:0,0:0:0:0:
424,61,118970,6,0,P|338:107|361:202,1,209.999993591309,10|0,0:2|0:0,0:0:0:0:
494,260,119309,6,0,P|451:241|408:244,1,69.9999978637696,10|2,0:3|0:0,0:0:0:0:
216,360,119648,6,0,P|260:363|301:345,1,89.9999972534181,14|2,0:3|0:0,0:0:0:0:
428,240,119987,1,8,0:0:0:0:
224,242,120156,5,6,0:0:0:0:
254,265,120241,1,10,0:0:0:0:
293,269,120326,1,10,0:3:0:0:
336,247,120410,1,2,0:0:0:0:
360,201,120495,1,10,0:0:0:0:
342,149,120580,1,2,0:0:0:0:
258,129,120665,6,0,B|220:113|186:129|186:129|149:146|113:125,1,150,14|0,0:3|0:0,0:0:0:0:
85,110,121004,1,8,0:2:0:0:
99,267,121173,2,0,P|144:184|86:111,1,200,10|0,0:3|0:0,0:0:0:0:
99,267,121681,2,0,P|193:264|227:176,1,200,10|0,0:2|0:0,0:0:0:0:
84,110,122190,5,8,0:3:0:0:
144,192,122359,1,8,0:3:0:0:
273,214,122529,2,0,P|213:172|143:193,1,150,8|0,0:2|0:0,0:0:0:0:
125,217,122868,1,10,0:3:0:0:
345,257,123037,5,10,0:2:0:0:
201,257,123207,1,2,0:2:0:0:
315,342,123376,6,0,B|354:329|386:348|386:348|422:368|460:350,1,150,12|0,0:3|0:0,0:0:0:0:
484,334,123715,1,8,0:2:0:0:
414,194,123885,2,0,P|353:122|370:3,1,200,10|0,0:3|0:0,0:0:0:0:
247,157,124393,5,10,0:2:0:0:
307,252,124563,2,0,P|350:192|351:118,1,150,2|0,0:2|0:0,0:0:0:0:
345,89,124902,1,10,0:3:0:0:
189,50,125071,5,6,0:2:0:0:
119,95,125241,2,0,P|70:82|26:59,1,100,8|0,0:2|0:0,0:0:0:0:
144,293,125580,5,6,0:2:0:0:
111,217,125749,2,0,P|76:181|34:154,1,100,8|0,0:2|0:0,0:0:0:0:
22,338,126088,6,0,B|59:330|92:353|92:353|126:378|165:367,1,150,14|0,0:3|0:0,0:0:0:0:
192,357,126427,1,8,0:2:0:0:
204,193,126597,2,0,P|117:208|143:292,1,200,10|0,0:3|0:0,0:0:0:0:
330,344,127105,2,0,P|355:259|268:245,1,200,10|0,0:2|0:0,0:0:0:0:
192,357,127614,1,8,0:3:0:0:
119,157,127783,5,14,0:3:0:0:
268,245,127953,1,10,0:2:0:0:
284,49,128122,5,2,0:2:0:0:
335,143,128292,1,10,0:3:0:0:
479,27,128461,6,0,L|456:134,1,104.999996795654,14|0,0:2|0:0,0:0:0:0:
444,211,128800,6,0,B|407:200|371:217|371:217|336:234|299:217,1,150,10|0,0:3|0:0,0:0:0:0:
271,203,129139,1,8,0:2:0:0:
317,329,129309,2,0,P|402:301|371:217,1,200,10|0,0:3|0:0,0:0:0:0:
247,282,129817,2,0,L|135:273,1,100,8|0,0:2|0:0,0:0:0:0:
0,384,130156,5,8,2:3:0:0:
34,183,130326,1,10,2:3:0:0:
35,201,130410,1,10,2:3:0:0:
36,219,130495,1,10,2:2:0:0:
247,282,130665,5,8,2:0:0:0:
222,279,130749,1,8,2:3:0:0:
197,277,130834,1,8,2:3:0:0:
172,275,130919,1,8,2:3:0:0:
147,273,131004,1,8,2:3:0:0:
0,384,131173,6,0,B|5:377|12:371|12:371|17:353|17:353|34:343|34:343|16:324|14:295|23:269|23:269|31:257|34:243|34:243|37:201|27:168|27:168|25:130|52:107,1,300,10|0,0:2|0:0,0:0:0:0:
106,158,131512,6,0,B|166:179|210:148|210:148|169:122|131:144,1,190,14|0,0:3|0:0,0:0:0:0:
