osu file format v14

[General]
AudioFilename: audio.mp3
AudioLeadIn: 0
PreviewTime: 52934
Countdown: 0
SampleSet: None
StackLeniency: 0.7
Mode: 1
LetterboxInBreaks: 0
WidescreenStoryboard: 0

[Editor]
DistanceSpacing: 1
BeatDivisor: 4
GridSize: 4
TimelineZoom: 4.099998

[Metadata]
Title:BREAK OVer:ror
TitleUnicode:BREAK OVer:ror
Artist:syou2at
ArtistUnicode:syou2at
Creator:Stefan
Version:InNEr:ror Oni
Source:
Tags:over masayoshi iimori beatmania iidx sinobuz 24 windows xp 10 error mad 音mad thenutritiousguy tng taiko
BeatmapID:1892140
BeatmapSetID:906720

[Difficulty]
HPDrainRate:5
CircleSize:5
OverallDifficulty:5
ApproachRate:5
SliderMultiplier:1.4
SliderTickRate:1

[Events]
//Background and Video events
0,0,"maxresdefault.jpg",0,50
//Break Periods
//Storyboard Layer 0 (Background)
//Storyboard Layer 1 (Fail)
//Storyboard Layer 2 (Pass)
//Storyboard Layer 3 (Foreground)
//Storyboard Sound Samples

[TimingPoints]
1734,400,4,1,0,50,1,0
1734,-80,4,1,0,50,0,0
8034,-80,4,1,0,70,0,0
14534,-57.1428571428571,4,1,0,70,0,0
26134,-66.6666666666667,4,1,0,70,0,0
26534,-79.9999999999999,4,1,0,70,0,0
27334,-57.1428571428571,4,1,0,70,0,0
33934,-56.8181818181818,4,1,0,70,0,0
34134,-56.4971751412429,4,1,0,70,0,0
34234,-56.1797752808989,4,1,0,70,0,0
34334,-55.8659217877095,4,1,0,70,0,0
34534,-55.5555555555556,4,1,0,70,0,0
34734,-55.2486187845304,4,1,0,70,0,0
34834,-54.9450549450549,4,1,0,70,0,0
34934,-54.6448087431694,4,1,0,70,0,0
35134,-54.3478260869565,4,1,0,70,0,0
35334,-54.054054054054,4,1,0,70,0,0
35534,-53.763440860215,4,1,0,70,0,0
35734,-53.475935828877,4,1,0,70,0,0
35834,-53.1914893617021,4,1,0,70,0,0
35934,-52.9100529100529,4,1,0,70,0,0
36134,-52.6315789473684,4,1,0,70,0,0
36334,-52.3560209424084,4,1,0,70,0,0
36434,-52.0833333333333,4,1,0,70,0,0
36534,-51.8134715025907,4,1,0,70,0,0
36734,-51.5463917525773,4,1,0,70,0,0
36934,-51.2820512820513,4,1,0,70,0,0
37134,-51.0204081632653,4,1,0,70,0,0
37334,-50.761421319797,4,1,0,70,0,0
37434,-50.5050505050505,4,1,0,70,0,0
37534,-50.251256281407,4,1,0,70,0,0
37734,-50,4,1,0,70,0,0
37934,-49.2610837438424,4,1,0,70,0,0
38034,-49.0196078431373,4,1,0,70,0,0
38134,-48.780487804878,4,1,0,70,0,0
38334,-47.8468899521531,4,1,0,70,0,0
38534,-46.5116279069767,4,1,0,70,0,0
38734,-50,4,1,0,70,0,0
38934,-54.054054054054,4,1,0,70,0,0
39134,-58.8235294117647,4,1,0,70,0,0
39334,-64.5161290322581,4,1,0,70,0,0
39534,-71.4285714285714,4,1,0,70,0,0
39734,-57.1428571428571,4,1,0,70,0,0
40534,-50,4,1,0,70,0,0
41134,-57.1428571428571,4,1,0,70,0,0
46534,-60.9756097560976,4,1,0,70,0,0
46734,-65.7894736842105,4,1,0,70,0,0
46934,-71.9424460431655,4,1,0,70,0,0
47134,-80,4,1,0,70,0,0
47334,-66.6666666666667,4,1,0,70,0,0
47534,-57.1428571428571,4,1,0,70,0,0
52934,-100,4,1,0,70,0,0
53734,-66.6666666666667,4,1,0,70,0,0
59534,-79.9999999999999,4,1,0,70,0,0
59734,-61.7283950617284,4,1,0,70,0,0
59934,-74.0740740740741,4,1,0,70,0,0
60134,-57.1428571428571,4,1,0,70,0,0
65734,283.018867924528,4,1,0,70,1,0
90639,-90.9090909090909,4,1,0,90,0,0
91771,-66.6666666666667,4,1,0,90,0,0
92337,-57.1428571428571,4,1,0,90,0,0
92903,-57.1428571428571,4,1,0,90,0,1
92974,-58.8235294117647,4,1,0,90,0,1
93045,-60.6060606060606,4,1,0,90,0,1
93116,-62.5,4,1,0,90,0,1
93186,-64.5161290322581,4,1,0,90,0,1
93328,-66.6666666666667,4,1,0,90,0,1
93469,-74.0740740740741,4,1,0,90,0,1
119507,-74.0740740740741,4,1,0,90,0,0
120073,-71.4285714285714,4,1,0,90,0,0
120356,-70.4225352112676,4,1,0,90,0,0
120498,-69.9300699300699,4,1,0,90,0,0
120639,-69.4444444444444,4,1,0,90,0,0
120781,-68.9655172413793,4,1,0,90,0,0
120922,-68.4931506849315,4,1,0,90,0,0
121205,-66.6666666666667,4,1,0,90,0,0
121347,-66.2251655629139,4,1,0,90,0,0
121630,-65.359477124183,4,1,0,90,0,0
121771,-64.9350649350649,4,1,0,90,0,0
122054,-64.1025641025641,4,1,0,90,0,0
122196,-63.2911392405063,4,1,0,90,0,0
122337,-62.5,4,1,0,90,0,0
122620,-61.7283950617284,4,1,0,90,0,0
122762,-61.3496932515337,4,1,0,90,0,0
123045,-60.6060606060606,4,1,0,90,0,0
123186,-60.2409638554217,4,1,0,90,0,0
123469,-58.8235294117647,4,1,0,90,0,0
123611,-58.4795321637427,4,1,0,90,0,0
123752,-58.1395348837209,4,1,0,90,0,0
123894,-57.8034682080925,4,1,0,90,0,0
124035,-57.4712643678161,4,1,0,90,0,0
124318,-56.4971751412429,4,1,0,90,0,0
124601,-55.5555555555556,4,1,0,90,0,0
124884,-54.9450549450549,4,1,0,90,0,0
125026,-54.6448087431694,4,1,0,90,0,0
125309,-54.054054054054,4,1,0,90,0,0
125450,-53.763440860215,4,1,0,90,0,0
125733,-52.6315789473684,4,1,0,90,0,0
125875,-52.3560209424084,4,1,0,90,0,0
126158,-51.8134715025907,4,1,0,90,0,0
126300,-51.2820512820513,4,1,0,90,0,0
126583,-50.761421319797,4,1,0,90,0,0
126866,-50,4,1,0,90,0,0
127149,-49.5049504950495,4,1,0,90,0,0
127290,-49.2610837438424,4,1,0,90,0,0
127432,-49.0196078431373,4,1,0,90,0,0
127573,-48.780487804878,4,1,0,90,0,0
127715,-48.5436893203883,4,1,0,90,0,0
127998,-47.6190476190476,4,1,0,90,0,0
128139,-47.39336492891,4,1,0,90,0,0
128422,-46.9483568075117,4,1,0,90,0,0
128564,-46.5116279069767,4,1,0,90,0,0
128847,-46.0829493087558,4,1,0,90,0,0
129130,-45.4545454545455,4,1,0,90,0,0
129696,-40,4,1,0,90,0,0

[HitObjects]
256,192,1734,5,8,0:0:0:0:
256,192,2034,1,0,0:0:0:0:
256,192,2134,1,8,0:0:0:0:
256,192,2334,1,0,0:0:0:0:
256,192,2534,1,8,0:0:0:0:
256,192,2834,1,0,0:0:0:0:
256,192,2934,1,8,0:0:0:0:
256,192,3134,1,0,0:0:0:0:
256,192,3334,1,8,0:0:0:0:
256,192,3634,1,0,0:0:0:0:
256,192,3734,1,8,0:0:0:0:
256,192,3934,1,0,0:0:0:0:
256,192,4134,1,8,0:0:0:0:
256,192,4234,1,0,0:0:0:0:
256,192,4434,1,0,0:0:0:0:
256,192,4534,1,8,0:0:0:0:
256,192,4734,1,0,0:0:0:0:
256,192,4934,1,8,0:0:0:0:
256,192,5234,1,0,0:0:0:0:
256,192,5334,1,8,0:0:0:0:
256,192,5534,1,0,0:0:0:0:
256,192,5734,1,8,0:0:0:0:
256,192,6034,1,0,0:0:0:0:
256,192,6134,1,8,0:0:0:0:
256,192,6334,1,0,0:0:0:0:
256,192,6534,1,8,0:0:0:0:
256,192,6834,1,0,0:0:0:0:
256,192,6934,1,8,0:0:0:0:
256,192,7134,1,0,0:0:0:0:
256,192,7334,1,8,0:0:0:0:
256,192,7434,1,0,0:0:0:0:
256,192,7634,1,0,0:0:0:0:
256,192,7734,1,8,0:0:0:0:
256,192,7934,1,0,0:0:0:0:
256,192,8134,1,8,0:0:0:0:
256,192,8200,1,8,0:0:0:0:
256,192,8267,1,0,0:0:0:0:
256,192,8434,1,0,0:0:0:0:
256,192,8534,1,8,0:0:0:0:
256,192,8600,1,8,0:0:0:0:
256,192,8667,1,0,0:0:0:0:
256,192,8834,1,0,0:0:0:0:
256,192,8934,1,8,0:0:0:0:
256,192,9000,1,8,0:0:0:0:
256,192,9067,1,0,0:0:0:0:
256,192,9234,1,0,0:0:0:0:
256,192,9334,1,8,0:0:0:0:
256,192,9400,1,8,0:0:0:0:
256,192,9467,1,0,0:0:0:0:
256,192,9534,1,0,0:0:0:0:
256,192,9734,1,8,0:0:0:0:
256,192,9800,1,8,0:0:0:0:
256,192,9867,1,0,0:0:0:0:
256,192,10034,1,0,0:0:0:0:
256,192,10134,1,8,0:0:0:0:
256,192,10200,1,8,0:0:0:0:
256,192,10267,1,0,0:0:0:0:
256,192,10334,1,0,0:0:0:0:
256,192,10534,1,8,0:0:0:0:
256,192,10600,1,8,0:0:0:0:
256,192,10667,1,0,0:0:0:0:
256,192,10834,1,0,0:0:0:0:
256,192,10934,1,8,0:0:0:0:
256,192,11000,1,8,0:0:0:0:
256,192,11067,1,0,0:0:0:0:
256,192,11134,1,0,0:0:0:0:
256,192,11334,1,8,0:0:0:0:
256,192,11400,1,0,0:0:0:0:
256,192,11467,1,0,0:0:0:0:
256,192,11534,1,8,0:0:0:0:
256,192,11600,1,0,0:0:0:0:
256,192,11667,1,0,0:0:0:0:
256,192,11734,1,8,0:0:0:0:
256,192,11800,1,0,0:0:0:0:
256,192,11867,1,0,0:0:0:0:
256,192,11934,1,8,0:0:0:0:
256,192,12000,1,0,0:0:0:0:
256,192,12067,1,0,0:0:0:0:
256,192,12134,1,8,0:0:0:0:
256,192,12200,1,0,0:0:0:0:
256,192,12267,1,0,0:0:0:0:
256,192,12334,1,8,0:0:0:0:
256,192,12400,1,0,0:0:0:0:
256,192,12467,1,0,0:0:0:0:
256,192,12534,1,8,0:0:0:0:
256,192,12600,1,0,0:0:0:0:
256,192,12667,1,0,0:0:0:0:
256,192,12734,1,8,0:0:0:0:
256,192,12800,1,0,0:0:0:0:
256,192,12867,1,0,0:0:0:0:
256,192,12934,1,8,0:0:0:0:
256,192,13000,1,8,0:0:0:0:
256,192,13067,1,0,0:0:0:0:
256,192,13200,1,0,0:0:0:0:
256,192,13334,1,8,0:0:0:0:
256,192,13400,1,8,0:0:0:0:
256,192,13467,1,8,0:0:0:0:
256,192,13534,1,0,0:0:0:0:
256,192,13634,1,0,0:0:0:0:
256,192,13734,1,8,0:0:0:0:
256,192,13800,1,8,0:0:0:0:
256,192,13867,1,0,0:0:0:0:
256,192,13934,1,0,0:0:0:0:
256,192,14034,1,0,0:0:0:0:
256,192,14134,1,8,0:0:0:0:
256,192,14534,1,12,0:0:0:0:
256,192,14934,1,4,0:0:0:0:
256,192,15134,1,4,0:0:0:0:
256,192,15334,1,8,0:0:0:0:
256,192,15400,1,8,0:0:0:0:
256,192,15467,1,8,0:0:0:0:
256,192,15534,1,0,0:0:0:0:
256,192,15600,1,0,0:0:0:0:
256,192,15667,1,0,0:0:0:0:
256,192,15734,1,8,0:0:0:0:
256,192,15934,1,0,0:0:0:0:
256,192,16034,1,0,0:0:0:0:
256,192,16134,1,8,0:0:0:0:
256,192,16334,1,8,0:0:0:0:
256,192,16434,1,0,0:0:0:0:
256,192,16534,1,8,0:0:0:0:
256,192,16584,1,0,0:0:0:0:
256,192,16634,1,0,0:0:0:0:
256,192,16684,1,0,0:0:0:0:
256,192,16734,1,8,0:0:0:0:
256,192,16834,1,0,0:0:0:0:
256,192,16934,1,8,0:0:0:0:
256,192,17034,1,8,0:0:0:0:
256,192,17134,1,0,0:0:0:0:
256,192,17234,1,8,0:0:0:0:
256,192,17334,1,0,0:0:0:0:
256,192,17434,1,8,0:0:0:0:
256,192,17534,1,0,0:0:0:0:
256,192,17634,1,8,0:0:0:0:
256,192,17734,1,4,0:0:0:0:
256,192,17834,1,4,0:0:0:0:
256,192,17934,1,4,0:0:0:0:
256,192,18034,1,4,0:0:0:0:
256,192,18134,1,12,0:0:0:0:
256,192,18334,1,8,0:0:0:0:
256,192,18384,1,0,0:0:0:0:
256,192,18434,1,8,0:0:0:0:
256,192,18534,1,4,0:0:0:0:
256,160,18734,1,0,0:0:0:0:
256,160,18934,1,8,0:0:0:0:
256,160,19134,1,0,0:0:0:0:
256,160,19234,1,0,0:0:0:0:
256,160,19334,1,8,0:0:0:0:
256,160,19384,1,8,0:0:0:0:
256,160,19434,1,8,0:0:0:0:
256,160,19534,1,8,0:0:0:0:
256,160,19634,1,0,0:0:0:0:
256,160,19734,1,8,0:0:0:0:
256,160,19784,1,8,0:0:0:0:
256,160,19834,1,8,0:0:0:0:
256,160,19934,1,8,0:0:0:0:
256,160,20034,1,0,0:0:0:0:
256,160,20134,1,8,0:0:0:0:
256,160,20184,1,8,0:0:0:0:
256,160,20234,1,8,0:0:0:0:
256,160,20334,1,8,0:0:0:0:
256,160,20434,1,0,0:0:0:0:
80,132,20534,2,0,L|188:256,1,122.500001168251
256,160,20934,1,4,0:0:0:0:
256,160,21134,1,0,0:0:0:0:
256,160,21184,1,0,0:0:0:0:
256,160,21234,1,8,0:0:0:0:
256,160,21334,1,4,0:0:0:0:
256,160,21534,1,4,0:0:0:0:
256,160,21734,1,0,0:0:0:0:
256,160,21834,1,0,0:0:0:0:
256,160,21884,1,0,0:0:0:0:
256,160,21934,1,8,0:0:0:0:
256,160,22034,1,0,0:0:0:0:
256,160,22134,1,4,0:0:0:0:
256,160,22234,1,0,0:0:0:0:
256,160,22334,1,4,0:0:0:0:
256,160,22434,1,0,0:0:0:0:
256,160,22534,1,12,0:0:0:0:
256,160,22734,1,0,0:0:0:0:
256,160,22834,1,0,0:0:0:0:
256,160,22934,1,4,0:0:0:0:
256,160,23034,1,0,0:0:0:0:
256,160,23134,1,4,0:0:0:0:
256,160,23234,1,0,0:0:0:0:
256,160,23334,1,0,0:0:0:0:
256,160,23434,1,0,0:0:0:0:
256,160,23484,1,0,0:0:0:0:
256,160,23534,1,8,0:0:0:0:
256,160,23634,1,0,0:0:0:0:
256,160,23734,1,8,0:0:0:0:
256,160,23834,1,8,0:0:0:0:
256,160,23934,1,8,0:0:0:0:
256,160,24034,1,8,0:0:0:0:
256,160,24134,1,4,0:0:0:0:
256,160,24534,1,0,0:0:0:0:
256,160,24634,1,0,0:0:0:0:
256,160,24734,1,8,0:0:0:0:
256,160,24834,1,0,0:0:0:0:
256,160,24934,1,8,0:0:0:0:
256,160,24967,1,8,0:0:0:0:
256,160,25000,1,0,0:0:0:0:
256,160,25034,1,0,0:0:0:0:
256,160,25134,1,8,0:0:0:0:
256,160,25234,1,0,0:0:0:0:
256,160,25334,1,0,0:0:0:0:
256,160,25434,1,0,0:0:0:0:
256,160,25534,1,0,0:0:0:0:
256,160,25634,1,0,0:0:0:0:
256,160,25734,1,4,0:0:0:0:
256,160,26134,1,4,0:0:0:0:
256,224,26184,1,8,0:0:0:0:
256,224,26234,1,8,0:0:0:0:
256,224,26284,1,8,0:0:0:0:
256,160,26534,1,4,0:0:0:0:
256,224,26584,1,8,0:0:0:0:
256,224,26634,1,8,0:0:0:0:
256,224,26684,1,8,0:0:0:0:
256,160,26934,1,4,0:0:0:0:
256,224,26984,1,8,0:0:0:0:
256,224,27034,1,8,0:0:0:0:
256,224,27084,1,8,0:0:0:0:
256,224,27334,1,12,0:0:0:0:
256,160,27384,1,0,0:0:0:0:
256,160,27434,1,0,0:0:0:0:
256,160,27484,1,0,0:0:0:0:
256,160,27534,1,8,0:0:0:0:
256,160,27584,1,8,0:0:0:0:
256,160,27634,1,8,0:0:0:0:
256,160,27734,1,0,0:0:0:0:
256,160,27934,1,0,0:0:0:0:
256,160,28134,1,12,0:0:0:0:
256,160,28334,1,0,0:0:0:0:
256,160,28384,1,0,0:0:0:0:
256,160,28434,1,0,0:0:0:0:
256,160,28484,1,0,0:0:0:0:
256,160,28534,1,8,0:0:0:0:
256,160,28734,1,8,0:0:0:0:
256,160,28834,1,8,0:0:0:0:
256,160,28934,1,8,0:0:0:0:
256,160,28984,1,0,0:0:0:0:
256,160,29034,1,0,0:0:0:0:
256,160,29084,1,0,0:0:0:0:
256,160,29134,1,8,0:0:0:0:
256,160,29234,1,0,0:0:0:0:
256,160,29334,1,8,0:0:0:0:
256,160,29384,1,0,0:0:0:0:
256,160,29434,1,0,0:0:0:0:
256,160,29484,1,0,0:0:0:0:
256,160,29534,1,8,0:0:0:0:
256,160,29634,1,0,0:0:0:0:
256,160,29734,1,8,0:0:0:0:
256,160,29784,1,0,0:0:0:0:
256,160,29834,1,8,0:0:0:0:
256,160,29884,1,0,0:0:0:0:
256,160,29934,1,0,0:0:0:0:
256,160,30034,1,0,0:0:0:0:
256,160,30134,1,8,0:0:0:0:
256,160,30184,1,8,0:0:0:0:
256,160,30234,1,8,0:0:0:0:
256,160,30284,1,8,0:0:0:0:
256,160,30334,1,0,0:0:0:0:
256,160,30434,1,0,0:0:0:0:
256,160,30534,1,4,0:0:0:0:
256,160,30634,1,4,0:0:0:0:
256,160,30734,1,4,0:0:0:0:
256,160,30834,1,4,0:0:0:0:
256,160,30934,1,8,0:0:0:0:
256,160,30984,1,8,0:0:0:0:
256,160,31034,1,0,0:0:0:0:
256,160,31084,1,0,0:0:0:0:
256,160,31134,1,8,0:0:0:0:
256,160,31184,1,0,0:0:0:0:
256,160,31234,1,8,0:0:0:0:
256,160,31334,1,4,0:0:0:0:
256,160,31534,1,8,0:0:0:0:
256,160,31584,1,8,0:0:0:0:
256,160,31634,1,0,0:0:0:0:
256,160,31684,1,8,0:0:0:0:
256,160,31734,1,0,0:0:0:0:
256,160,31934,1,8,0:0:0:0:
256,160,31984,1,0,0:0:0:0:
256,160,32034,1,8,0:0:0:0:
256,160,32084,1,0,0:0:0:0:
256,160,32134,1,0,0:0:0:0:
256,160,32234,1,8,0:0:0:0:
256,160,32334,1,0,0:0:0:0:
256,160,32434,1,0,0:0:0:0:
256,160,32534,1,8,0:0:0:0:
256,160,32634,1,8,0:0:0:0:
256,160,32734,1,8,0:0:0:0:
256,160,32834,1,0,0:0:0:0:
256,160,32934,1,8,0:0:0:0:
256,160,33034,1,8,0:0:0:0:
256,160,33134,1,0,0:0:0:0:
256,160,33234,1,0,0:0:0:0:
256,160,33334,1,8,0:0:0:0:
256,160,33434,1,0,0:0:0:0:
256,160,33534,1,0,0:0:0:0:
256,160,33567,1,0,0:0:0:0:
256,160,33600,1,0,0:0:0:0:
256,160,33634,1,0,0:0:0:0:
256,160,33734,1,12,0:0:0:0:
256,160,33934,1,0,0:0:0:0:
256,160,34134,1,8,0:0:0:0:
256,160,34234,1,8,0:0:0:0:
256,160,34334,1,8,0:0:0:0:
256,160,34534,1,0,0:0:0:0:
256,160,34734,1,8,0:0:0:0:
256,160,34834,1,8,0:0:0:0:
256,160,34934,1,0,0:0:0:0:
256,160,35134,1,8,0:0:0:0:
256,160,35334,1,0,0:0:0:0:
256,160,35534,1,0,0:0:0:0:
256,160,35734,1,8,0:0:0:0:
256,160,35834,1,8,0:0:0:0:
256,160,35934,1,8,0:0:0:0:
256,160,36134,1,0,0:0:0:0:
256,160,36334,1,8,0:0:0:0:
256,160,36434,1,8,0:0:0:0:
256,160,36534,1,8,0:0:0:0:
256,160,36734,1,0,0:0:0:0:
256,160,36934,1,8,0:0:0:0:
256,160,37134,1,0,0:0:0:0:
256,160,37334,1,8,0:0:0:0:
256,160,37434,1,8,0:0:0:0:
256,160,37534,1,8,0:0:0:0:
256,160,37734,1,0,0:0:0:0:
256,160,37934,1,8,0:0:0:0:
256,160,38034,1,8,0:0:0:0:
256,160,38134,1,8,0:0:0:0:
256,160,38334,1,0,0:0:0:0:
256,160,38534,1,8,0:0:0:0:
256,160,38734,1,0,0:0:0:0:
256,160,38934,1,8,0:0:0:0:
256,160,39134,1,0,0:0:0:0:
256,160,39334,1,8,0:0:0:0:
256,160,39534,1,0,0:0:0:0:
256,160,39734,1,8,0:0:0:0:
256,160,39784,1,8,0:0:0:0:
256,160,39834,1,8,0:0:0:0:
256,160,39934,1,8,0:0:0:0:
256,160,40034,1,8,0:0:0:0:
256,160,40134,1,4,0:0:0:0:
256,160,40534,1,8,0:0:0:0:
256,160,40634,1,0,0:0:0:0:
256,160,40684,1,0,0:0:0:0:
256,160,40734,1,8,0:0:0:0:
256,160,40834,1,0,0:0:0:0:
256,160,40934,1,4,0:0:0:0:
256,160,41134,1,8,0:0:0:0:
256,160,41234,1,8,0:0:0:0:
256,160,41334,1,0,0:0:0:0:
256,160,41534,1,0,0:0:0:0:
256,160,41734,1,8,0:0:0:0:
256,160,41834,1,8,0:0:0:0:
256,160,41934,1,0,0:0:0:0:
256,160,41967,1,0,0:0:0:0:
256,160,42000,1,8,0:0:0:0:
256,160,42034,1,8,0:0:0:0:
256,160,42067,1,0,0:0:0:0:
256,160,42134,1,8,0:0:0:0:
256,160,42234,1,8,0:0:0:0:
256,160,42334,1,0,0:0:0:0:
256,160,42367,1,0,0:0:0:0:
256,160,42400,1,8,0:0:0:0:
256,160,42434,1,8,0:0:0:0:
256,160,42467,1,0,0:0:0:0:
256,160,42534,1,8,0:0:0:0:
256,160,42584,1,8,0:0:0:0:
256,160,42634,1,0,0:0:0:0:
256,160,42734,1,8,0:0:0:0:
256,160,42834,1,8,0:0:0:0:
256,160,42934,1,4,0:0:0:0:
256,160,43134,1,4,0:0:0:0:
256,160,43334,1,0,0:0:0:0:
256,160,43384,1,8,0:0:0:0:
256,160,43434,1,0,0:0:0:0:
256,160,43484,1,0,0:0:0:0:
256,160,43534,1,8,0:0:0:0:
256,160,43634,1,8,0:0:0:0:
256,160,43734,1,0,0:0:0:0:
256,160,43934,1,0,0:0:0:0:
256,160,44134,1,12,0:0:0:0:
256,160,44334,1,4,0:0:0:0:
256,160,44534,1,0,0:0:0:0:
256,160,44634,1,0,0:0:0:0:
256,160,44734,1,0,0:0:0:0:
256,160,44934,1,8,0:0:0:0:
256,160,45134,1,0,0:0:0:0:
256,160,45334,1,0,0:0:0:0:
256,160,45367,1,0,0:0:0:0:
256,160,45400,1,8,0:0:0:0:
256,160,45434,1,8,0:0:0:0:
256,160,45467,1,0,0:0:0:0:
256,160,45534,1,8,0:0:0:0:
256,160,45734,1,0,0:0:0:0:
256,160,45934,1,0,0:0:0:0:
256,160,45967,1,0,0:0:0:0:
256,160,46000,1,8,0:0:0:0:
256,160,46034,1,8,0:0:0:0:
256,160,46067,1,0,0:0:0:0:
256,160,46134,1,0,0:0:0:0:
256,160,46334,1,0,0:0:0:0:
256,160,46534,1,8,0:0:0:0:
256,160,46734,1,8,0:0:0:0:
256,160,46934,1,8,0:0:0:0:
256,160,47134,1,8,0:0:0:0:
256,160,47334,1,4,0:0:0:0:
256,160,47534,1,8,0:0:0:0:
256,160,47584,1,8,0:0:0:0:
256,160,47634,1,8,0:0:0:0:
256,160,47684,1,8,0:0:0:0:
256,160,47734,1,0,0:0:0:0:
256,160,47834,1,8,0:0:0:0:
256,160,47934,1,0,0:0:0:0:
256,160,48134,1,4,0:0:0:0:
256,160,48234,1,4,0:0:0:0:
256,160,48334,1,8,0:0:0:0:
256,160,48434,1,0,0:0:0:0:
256,160,48534,1,8,0:0:0:0:
256,160,48734,1,8,0:0:0:0:
256,160,48784,1,8,0:0:0:0:
256,160,48834,1,8,0:0:0:0:
256,160,48884,1,8,0:0:0:0:
256,160,48934,1,0,0:0:0:0:
256,160,49134,1,0,0:0:0:0:
256,160,49334,1,8,0:0:0:0:
256,160,49734,1,12,0:0:0:0:
256,160,49934,1,0,0:0:0:0:
256,160,50134,1,8,0:0:0:0:
256,160,50334,1,8,0:0:0:0:
256,160,50534,1,4,0:0:0:0:
256,160,50734,1,8,0:0:0:0:
256,160,50784,1,8,0:0:0:0:
256,160,50834,1,8,0:0:0:0:
256,160,50884,1,8,0:0:0:0:
256,160,50934,1,0,0:0:0:0:
256,160,51034,1,8,0:0:0:0:
256,160,51134,1,0,0:0:0:0:
256,160,51334,1,4,0:0:0:0:
256,160,51434,1,4,0:0:0:0:
256,160,51534,1,8,0:0:0:0:
256,160,51634,1,0,0:0:0:0:
256,160,51734,1,8,0:0:0:0:
256,160,51934,1,8,0:0:0:0:
256,160,51984,1,8,0:0:0:0:
256,160,52034,1,8,0:0:0:0:
256,160,52084,1,8,0:0:0:0:
256,160,52134,1,0,0:0:0:0:
256,160,52334,1,0,0:0:0:0:
256,160,52534,1,8,0:0:0:0:
256,160,52934,1,0,0:0:0:0:
256,160,53734,1,4,0:0:0:0:
256,160,53934,1,0,0:0:0:0:
256,160,54034,1,0,0:0:0:0:
256,160,54134,1,0,0:0:0:0:
256,160,54334,1,8,0:0:0:0:
256,160,54534,1,8,0:0:0:0:
256,160,54634,1,0,0:0:0:0:
256,160,54734,1,0,0:0:0:0:
256,160,54934,1,0,0:0:0:0:
256,160,55034,1,0,0:0:0:0:
256,160,55134,1,8,0:0:0:0:
256,160,55334,1,0,0:0:0:0:
256,160,55534,1,0,0:0:0:0:
256,160,55584,1,0,0:0:0:0:
256,160,55634,1,0,0:0:0:0:
256,160,55684,1,0,0:0:0:0:
256,160,55734,1,8,0:0:0:0:
256,160,55934,1,0,0:0:0:0:
256,160,56134,1,12,0:0:0:0:
256,160,56234,1,0,0:0:0:0:
256,160,56284,1,0,0:0:0:0:
256,160,56334,1,8,0:0:0:0:
256,160,56384,1,8,0:0:0:0:
256,160,56434,1,0,0:0:0:0:
256,160,56534,1,0,0:0:0:0:
256,160,56634,1,8,0:0:0:0:
256,160,56734,1,8,0:0:0:0:
256,160,56834,1,8,0:0:0:0:
256,160,56934,1,4,0:0:0:0:
256,160,57134,1,4,0:0:0:0:
256,160,57334,1,0,0:0:0:0:
256,160,57434,1,0,0:0:0:0:
256,160,57534,1,0,0:0:0:0:
256,160,57734,1,8,0:0:0:0:
256,160,57934,1,8,0:0:0:0:
256,160,58134,1,4,0:0:0:0:
256,160,58334,1,8,0:0:0:0:
256,160,58534,1,4,0:0:0:0:
256,160,58634,1,0,0:0:0:0:
256,160,58734,1,8,0:0:0:0:
256,160,58934,1,0,0:0:0:0:
256,160,59034,1,8,0:0:0:0:
256,160,59134,1,0,0:0:0:0:
256,160,59234,1,8,0:0:0:0:
256,160,59334,1,4,0:0:0:0:
288,160,59534,1,8,0:0:0:0:
288,160,59584,1,8,0:0:0:0:
256,160,59734,1,4,0:0:0:0:
288,160,59934,1,8,0:0:0:0:
288,160,59984,1,8,0:0:0:0:
256,160,60134,1,4,0:0:0:0:
256,160,60334,1,8,0:0:0:0:
256,160,60384,1,8,0:0:0:0:
256,160,60434,1,0,0:0:0:0:
256,160,60484,1,0,0:0:0:0:
256,160,60534,1,0,0:0:0:0:
256,160,60734,1,8,0:0:0:0:
256,160,60934,1,0,0:0:0:0:
256,160,61134,1,8,0:0:0:0:
256,160,61234,1,8,0:0:0:0:
256,160,61334,1,0,0:0:0:0:
256,160,61534,1,8,0:0:0:0:
256,160,61584,1,0,0:0:0:0:
256,160,61634,1,0,0:0:0:0:
256,160,61684,1,0,0:0:0:0:
256,160,61734,1,8,0:0:0:0:
256,160,61934,1,8,0:0:0:0:
256,160,62034,1,0,0:0:0:0:
256,160,62134,1,8,0:0:0:0:
256,160,62167,1,0,0:0:0:0:
256,160,62200,1,0,0:0:0:0:
256,160,62234,1,8,0:0:0:0:
256,160,62334,1,0,0:0:0:0:
256,160,62434,1,0,0:0:0:0:
256,160,62534,1,8,0:0:0:0:
256,160,62734,1,0,0:0:0:0:
256,160,62934,1,8,0:0:0:0:
256,160,63134,1,0,0:0:0:0:
256,160,63334,1,8,0:0:0:0:
256,160,63534,1,0,0:0:0:0:
256,160,63584,1,0,0:0:0:0:
256,160,63634,1,0,0:0:0:0:
256,160,63684,1,0,0:0:0:0:
256,160,63734,1,8,0:0:0:0:
256,160,63934,1,8,0:0:0:0:
256,160,64134,1,8,0:0:0:0:
256,160,64334,1,0,0:0:0:0:
256,160,64384,1,0,0:0:0:0:
256,160,64434,1,0,0:0:0:0:
256,160,64484,1,0,0:0:0:0:
256,160,64534,1,0,0:0:0:0:
256,160,64734,1,0,0:0:0:0:
256,160,64784,1,0,0:0:0:0:
256,160,64834,1,0,0:0:0:0:
256,160,64884,1,0,0:0:0:0:
256,160,64934,1,0,0:0:0:0:
256,160,65034,1,8,0:0:0:0:
256,160,65134,1,0,0:0:0:0:
256,160,65234,1,8,0:0:0:0:
256,160,65734,1,12,0:0:0:0:
352,128,66158,1,8,0:0:0:0:
352,128,66441,1,8,0:0:0:0:
352,128,66866,1,8,0:0:0:0:
352,128,68210,1,8,0:0:0:0:
352,128,68634,1,8,0:0:0:0:
352,128,69696,1,8,0:0:0:0:
352,128,70120,1,8,0:0:0:0:
352,128,70403,1,8,0:0:0:0:
352,128,70828,1,8,0:0:0:0:
352,128,72172,1,8,0:0:0:0:
352,128,72597,1,8,0:0:0:0:
256,160,73658,1,8,0:0:0:0:
352,128,74082,1,8,0:0:0:0:
352,128,74365,1,8,0:0:0:0:
352,128,74790,1,8,0:0:0:0:
352,128,76134,1,8,0:0:0:0:
352,128,76558,1,8,0:0:0:0:
352,128,77620,1,8,0:0:0:0:
352,128,78044,1,8,0:0:0:0:
352,128,78327,1,8,0:0:0:0:
352,128,78611,1,8,0:0:0:0:
352,128,78682,1,8,0:0:0:0:
352,128,78752,1,8,0:0:0:0:
352,128,80096,1,8,0:0:0:0:
352,128,80521,1,8,0:0:0:0:
352,128,81583,1,8,0:0:0:0:
352,128,82290,1,8,0:0:0:0:
352,128,82715,1,8,0:0:0:0:
352,128,83847,1,8,0:0:0:0:
352,128,84271,1,0,0:0:0:0:
352,128,84413,1,8,0:0:0:0:
352,128,84696,1,0,0:0:0:0:
352,128,84979,1,8,0:0:0:0:
352,128,85403,1,0,0:0:0:0:
352,128,85545,1,8,0:0:0:0:
352,128,85828,1,0,0:0:0:0:
352,128,85969,1,0,0:0:0:0:
352,128,86111,1,8,0:0:0:0:
352,128,86394,1,0,0:0:0:0:
352,128,86677,1,8,0:0:0:0:
352,128,86960,1,0,0:0:0:0:
352,128,87243,1,8,0:0:0:0:
352,128,87526,1,0,0:0:0:0:
352,128,87667,1,0,0:0:0:0:
352,128,87809,1,8,0:0:0:0:
352,128,88092,1,0,0:0:0:0:
352,128,88375,1,8,0:0:0:0:
352,128,88658,1,0,0:0:0:0:
352,128,88941,1,8,0:0:0:0:
352,128,89224,1,0,0:0:0:0:
352,128,89507,1,8,0:0:0:0:
352,128,89649,1,0,0:0:0:0:
352,128,89790,1,0,0:0:0:0:
352,128,89932,1,0,0:0:0:0:
352,128,90073,1,8,0:0:0:0:
352,128,90215,1,0,0:0:0:0:
352,128,90356,1,0,0:0:0:0:
352,128,90498,1,0,0:0:0:0:
352,128,90639,1,12,0:0:0:0:
352,128,90922,1,12,0:0:0:0:
352,128,91205,1,12,0:0:0:0:
352,128,91488,1,12,0:0:0:0:
352,128,91771,1,8,0:0:0:0:
352,128,92054,1,8,0:0:0:0:
352,128,92337,1,4,0:0:0:0:
352,128,92479,1,4,0:0:0:0:
352,128,92620,1,4,0:0:0:0:
352,128,92762,1,4,0:0:0:0:
352,128,92903,1,8,0:0:0:0:
352,128,92974,1,8,0:0:0:0:
352,128,93045,1,0,0:0:0:0:
352,128,93116,1,0,0:0:0:0:
352,128,93186,1,8,0:0:0:0:
352,128,93328,1,0,0:0:0:0:
352,128,93469,1,8,0:0:0:0:
352,128,93611,1,0,0:0:0:0:
352,128,93682,1,0,0:0:0:0:
352,128,93752,1,8,0:0:0:0:
352,128,93823,1,8,0:0:0:0:
352,128,93894,1,0,0:0:0:0:
352,128,94035,1,8,0:0:0:0:
352,128,94106,1,0,0:0:0:0:
352,128,94177,1,8,0:0:0:0:
352,128,94248,1,0,0:0:0:0:
352,128,94318,1,8,0:0:0:0:
352,128,94389,1,8,0:0:0:0:
352,128,94460,1,0,0:0:0:0:
352,128,94601,1,8,0:0:0:0:
352,128,94672,1,0,0:0:0:0:
352,128,94743,1,8,0:0:0:0:
352,128,94814,1,0,0:0:0:0:
352,128,94884,1,8,0:0:0:0:
352,128,94955,1,8,0:0:0:0:
352,128,95026,1,0,0:0:0:0:
352,128,95167,1,8,0:0:0:0:
352,128,95238,1,0,0:0:0:0:
352,128,95309,1,8,0:0:0:0:
352,128,95380,1,0,0:0:0:0:
352,128,95450,1,8,0:0:0:0:
352,128,95521,1,8,0:0:0:0:
352,128,95592,1,0,0:0:0:0:
352,128,95733,1,8,0:0:0:0:
352,128,95804,1,0,0:0:0:0:
352,128,95875,1,8,0:0:0:0:
352,128,95946,1,0,0:0:0:0:
352,128,96017,1,8,0:0:0:0:
352,128,96087,1,8,0:0:0:0:
352,128,96158,1,0,0:0:0:0:
352,128,96300,1,8,0:0:0:0:
352,128,96370,1,0,0:0:0:0:
352,128,96441,1,8,0:0:0:0:
352,128,96512,1,0,0:0:0:0:
352,128,96583,1,8,0:0:0:0:
352,128,96653,1,8,0:0:0:0:
352,128,96724,1,0,0:0:0:0:
352,128,96866,1,8,0:0:0:0:
352,128,96936,1,0,0:0:0:0:
352,128,97078,1,0,0:0:0:0:
352,128,97149,1,8,0:0:0:0:
352,128,97219,1,0,0:0:0:0:
352,128,97432,1,4,0:0:0:0:
352,128,97573,1,4,0:0:0:0:
352,128,97715,1,4,0:0:0:0:
352,128,97856,1,4,0:0:0:0:
352,128,97998,1,12,0:0:0:0:
352,128,98281,1,12,0:0:0:0:
352,128,98564,1,8,0:0:0:0:
352,128,98705,1,0,0:0:0:0:
352,128,98776,1,0,0:0:0:0:
352,128,98847,1,8,0:0:0:0:
352,128,98988,1,8,0:0:0:0:
352,128,99130,1,0,0:0:0:0:
352,128,99271,1,0,0:0:0:0:
352,128,99342,1,0,0:0:0:0:
352,128,99413,1,8,0:0:0:0:
352,128,99554,1,8,0:0:0:0:
352,128,99696,1,8,0:0:0:0:
352,128,99837,1,0,0:0:0:0:
352,128,99908,1,0,0:0:0:0:
352,128,99979,1,8,0:0:0:0:
352,128,100120,1,8,0:0:0:0:
352,128,100262,1,0,0:0:0:0:
352,128,100403,1,0,0:0:0:0:
352,128,100474,1,0,0:0:0:0:
352,128,100545,1,8,0:0:0:0:
352,128,100686,1,8,0:0:0:0:
352,128,100828,1,12,0:0:0:0:
352,128,101111,1,12,0:0:0:0:
352,128,101394,1,12,0:0:0:0:
352,128,101677,1,12,0:0:0:0:
352,128,101960,1,4,0:0:0:0:
352,128,102243,1,8,0:0:0:0:
352,128,102384,1,8,0:0:0:0:
352,128,102526,1,0,0:0:0:0:
352,128,102597,1,8,0:0:0:0:
352,128,102667,1,8,0:0:0:0:
352,128,102738,1,0,0:0:0:0:
352,128,102809,1,8,0:0:0:0:
352,128,102950,1,8,0:0:0:0:
352,128,103092,1,0,0:0:0:0:
352,128,103163,1,8,0:0:0:0:
352,128,103233,1,8,0:0:0:0:
352,128,103304,1,0,0:0:0:0:
352,128,103375,1,8,0:0:0:0:
352,128,103517,1,8,0:0:0:0:
352,128,103658,1,0,0:0:0:0:
352,128,103729,1,8,0:0:0:0:
352,128,103800,1,8,0:0:0:0:
352,128,103870,1,0,0:0:0:0:
352,128,103941,1,8,0:0:0:0:
352,128,104083,1,8,0:0:0:0:
352,128,104224,1,0,0:0:0:0:
352,128,104507,1,8,0:0:0:0:
352,128,104649,1,8,0:0:0:0:
352,128,104790,1,8,0:0:0:0:
352,128,104861,1,0,0:0:0:0:
352,128,104932,1,0,0:0:0:0:
352,128,105002,1,0,0:0:0:0:
352,128,105073,1,8,0:0:0:0:
352,128,105215,1,0,0:0:0:0:
352,128,105356,1,8,0:0:0:0:
352,128,105498,1,8,0:0:0:0:
352,128,105568,1,0,0:0:0:0:
352,128,105639,1,0,0:0:0:0:
352,128,105710,1,0,0:0:0:0:
352,128,105781,1,8,0:0:0:0:
352,128,105922,1,0,0:0:0:0:
352,128,106064,1,0,0:0:0:0:
352,128,106134,1,0,0:0:0:0:
352,128,106205,1,8,0:0:0:0:
352,128,106347,1,0,0:0:0:0:
352,128,106488,1,0,0:0:0:0:
352,128,106771,1,8,0:0:0:0:
352,128,106913,1,8,0:0:0:0:
352,128,107054,1,0,0:0:0:0:
352,128,107125,1,8,0:0:0:0:
352,128,107196,1,8,0:0:0:0:
352,128,107267,1,0,0:0:0:0:
352,128,107337,1,8,0:0:0:0:
352,128,107479,1,8,0:0:0:0:
352,128,107620,1,0,0:0:0:0:
352,128,107691,1,8,0:0:0:0:
352,128,107762,1,8,0:0:0:0:
352,128,107833,1,0,0:0:0:0:
352,128,107903,1,8,0:0:0:0:
352,128,108045,1,8,0:0:0:0:
352,128,108186,1,0,0:0:0:0:
352,128,108257,1,8,0:0:0:0:
352,128,108328,1,8,0:0:0:0:
352,128,108399,1,0,0:0:0:0:
352,128,108469,1,8,0:0:0:0:
352,128,108540,1,8,0:0:0:0:
352,128,108611,1,0,0:0:0:0:
352,128,108682,1,0,0:0:0:0:
352,128,108752,1,8,0:0:0:0:
352,128,108894,1,0,0:0:0:0:
352,128,109035,1,8,0:0:0:0:
352,128,109177,1,0,0:0:0:0:
352,128,109318,1,8,0:0:0:0:
352,128,109460,1,0,0:0:0:0:
352,128,109601,1,8,0:0:0:0:
352,128,109743,1,0,0:0:0:0:
352,128,109884,1,8,0:0:0:0:
352,128,110026,1,0,0:0:0:0:
352,128,110167,1,0,0:0:0:0:
352,128,110309,1,0,0:0:0:0:
352,128,110450,1,12,0:0:0:0:
352,128,111017,1,8,0:0:0:0:
352,128,111087,1,8,0:0:0:0:
352,128,111158,1,0,0:0:0:0:
352,128,111229,1,0,0:0:0:0:
352,128,111300,1,8,0:0:0:0:
352,128,111441,1,0,0:0:0:0:
352,128,111583,1,8,0:0:0:0:
352,128,111724,1,0,0:0:0:0:
352,128,111795,1,0,0:0:0:0:
352,128,111866,1,8,0:0:0:0:
352,128,111936,1,8,0:0:0:0:
352,128,112007,1,0,0:0:0:0:
352,128,112149,1,8,0:0:0:0:
352,128,112219,1,0,0:0:0:0:
352,128,112290,1,8,0:0:0:0:
352,128,112361,1,0,0:0:0:0:
352,128,112432,1,8,0:0:0:0:
352,128,112502,1,8,0:0:0:0:
352,128,112573,1,0,0:0:0:0:
352,128,112715,1,8,0:0:0:0:
352,128,112785,1,0,0:0:0:0:
352,128,112856,1,8,0:0:0:0:
352,128,112927,1,0,0:0:0:0:
352,128,112998,1,8,0:0:0:0:
352,128,113068,1,8,0:0:0:0:
352,128,113139,1,0,0:0:0:0:
352,128,113281,1,8,0:0:0:0:
352,128,113351,1,0,0:0:0:0:
352,128,113423,1,8,0:0:0:0:
352,128,113493,1,0,0:0:0:0:
352,128,113564,1,8,0:0:0:0:
352,128,113634,1,8,0:0:0:0:
352,128,113705,1,0,0:0:0:0:
352,128,113847,1,8,0:0:0:0:
352,128,113918,1,0,0:0:0:0:
352,128,113988,1,8,0:0:0:0:
352,128,114059,1,0,0:0:0:0:
352,128,114130,1,8,0:0:0:0:
352,128,114200,1,8,0:0:0:0:
352,128,114271,1,0,0:0:0:0:
352,128,114413,1,8,0:0:0:0:
352,128,114483,1,0,0:0:0:0:
352,128,114554,1,8,0:0:0:0:
352,128,114625,1,0,0:0:0:0:
352,128,114696,1,8,0:0:0:0:
352,128,114767,1,8,0:0:0:0:
352,128,114837,1,0,0:0:0:0:
352,128,114979,1,8,0:0:0:0:
352,128,115050,1,0,0:0:0:0:
352,128,115191,1,0,0:0:0:0:
352,128,115262,1,8,0:0:0:0:
352,128,115333,1,0,0:0:0:0:
352,128,115545,1,4,0:0:0:0:
352,128,115686,1,4,0:0:0:0:
352,128,115828,1,4,0:0:0:0:
352,128,115969,1,4,0:0:0:0:
352,128,116111,1,12,0:0:0:0:
352,128,116394,1,12,0:0:0:0:
352,128,116677,1,8,0:0:0:0:
352,128,116818,1,0,0:0:0:0:
352,128,116889,1,0,0:0:0:0:
352,128,116960,1,8,0:0:0:0:
352,128,117101,1,8,0:0:0:0:
352,128,117243,1,0,0:0:0:0:
352,128,117384,1,0,0:0:0:0:
352,128,117455,1,0,0:0:0:0:
352,128,117526,1,8,0:0:0:0:
352,128,117667,1,8,0:0:0:0:
352,128,117809,1,8,0:0:0:0:
352,128,117950,1,0,0:0:0:0:
352,128,118021,1,0,0:0:0:0:
352,128,118092,1,8,0:0:0:0:
352,128,118234,1,8,0:0:0:0:
352,128,118375,1,0,0:0:0:0:
352,128,118517,1,0,0:0:0:0:
352,128,118587,1,0,0:0:0:0:
352,128,118658,1,8,0:0:0:0:
352,128,118800,1,8,0:0:0:0:
352,128,118941,1,12,0:0:0:0:
352,128,119083,1,0,0:0:0:0:
352,128,119224,1,12,0:0:0:0:
352,128,119366,1,12,0:0:0:0:
352,128,119507,1,0,0:0:0:0:
352,128,120073,1,4,0:0:0:0:
352,128,120356,1,8,0:0:0:0:
352,128,120498,1,0,0:0:0:0:
352,128,120639,1,0,0:0:0:0:
352,128,120781,1,8,0:0:0:0:
352,128,120922,1,0,0:0:0:0:
352,128,121205,1,8,0:0:0:0:
352,128,121347,1,0,0:0:0:0:
352,128,121630,1,8,0:0:0:0:
352,128,121771,1,0,0:0:0:0:
352,128,122054,1,8,0:0:0:0:
352,128,122196,1,0,0:0:0:0:
352,128,122337,1,8,0:0:0:0:
352,128,122620,1,8,0:0:0:0:
352,128,122762,1,0,0:0:0:0:
352,128,123045,1,8,0:0:0:0:
352,128,123186,1,0,0:0:0:0:
352,128,123469,1,8,0:0:0:0:
352,128,123611,1,8,0:0:0:0:
352,128,123752,1,0,0:0:0:0:
352,128,123894,1,8,0:0:0:0:
352,128,124035,1,8,0:0:0:0:
352,128,124318,1,0,0:0:0:0:
352,128,124601,1,0,0:0:0:0:
352,128,124884,1,8,0:0:0:0:
352,128,125026,1,8,0:0:0:0:
352,128,125309,1,0,0:0:0:0:
352,128,125450,1,0,0:0:0:0:
352,128,125733,1,0,0:0:0:0:
352,128,125875,1,8,0:0:0:0:
352,128,126158,1,8,0:0:0:0:
352,128,126300,1,0,0:0:0:0:
352,128,126583,1,0,0:0:0:0:
352,128,126866,1,0,0:0:0:0:
352,128,127149,1,8,0:0:0:0:
352,128,127290,1,8,0:0:0:0:
352,128,127432,1,0,0:0:0:0:
352,128,127573,1,8,0:0:0:0:
352,128,127715,1,8,0:0:0:0:
352,128,127998,1,0,0:0:0:0:
352,128,128139,1,8,0:0:0:0:
352,128,128422,1,8,0:0:0:0:
352,128,128564,1,0,0:0:0:0:
352,128,128847,1,0,0:0:0:0:
352,128,129130,1,4,0:0:0:0:
256,192,129696,12,0,129979,0:0:0:0:
