osu file format v14

[General]
AudioFilename: audio.mp3
AudioLeadIn: 0
PreviewTime: 67273
Countdown: 0
SampleSet: Soft
StackLeniency: 0.7
Mode: 0
LetterboxInBreaks: 0
WidescreenStoryboard: 1

[Editor]
DistanceSpacing: 0.9
BeatDivisor: 4
GridSize: 16
TimelineZoom: 1.4

[Metadata]
Title:Bird Sprite -Awakening of Light-
TitleUnicode:Bird Sprite -Awakening of Light-
Artist:syatten remixed celas
ArtistUnicode:syatten remixed celas
Creator:emu1337
Version:sleepy's Normal
Source:
Tags:electronic instrumental lmt tynamo -tynamo sleepymateo sleepy ratina0 reku bof2011 bga intersection conflict backfire fighters 2011 creation records
BeatmapID:2739859
BeatmapSetID:1321314

[Difficulty]
HPDrainRate:2
CircleSize:3
OverallDifficulty:4
ApproachRate:5
SliderMultiplier:1.2
SliderTickRate:1

[Events]
//Background and Video events
0,0,"bggggg.jpg",0,0
//Break Periods
2,67473,75963
//Storyboard Layer 0 (Background)
//Storyboard Layer 1 (Fail)
//Storyboard Layer 2 (Pass)
//Storyboard Layer 3 (Foreground)
//Storyboard Layer 4 (Overlay)
//Storyboard Sound Samples

[TimingPoints]
1339,329.67032967033,4,2,1,70,1,0
2492,-100,4,2,1,50,0,0
14525,-100,4,2,1,60,0,0
25075,-100,4,2,1,70,0,0
46174,-100,4,2,1,75,0,0
56806,-100,4,2,1,60,0,0
88371,-100,4,2,1,70,0,0
98921,-100,4,2,1,75,0,0
109470,-83.3333333333333,4,2,1,80,0,1
117382,-100,4,2,1,80,0,0
118701,-83.3333333333333,4,2,1,80,0,1
120020,-83.3333333333333,4,2,1,80,0,0

[Colours]
Combo1 : 207,167,226
Combo2 : 167,226,226
Combo3 : 177,203,228
Combo4 : 173,170,227

[HitObjects]
111,79,1668,6,0,B|227:46|227:46|339:90,1,240
390,118,2492,1,4,0:3:0:0:
390,118,2657,2,0,B|422:102|422:102|486:118,2,90,0|0|0,3:0|3:0|3:0,0:0:0:0:
348,152,3317,1,0,0:0:0:0:
348,152,3481,2,0,P|321:196|336:269,1,120,0|0,3:0|0:0,0:0:0:0:
354,309,3976,6,0,L|226:316,1,120,4|8,3:2|3:0,0:0:0:0:
142,372,4635,1,0,3:0:0:0:
37,343,4965,1,8,3:0:0:0:
15,236,5295,2,0,P|36:169|32:100,1,120,0|8,3:0|3:0,0:0:0:0:
61,74,5789,1,0,0:0:0:0:
61,74,5954,2,0,P|128:95|197:91,1,120,0|8,3:0|3:0,0:0:0:0:
257,21,6613,6,0,L|389:32,1,120,0|8,3:0|3:0,0:0:0:0:
476,71,7272,1,0,3:0:0:0:
511,173,7602,1,8,3:0:0:0:
420,231,7932,2,0,P|353:210|284:214,1,120,0|8,3:0|3:0,0:0:0:0:
263,184,8426,1,0,0:0:0:0:
263,184,8591,2,0,P|196:205|127:201,1,120,0|8,3:0|3:0,0:0:0:0:
99,191,9086,1,0,3:0:0:0:
99,191,9251,6,0,P|36:220|4:269,1,120,4|8,3:2|3:0,0:0:0:0:
56,356,9910,1,0,3:0:0:0:
162,375,10240,1,8,3:0:0:0:
234,295,10569,2,0,P|304:298|367:325,1,120,0|8,3:0|3:0,0:0:0:0:
408,311,11064,1,0,0:0:0:0:
408,311,11229,2,0,P|450:255|470:189,1,120,0|8,3:0|3:0,0:0:0:0:
453,101,11888,6,0,L|305:90,1,120,0|8,3:0|3:0,0:0:0:0:
252,20,12547,1,0,3:0:0:0:
162,80,12877,1,8,3:0:0:0:
169,187,13207,2,0,P|205:192|241:191,1,60,0|0,3:0|0:0,0:0:0:0:
272,160,13536,2,0,P|308:160|344:168,1,60,8|0,3:0|0:0,0:0:0:0:
367,204,13866,2,0,L|350:336,1,120,8|14,3:0|3:2,0:0:0:0:
322,369,14360,1,8,3:0:0:0:
322,369,14525,5,6,3:2:0:0:
213,369,14855,2,0,B|181:353|181:353|117:369,2,90,10|2|2,3:2|0:2|0:2,0:0:0:0:
231,318,15514,2,0,P|221:270|232:200,1,120,10|0,3:2|3:2,0:0:0:0:
306,121,16174,2,0,B|338:137|338:137|402:121,2,90,10|2|2,3:2|0:2|0:2,0:0:0:0:
277,75,16833,2,0,L|147:72,1,120,10|0,3:2|3:2,0:0:0:0:
49,87,17492,6,0,B|33:55|33:55|49:-9,2,90,10|2|2,3:2|0:2|0:2,0:0:0:0:
78,131,18151,2,0,P|122:164|145:225,1,120,10|0,3:2|3:2,0:0:0:0:
183,324,18811,2,0,B|215:308|215:308|267:321,2,90,10|2|2,3:2|0:2|0:2,0:0:0:0:
143,361,19470,2,0,P|106:355|68:334,1,60,10|0,3:2|3:0,0:0:0:0:
43,311,19800,5,0,3:2:0:0:
81,209,20130,2,0,B|113:193|113:193|177:209,1,90,10|2,3:2|0:2,0:0:0:0:
240,249,20624,1,2,0:2:0:0:
240,249,20789,2,0,P|288:217|356:202,1,120,10|0,3:2|3:2,0:0:0:0:
442,255,21448,2,0,B|458:287|458:287|442:351,1,90,10|2,3:2|0:2,0:0:0:0:
377,383,21943,1,2,0:2:0:0:
377,383,22108,2,0,L|236:375,1,120,10|0,3:2|3:2,0:0:0:0:
166,317,22767,6,0,B|150:285|150:285|166:221,1,90,10|2,3:2|0:2,0:0:0:0:
164,155,23261,1,2,0:2:0:0:
164,155,23426,2,0,P|228:154|299:117,1,120,10|0,3:2|3:2,0:0:0:0:
345,46,24086,1,10,3:2:0:0:
450,66,24415,1,2,3:2:0:0:
489,166,24745,1,10,3:2:0:0:
441,263,25075,6,0,P|380:245|320:249,1,120,6|10,3:2|3:2,0:0:0:0:
286,286,25569,1,0,0:0:0:0:
286,286,25734,2,0,L|163:279,1,120,2|10,3:2|3:2,0:0:0:0:
61,251,26393,2,0,P|22:158|49:83,1,180,2|2,3:2|0:2,0:0:0:0:
96,63,27053,1,2,3:2:0:0:
96,63,27218,2,0,P|162:71|227:42,1,120,2|2,0:2|0:2,0:0:0:0:
259,29,27712,6,0,L|387:53,1,120,2|8,3:2|3:2,0:0:0:0:
474,98,28371,1,2,3:2:0:0:
497,203,28701,1,10,3:2:0:0:
407,264,29031,2,0,P|346:228|333:176,1,120,2|8,3:2|3:2,0:0:0:0:
283,87,29690,2,0,L|214:78,1,60,2|2,3:2|0:2,0:0:0:0:
183,115,30020,2,0,L|114:124,1,60,10|2,3:2|3:2,0:0:0:0:
80,90,30349,6,0,P|36:125|27:193,1,120,6|8,3:2|3:2,0:0:0:0:
53,290,31009,1,2,3:2:0:0:
145,345,31339,1,10,3:2:0:0:
249,320,31668,2,0,L|253:193,1,120,2|8,3:2|3:2,0:0:0:0:
196,107,32328,1,2,3:2:0:0:
269,27,32657,1,10,3:2:0:0:
377,26,32987,6,0,P|443:46|484:77,1,120,2|8,3:2|3:2,0:0:0:0:
500,132,33481,1,2,0:2:0:0:
500,132,33646,2,0,P|488:188|505:258,1,120,2|10,3:2|3:2,0:0:0:0:
448,343,34306,1,2,3:2:0:0:
340,331,34635,1,10,3:2:0:0:
287,236,34965,1,2,3:2:0:0:
348,146,35295,2,0,P|348:112|339:84,1,60,14|2,3:2|3:2,0:0:0:0:
311,41,35624,6,0,L|167:55,1,120,6|10,3:2|3:2,0:0:0:0:
84,33,36284,1,2,3:2:0:0:
12,113,36613,1,10,3:2:0:0:
47,215,36943,2,0,P|107:233|222:187,1,180,2|2,3:2|0:2,0:0:0:0:
252,157,37602,1,2,3:2:0:0:
252,157,37767,2,0,P|309:148|370:183,1,120,2|2,0:2|0:2,0:0:0:0:
393,220,38262,6,0,L|388:359,1,120,2|8,3:2|3:2,0:0:0:0:
289,382,38921,1,2,3:2:0:0:
186,348,39251,1,10,3:2:0:0:
121,261,39580,2,0,P|137:203|186:162,1,120,2|8,3:2|3:2,0:0:0:0:
221,128,40075,1,0,0:0:0:0:
221,128,40240,2,0,B|237:96|237:96|221:32,2,90,2|2|2,3:2|0:2|3:2,0:0:0:0:
249,173,40899,6,0,P|312:200|381:187,1,120,6|8,3:2|3:2,0:0:0:0:
469,193,41558,1,2,3:2:0:0:
502,295,41888,1,10,3:2:0:0:
422,368,42218,2,0,L|299:361,1,120,2|8,3:2|3:2,0:0:0:0:
252,370,42712,1,0,0:0:0:0:
252,370,42877,1,2,3:2:0:0:
179,289,43207,1,10,3:2:0:0:
239,199,43536,6,0,L|318:196,1,60,2|2,3:2|3:2,0:0:0:0:
356,211,43866,1,10,3:2:0:0:
356,211,44031,2,0,P|404:164|410:102,1,120,2|2,3:2|3:2,0:0:0:0:
382,68,44525,1,10,3:2:0:0:
382,68,44690,1,2,3:2:0:0:
256,192,44855,12,6,46174,3:2:0:0:
111,279,46833,6,0,B|79:263|79:263|15:279,2,90,2|2|2,3:2|0:2|0:2,0:0:0:0:
158,305,47492,2,0,L|288:298,1,120,0|8,3:0|3:2,0:0:0:0:
379,335,48152,1,0,3:0:0:0:
460,264,48481,1,8,3:2:0:0:
452,156,48811,2,0,P|363:120|279:133,1,180,2|2,3:2|0:2,0:0:0:0:
231,150,49470,2,0,B|215:182|215:182|231:246,2,90,2|2|2,3:2|0:2|0:2,0:0:0:0:
213,98,50130,6,0,P|167:54|98:44,1,120,0|8,3:0|3:2,0:0:0:0:
14,86,50789,1,0,3:0:0:0:
3,193,51119,1,10,3:2:0:0:
75,273,51448,2,0,B|91:305|91:305|75:369,2,90,6|2|2,3:2|0:2|0:2,0:0:0:0:
101,225,52108,2,0,B|85:193|85:193|101:129,2,90,2|2|2,3:2|0:2|0:2,0:0:0:0:
151,244,52767,6,0,L|282:228,1,120,0|8,3:0|3:2,0:0:0:0:
367,182,53426,1,0,3:0:0:0:
462,231,53756,1,8,3:2:0:0:
446,337,54086,2,0,P|355:353|274:313,1,180,2|2,3:2|0:2,0:0:0:0:
244,274,54745,2,0,B|212:258|212:258|148:274,2,90,2|2|2,3:2|0:2|0:2,0:0:0:0:
281,235,55404,6,0,P|330:197|347:139,1,120,0|8,3:0|3:2,0:0:0:0:
320,38,56063,1,0,3:0:0:0:
215,10,56393,1,10,3:2:0:0:
120,63,56723,2,0,B|87:79|87:79|23:63,2,90,6|2|2,3:2|0:2|0:2,0:0:0:0:
163,94,57382,2,0,B|179:126|179:126|163:190,2,90,2|2|2,0:2|0:2|0:2,0:0:0:0:
163,94,59360,6,0,P|249:69|340:112,1,180,2|2,0:2|0:2,0:0:0:0:
362,145,60020,2,0,B|394:161|394:161|458:145,2,90,2|2|2,0:2|0:2|0:2,0:0:0:0:
362,145,61998,6,0,B|330:129|330:129|266:145,2,90,6|2|2,0:2|0:2|0:2,0:0:0:0:
413,127,62657,2,0,B|429:95|429:95|413:31,2,90,2|2|2,0:2|0:2|0:2,0:0:0:0:
413,127,64635,6,0,P|348:182|340:272,1,180,6|2,0:2|0:2,0:0:0:0:
386,299,65295,2,0,B|418:283|418:283|482:299,2,90,6|2|2,0:2|0:2|0:2,0:0:0:0:
360,346,65954,6,0,L|230:334,1,120,6|8,3:2|3:0,0:0:0:0:
197,313,66448,1,0,0:0:0:0:
197,313,66613,2,0,P|213:263|211:195,1,120,4|2,0:3|0:0,0:0:0:0:
153,104,67273,1,6,3:2:0:0:
224,272,77163,6,0,L|218:207,1,60,2|2,0:0|0:0,0:0:0:0:
253,171,77492,2,0,L|259:106,1,60,2|2,0:0|0:0,0:0:0:0:
221,71,77822,6,0,P|157:58|93:77,1,120,6|2,3:2|0:2,0:0:0:0:
29,148,78481,1,2,0:2:0:0:
25,256,78811,1,2,0:2:0:0:
91,341,79141,2,0,L|221:345,1,120,2|2,0:2|0:2,0:0:0:0:
268,359,79635,1,2,0:2:0:0:
268,359,79800,2,0,P|298:317|378:300,1,120,2|2,0:2|0:2,0:0:0:0:
462,259,80459,6,0,L|466:129,1,120,2|2,0:2|0:2,0:0:0:0:
424,38,81118,1,2,0:2:0:0:
318,16,81448,1,2,0:2:0:0:
213,44,81778,2,0,P|194:96|203:172,1,120,2|2,0:2|0:2,0:0:0:0:
231,209,82272,1,2,0:2:0:0:
231,209,82437,2,0,L|365:201,1,120,2|2,0:2|0:2,0:0:0:0:
446,252,83097,6,0,P|421:318|376:343,1,120,2|2,0:2|0:2,0:0:0:0:
273,326,83756,1,2,0:2:0:0:
169,357,84086,1,2,0:2:0:0:
63,334,84416,2,0,L|55:205,1,120,2|2,0:2|0:2,0:0:0:0:
36,169,84910,1,2,0:2:0:0:
36,169,85075,2,0,P|75:139|160:137,1,120,2|2,0:2|0:2,0:0:0:0:
223,204,85734,6,0,L|366:222,1,120,2|0,0:2|0:0,0:0:0:0:
447,193,86393,1,2,0:2:0:0:
466,86,86723,1,2,0:2:0:0:
378,22,87053,2,0,P|321:29|271:77,1,120,2|2,0:2|0:2,0:0:0:0:
255,121,87547,1,2,0:2:0:0:
255,121,87712,2,0,L|266:242,1,120,2|2,0:2|0:2,0:0:0:0:
337,321,88371,6,0,P|395:325|454:367,2,120,6|10|2,3:2|3:2|3:2,0:0:0:0:
235,358,89360,1,10,3:2:0:0:
127,369,89690,2,0,P|78:329|57:269,1,120,2|10,3:2|3:2,0:0:0:0:
106,180,90349,2,0,L|120:41,1,120,2|10,3:2|3:2,0:0:0:0:
160,25,90844,1,2,0:2:0:0:
160,25,91009,6,0,P|217:18|301:32,1,120,2|8,3:2|3:2,0:0:0:0:
383,53,91668,1,2,3:2:0:0:
474,130,91998,1,10,3:2:0:0:
474,130,92163,1,2,0:2:0:0:
474,130,92328,2,0,P|451:193|455:266,1,120,2|10,3:2|3:2,0:0:0:0:
425,350,92987,2,0,L|286:343,1,120,2|10,3:2|3:2,0:0:0:0:
270,309,93481,1,2,0:2:0:0:
270,309,93646,6,0,P|202:310|155:343,2,120,2|10|2,3:2|3:2|3:2,0:0:0:0:
352,239,94635,1,10,3:2:0:0:
411,148,94965,2,0,L|402:22,1,120,2|10,3:2|3:2,0:0:0:0:
294,20,95624,2,0,P|225:41|168:29,1,120,2|10,3:2|3:2,0:0:0:0:
130,23,96119,1,2,0:2:0:0:
130,23,96284,6,0,P|74:21|11:63,1,120,2|8,3:2|3:2,0:0:0:0:
8,160,96943,1,2,3:2:0:0:
71,260,97273,1,10,3:2:0:0:
71,260,97438,1,2,0:2:0:0:
71,260,97602,2,0,L|144:264,1,60,6|0,3:2|0:0,0:0:0:0:
166,222,97932,2,0,P|223:201|287:221,1,120,10|6,3:2|3:2,0:0:0:0:
357,305,98591,1,14,3:2:0:0:
357,305,98756,1,2,3:2:0:0:
357,305,98921,6,0,L|481:323,2,120,6|8|0,3:2|3:2|3:0,0:0:0:0:
257,347,99910,1,8,3:2:0:0:
174,276,100240,2,0,P|176:206|216:158,1,120,2|8,3:2|3:2,0:0:0:0:
311,152,100899,2,0,L|300:25,1,120,2|10,3:2|3:2,0:0:0:0:
252,22,101394,1,2,0:2:0:0:
252,22,101559,6,0,P|185:16|114:30,1,120,2|8,3:2|3:2,0:0:0:0:
43,84,102218,1,2,3:2:0:0:
34,199,102548,1,8,3:2:0:0:
34,199,102713,1,0,0:0:0:0:
34,199,102878,2,0,L|48:321,1,120,2|10,3:2|3:2,0:0:0:0:
143,368,103537,2,0,P|196:359|277:371,1,120,2|10,3:2|3:2,0:0:0:0:
313,344,104031,1,0,0:0:0:0:
313,344,104196,6,0,L|443:328,2,120,2|8|2,3:2|3:2|3:2,0:0:0:0:
235,268,105185,1,8,3:2:0:0:
184,172,105515,2,0,P|217:117|293:90,1,120,2|8,3:2|3:2,0:0:0:0:
373,96,106174,2,0,L|388:226,1,120,2|8,3:2|3:2,0:0:0:0:
405,266,106669,1,2,0:2:0:0:
364,299,106833,5,2,3:2:0:0:
364,299,106998,2,0,P|297:276|235:287,1,120,2|2,3:2|3:2,0:0:0:0:
178,364,107657,2,0,P|108:350|61:310,1,120,2|2,3:2|3:2,0:0:0:0:
76,267,108152,6,0,B|108:251|108:251|172:267,2,90,6|0|2,3:2|3:0|3:2,0:0:0:0:
28,240,108811,2,0,P|12:185|20:103,1,120,2|14,0:2|3:2,0:0:0:0:
20,72,109306,1,6,3:2:0:0:
20,72,109470,5,6,3:2:0:0:
129,2,109800,1,10,3:2:0:0:
246,56,110130,2,0,L|411:43,1,143.999995605469,2|10,3:2|3:2,0:0:0:0:
450,17,110624,1,2,0:2:0:0:
450,17,110789,1,2,3:2:0:0:
506,133,111119,2,0,P|485:200|415:248,1,143.999995605469,10|2,3:2|3:2,0:0:0:0:
309,224,111778,1,10,3:2:0:0:
309,224,111943,1,2,0:2:0:0:
309,224,112108,5,2,3:2:0:0:
198,155,112438,1,10,3:2:0:0:
72,188,112768,2,0,P|52:246|68:331,1,143.999995605469,2|10,3:2|3:2,0:0:0:0:
128,357,113262,1,2,0:2:0:0:
128,357,113426,1,6,3:2:0:0:
249,309,113757,2,0,L|408:299,1,143.999995605469,10|2,3:2|3:2,0:0:0:0:
496,220,114416,1,10,3:2:0:0:
496,220,114581,1,2,0:2:0:0:
496,220,114745,5,6,3:2:0:0:
459,87,115075,1,10,3:2:0:0:
344,26,115405,2,0,P|269:44|194:33,1,143.999995605469,2|10,3:2|3:2,0:0:0:0:
143,27,115899,1,2,0:2:0:0:
143,27,116064,1,2,3:2:0:0:
16,57,116394,2,0,L|28:207,1,143.999995605469,10|2,3:2|3:2,0:0:0:0:
63,325,117053,2,0,P|99:328|142:345,1,71.9999978027344,10|2,3:2|0:2,0:0:0:0:
190,349,117382,5,6,3:2:0:0:
190,349,117547,2,0,L|200:226,1,120,2|2,3:2|3:2,0:0:0:0:
304,201,118207,2,0,L|289:72,1,120,2|2,3:2|3:2,0:0:0:0:
251,29,118701,2,0,B|216:46|216:46|147:29,2,107.999996704102,6|2|2,3:2|0:2|3:2,0:0:0:0:
313,5,119360,1,6,3:2:0:0:
313,5,119525,2,0,P|383:18|449:78,1,143.999995605469,2|2,3:2|3:2,0:0:0:0:
467,121,120020,5,6,3:2:0:0:
