osu file format v14

[General]
AudioFilename: audio.mp3
AudioLeadIn: 0
PreviewTime: 67273
Countdown: 0
SampleSet: Soft
StackLeniency: 0.7
Mode: 0
LetterboxInBreaks: 0
WidescreenStoryboard: 1

[Editor]
DistanceSpacing: 1.3
BeatDivisor: 4
GridSize: 8
TimelineZoom: 2.4

[Metadata]
Title:Bird Sprite -Awakening of Light-
TitleUnicode:Bird Sprite -Awakening of Light-
Artist:syatten remixed celas
ArtistUnicode:syatten remixed celas
Creator:emu1337
Version:LMT's Extra
Source:
Tags:electronic instrumental lmt tynamo -tynamo sleepymateo sleepy ratina0 reku bof2011 bga intersection conflict backfire fighters 2011 creation records
BeatmapID:2741605
BeatmapSetID:1321314

[Difficulty]
HPDrainRate:6
CircleSize:5
OverallDifficulty:8
ApproachRate:8
SliderMultiplier:1.8
SliderTickRate:1

[Events]
//Background and Video events
0,0,"bggggg.jpg",0,0
//Break Periods
2,56923,61248
2,67472,76413
//Storyboard Layer 0 (Background)
//Storyboard Layer 1 (Fail)
//Storyboard Layer 2 (Pass)
//Storyboard Layer 3 (Foreground)
//Storyboard Layer 4 (Overlay)
//Storyboard Sound Samples

[TimingPoints]
1339,329.67032967033,4,2,1,70,1,0
2492,-100,4,2,1,50,0,0
3976,-125,4,2,1,50,0,0
13207,-66.6666666666667,4,2,1,50,0,0
14525,-100,4,2,1,60,0,0
25075,-100,4,2,1,70,0,0
46174,-100,4,2,1,75,0,0
56806,-100,4,2,1,60,0,0
66943,-66.6666666666667,4,2,1,60,0,0
67273,-125,4,2,1,60,0,0
88371,-100,4,2,1,70,0,0
97602,-200,4,2,1,70,0,0
97932,-66.6666666666667,4,2,1,70,0,0
98921,-100,4,2,1,75,0,0
109470,-80,4,2,1,80,0,1
112437,-100,4,2,1,80,0,1
117382,-80,4,2,1,80,0,0
118701,-80,4,2,1,80,0,1
120020,-80,4,2,1,80,0,0

[Colours]
Combo1 : 207,167,226
Combo2 : 167,226,226
Combo3 : 177,203,228
Combo4 : 173,170,227

[HitObjects]
86,167,2492,6,0,L|75:127,3,30,4|4|4|0,0:3|0:3|0:3|3:0,0:0:0:0:
208,232,2904,1,0,3:0:0:0:
338,178,3152,1,0,3:0:0:0:
356,78,3399,5,0,3:0:0:0:
356,78,3481,1,0,3:0:0:0:
287,60,3646,5,0,3:0:0:0:
287,60,3729,1,0,3:0:0:0:
337,281,3893,5,0,3:0:0:0:
337,281,3976,2,0,L|489:246,1,144,4|8,3:2|3:0,0:0:0:0:
489,314,4470,2,0,L|460:381,1,72,0|0,0:0|3:0,0:0:0:0:
176,262,4800,6,0,L|87:251,1,72,0|8,0:0|3:0,0:0:0:0:
93,184,5130,2,0,L|3:173,1,72,0|0,0:0|3:0,0:0:0:0:
347,66,5459,6,0,L|428:44,1,72,0|8,0:0|3:0,0:0:0:0:
439,118,5789,2,0,L|510:94,1,72,0|0,0:0|3:0,0:0:0:0:
281,180,6119,5,0,0:0:0:0:
221,215,6284,1,8,3:0:0:0:
222,150,6448,1,0,0:0:0:0:
222,150,6531,1,0,0:0:0:0:
222,150,6613,1,0,3:0:0:0:
167,56,6778,6,0,L|89:48,1,72,0|8,0:0|3:0,0:0:0:0:
46,124,7108,2,0,L|-9:190,1,72,0|0,0:0|3:0,0:0:0:0:
285,74,7437,6,0,L|377:61,1,72,0|8,0:0|3:0,0:0:0:0:
374,151,7767,2,0,L|428:218,1,72,0|0,0:0|3:0,0:0:0:0:
161,354,8097,6,0,L|72:349,1,72,0|8,0:0|3:0,0:0:0:0:
300,300,8426,2,0,L|392:282,1,72,0|0,0:0|3:0,0:0:0:0:
257,236,8756,5,0,0:0:0:0:
160,222,8921,1,8,3:0:0:0:
63,205,9086,1,0,3:0:0:0:
63,205,9168,1,0,3:0:0:0:
63,205,9251,1,4,3:2:0:0:
138,152,9415,6,0,L|129:77,1,72,0|8,0:0|3:0,0:0:0:0:
204,49,9745,2,0,B|238:56|238:56|205:89,1,72,0|0,0:0|3:0,0:0:0:0:
370,219,10075,6,0,L|355:300,1,72,0|8,0:0|3:0,0:0:0:0:
420,347,10404,2,0,P|446:351|435:315,1,72,0|0,0:0|3:0,0:0:0:0:
235,244,10734,6,0,L|146:255,1,72,0|8,0:0|3:0,0:0:0:0:
94,282,11064,2,0,B|79:267|61:266|61:266|82:253|94:222,1,72,0|0,0:0|3:0,0:0:0:0:
314,109,11393,5,0,0:0:0:0:
400,159,11558,1,8,3:0:0:0:
462,96,11723,1,0,0:0:0:0:
462,96,11806,2,0,L|468:41,1,36,2|0,0:0|3:0,0:0:0:0:
309,113,12053,5,0,0:0:0:0:
212,100,12218,1,8,3:0:0:0:
121,85,12382,1,0,0:0:0:0:
121,85,12465,2,0,L|69:75,1,36,2|0,0:0|3:0,0:0:0:0:
213,106,12712,5,2,0:0:0:0:
242,200,12877,1,8,3:0:0:0:
267,287,13042,1,0,0:0:0:0:
267,287,13124,1,2,0:0:0:0:
267,287,13207,6,0,B|241:283|241:283|160:313|160:313|116:311,1,135.000005149842,0|0,3:0|0:0,0:0:0:0:
45,303,13536,1,8,3:0:0:0:
337,356,13784,5,2,0:0:0:0:
337,356,13867,1,8,3:0:0:0:
401,300,14031,1,10,3:2:0:0:
424,281,14113,1,2,3:2:0:0:
447,263,14196,1,14,3:2:0:0:
329,220,14360,1,8,3:0:0:0:
203,186,14525,6,0,L|14:142,1,180,6|10,3:2|3:2,0:0:0:0:
0,83,15020,1,0,0:0:0:0:
0,83,15102,1,2,0:2:0:0:
135,4,15349,5,2,0:2:0:0:
135,4,15432,1,2,0:2:0:0:
135,4,15514,1,10,3:2:0:0:
135,4,15597,1,2,0:2:0:0:
206,76,15762,1,2,0:2:0:0:
206,76,15844,1,0,3:2:0:0:
289,54,16009,5,0,0:0:0:0:
374,83,16174,1,10,3:2:0:0:
462,123,16339,1,0,0:0:0:0:
462,123,16421,1,2,0:2:0:0:
370,174,16668,5,2,0:2:0:0:
370,174,16751,1,2,0:2:0:0:
370,174,16833,1,10,3:2:0:0:
370,174,16915,1,2,0:2:0:0:
328,257,17080,1,2,0:2:0:0:
328,257,17163,1,0,3:2:0:0:
279,340,17328,5,0,0:0:0:0:
195,362,17492,1,10,3:2:0:0:
135,296,17657,1,0,0:0:0:0:
135,296,17740,1,2,0:2:0:0:
199,186,17987,5,2,0:2:0:0:
199,186,18069,1,2,0:2:0:0:
199,186,18152,1,10,3:2:0:0:
199,186,18234,1,2,0:2:0:0:
277,144,18399,1,2,0:2:0:0:
277,144,18481,1,0,3:2:0:0:
270,228,18646,5,0,0:0:0:0:
392,207,18811,1,10,3:2:0:0:
510,188,18976,1,0,0:0:0:0:
510,188,19058,1,2,0:2:0:0:
441,106,19306,5,2,0:2:0:0:
441,106,19388,1,2,0:2:0:0:
441,106,19470,1,10,3:2:0:0:
441,106,19553,1,2,0:2:0:0:
369,54,19718,5,2,0:2:0:0:
369,54,19800,2,0,L|173:43,1,180,0|10,3:2|3:2,0:0:0:0:
103,36,20295,1,0,0:0:0:0:
103,36,20377,1,2,0:2:0:0:
15,155,20624,5,2,0:2:0:0:
15,155,20707,1,2,0:2:0:0:
15,155,20789,1,10,3:2:0:0:
15,155,20871,1,2,0:2:0:0:
81,229,21036,1,2,0:2:0:0:
81,229,21119,1,0,3:2:0:0:
132,153,21284,5,0,0:0:0:0:
207,211,21448,1,10,3:2:0:0:
293,177,21613,1,0,0:0:0:0:
293,177,21696,1,2,0:2:0:0:
407,263,21943,5,2,0:2:0:0:
407,263,22025,1,2,0:2:0:0:
407,263,22108,1,10,3:2:0:0:
407,263,22190,1,2,0:2:0:0:
470,193,22355,1,2,0:2:0:0:
470,193,22437,1,0,3:2:0:0:
425,66,22602,5,0,0:0:0:0:
344,23,22767,1,10,3:2:0:0:
249,105,22932,1,0,0:0:0:0:
249,105,23014,1,2,0:2:0:0:
95,66,23262,5,2,0:2:0:0:
95,66,23344,1,2,0:2:0:0:
95,66,23426,1,10,3:2:0:0:
95,66,23509,1,2,0:2:0:0:
181,31,23674,1,2,0:2:0:0:
181,31,23756,1,0,3:2:0:0:
498,186,24086,5,10,3:2:0:0:
256,368,24415,1,2,3:2:0:0:
20,186,24745,1,10,3:2:0:0:
52,173,24828,1,0,3:0:0:0:
86,196,24910,1,0,3:0:0:0:
121,176,24992,1,0,3:0:0:0:
154,193,25075,6,0,B|170:192|170:192|296:252|296:252|333:245,1,180,6|10,3:2|3:2,0:0:0:0:
368,76,25569,1,2,0:0:0:0:
368,76,25652,1,2,0:0:0:0:
368,76,25734,1,2,3:2:0:0:
282,109,25899,1,0,0:0:0:0:
418,196,26064,2,0,L|409:302,1,90,10|0,3:2|0:0,0:0:0:0:
493,235,26393,2,0,L|510:39,1,180,2|8,3:2|3:2,0:0:0:0:
322,356,26888,5,2,0:2:0:0:
232,332,27053,1,2,3:2:0:0:
142,310,27218,2,0,B|125:309|125:309|52:346,1,90,2|8,0:2|3:2,0:0:0:0:
245,211,27547,5,2,0:2:0:0:
216,207,27630,1,2,0:2:0:0:
183,203,27712,2,0,B|124:196|124:196|112:199|112:199|-14:185,2,180,2|8|2,3:2|3:2|3:2,0:0:0:0:
338,220,28536,1,2,0:0:0:0:
338,220,28619,1,2,0:0:0:0:
338,220,28701,1,10,3:2:0:0:
433,229,28866,1,0,0:0:0:0:
492,159,29031,2,0,B|457:9|457:9|430:63,1,180,2|8,3:2|3:2,0:0:0:0:
189,95,29690,5,2,3:2:0:0:
109,131,29855,1,2,0:2:0:0:
6,15,30020,1,10,3:2:0:0:
130,41,30185,1,2,3:2:0:0:
173,207,30349,6,0,L|144:397,2,180,6|8|2,3:2|3:2|3:2,0:0:0:0:
260,168,31174,1,2,0:0:0:0:
260,168,31256,1,2,0:0:0:0:
260,168,31339,2,0,L|239:293,1,90,10|0,3:2|0:0,0:0:0:0:
53,315,31668,6,0,L|257:334,1,180,2|8,3:2|3:2,0:0:0:0:
321,340,32163,1,2,0:0:0:0:
321,340,32245,1,2,0:0:0:0:
321,340,32328,1,2,3:2:0:0:
408,351,32492,1,0,0:0:0:0:
496,363,32657,1,10,3:2:0:0:
459,130,32987,5,2,3:2:0:0:
383,78,33152,1,0,0:0:0:0:
377,168,33317,1,8,3:2:0:0:
463,122,33481,5,2,0:2:0:0:
469,110,33564,1,2,0:2:0:0:
476,98,33646,1,2,3:2:0:0:
308,55,33811,1,2,0:2:0:0:
165,21,33976,5,10,3:2:0:0:
170,54,34058,1,2,0:2:0:0:
175,87,34140,1,2,0:2:0:0:
181,120,34223,1,2,0:2:0:0:
186,154,34305,1,2,3:2:0:0:
108,219,34470,1,2,0:2:0:0:
108,219,34553,1,2,0:2:0:0:
22,173,34718,1,2,0:0:0:0:
22,173,34800,1,2,0:2:0:0:
104,125,34965,5,2,3:2:0:0:
195,163,35130,1,2,0:2:0:0:
275,207,35295,1,14,3:2:0:0:
352,251,35459,1,2,3:2:0:0:
423,298,35624,6,0,B|439:306|439:306|513:291,1,90,6|0,3:2|0:0,0:0:0:0:
349,327,35954,2,0,L|237:352,1,90,10|0,3:2|0:0,0:0:0:0:
315,86,36284,2,0,B|331:97|331:97|365:287,1,180,2|10,3:2|3:2,0:0:0:0:
414,167,36778,1,2,0:0:0:0:
414,167,36860,1,2,0:0:0:0:
414,167,36943,2,0,B|427:147|427:147|237:196,1,180,2|8,3:2|3:2,0:0:0:0:
137,249,37437,5,2,0:2:0:0:
20,192,37602,1,2,3:2:0:0:
142,86,37767,2,0,L|248:66,1,90,2|8,0:2|3:2,0:0:0:0:
303,52,38097,5,2,0:2:0:0:
327,22,38179,1,2,0:2:0:0:
352,48,38262,2,0,B|411:112|411:112|490:43,1,180,2|8,3:2|3:2,0:0:0:0:
256,194,38756,5,2,0:0:0:0:
256,194,38839,1,2,0:0:0:0:
256,194,38921,2,0,L|256:386,1,180,2|10,3:2|3:2,0:0:0:0:
61,208,39580,6,0,B|156:202|156:202|122:289,1,180,2|8,3:2|3:2,0:0:0:0:
28,301,40075,1,0,0:0:0:0:
95,371,40240,5,2,3:2:0:0:
251,300,40487,5,2,0:2:0:0:
423,362,40734,5,2,3:2:0:0:
423,362,40817,1,2,0:0:0:0:
423,362,40899,1,6,3:2:0:0:
482,293,41064,1,0,0:0:0:0:
411,231,41229,1,8,3:2:0:0:
345,301,41393,1,2,0:0:0:0:
345,301,41476,1,2,0:0:0:0:
345,301,41558,5,2,3:2:0:0:
412,221,41723,1,0,0:0:0:0:
332,158,41888,1,10,3:2:0:0:
269,226,42053,1,2,0:0:0:0:
269,226,42135,1,2,0:0:0:0:
269,226,42218,2,0,B|246:206|246:206|271:86|271:86|241:68,1,180,2|8,3:2|3:2,0:0:0:0:
22,204,42877,6,0,L|20:308,1,90,2|0,3:2|0:0,0:0:0:0:
250,292,43207,2,0,L|248:396,1,90,10|0,3:2|0:0,0:0:0:0:
472,216,43536,1,2,3:2:0:0:
393,196,43701,5,2,3:2:0:0:
393,196,43784,1,0,3:0:0:0:
393,196,43866,1,10,3:2:0:0:
258,154,44031,1,2,3:2:0:0:
258,154,44113,1,0,3:0:0:0:
258,154,44196,1,2,3:2:0:0:
260,35,44360,1,2,3:2:0:0:
260,35,44443,1,0,3:0:0:0:
260,35,44525,1,10,3:2:0:0:
384,5,44690,1,2,3:2:0:0:
384,5,44773,1,2,3:2:0:0:
384,5,44855,1,6,3:2:0:0:
148,121,45102,5,6,3:2:0:0:
148,121,45185,1,10,3:2:0:0:
62,79,45349,1,6,3:2:0:0:
17,155,45514,1,0,3:0:0:0:
17,155,45597,1,2,3:2:0:0:
231,304,45844,5,10,3:2:0:0:
270,294,45926,1,2,3:2:0:0:
306,317,46009,1,2,3:2:0:0:
353,302,46091,1,2,3:2:0:0:
388,326,46174,6,0,L|498:318,1,90,6|0,3:2|0:0,0:0:0:0:
505,302,46421,1,2,0:2:0:0:
426,167,46668,5,2,0:2:0:0:
426,167,46751,1,0,3:0:0:0:
426,167,46833,2,0,L|320:184,1,90,2|0,3:2|3:0,0:0:0:0:
312,163,47080,2,0,L|251:176,1,45,2|0,0:2|0:2,0:0:0:0:
229,113,47328,5,2,0:2:0:0:
166,80,47492,2,0,L|117:92,2,45,0|0|0,3:0|0:0|0:0,0:0:0:0:
75,137,47822,2,0,L|22:150,2,45,8|0|0,3:2|0:0|0:0,0:0:0:0:
145,164,48069,5,0,3:0:0:0:
145,164,48152,1,0,3:0:0:0:
163,230,48317,1,0,3:0:0:0:
180,295,48481,1,8,3:2:0:0:
284,47,48811,5,2,3:2:0:0:
284,47,48893,1,2,0:2:0:0:
338,90,49058,2,0,L|471:71,1,135,2|2,0:2|0:2,0:0:0:0:
506,136,49470,6,0,L|408:153,1,90,2|0,3:2|3:0,0:0:0:0:
426,165,49718,2,0,L|366:178,1,45,2|0,0:2|0:2,0:0:0:0:
294,176,49965,2,0,L|308:283,1,90,2|0,0:2|3:0,0:0:0:0:
247,309,50295,5,0,0:0:0:0:
247,309,50377,2,0,L|228:159,1,135
222,169,50707,2,0,L|212:98,1,45,0|0,3:0|3:0,0:0:0:0:
98,129,50954,5,0,3:0:0:0:
99,151,51036,1,2,0:0:0:0:
91,172,51118,1,10,3:2:0:0:
75,187,51201,1,2,0:2:0:0:
54,195,51283,1,2,3:2:0:0:
32,193,51366,1,2,0:2:0:0:
14,185,51448,2,0,L|37:311,1,90,6|0,3:2|0:0,0:0:0:0:
53,291,51696,1,2,0:2:0:0:
258,316,51943,5,2,0:2:0:0:
258,316,52025,1,0,3:0:0:0:
258,316,52108,2,0,B|269:264|269:264|308:240,1,90,2|0,3:2|0:0,0:0:0:0:
328,229,52355,1,2,0:2:0:0:
456,130,52602,5,2,0:2:0:0:
396,94,52767,1,0,3:0:0:0:
380,97,52849,1,2,0:0:0:0:
364,100,52932,1,0,0:0:0:0:
306,62,53097,1,8,3:2:0:0:
290,65,53179,1,2,0:0:0:0:
274,68,53262,1,0,0:0:0:0:
216,33,53426,1,0,3:0:0:0:
200,36,53508,1,2,0:0:0:0:
184,39,53591,1,0,3:0:0:0:
123,10,53756,1,8,3:2:0:0:
107,13,53838,1,2,0:0:0:0:
91,16,53921,1,2,0:0:0:0:
28,77,54086,5,2,3:2:0:0:
28,77,54168,1,2,0:2:0:0:
84,120,54333,2,0,L|99:284,1,135,2|2,0:2|0:2,0:0:0:0:
239,314,54745,5,2,3:2:0:0:
288,266,54910,1,2,0:0:0:0:
288,266,54992,2,0,L|271:124,1,135,2|2,0:2|0:2,0:0:0:0:
260,63,55404,1,0,3:0:0:0:
363,18,55569,5,2,0:2:0:0:
411,68,55734,1,8,3:2:0:0:
366,119,55899,1,2,0:2:0:0:
366,119,55981,1,0,3:0:0:0:
366,119,56064,1,0,3:0:0:0:
417,197,56229,5,2,3:2:0:0:
412,218,56311,1,2,0:2:0:0:
417,240,56393,1,10,3:2:0:0:
431,257,56476,1,2,0:2:0:0:
451,267,56558,1,2,3:2:0:0:
473,267,56641,1,2,0:2:0:0:
493,258,56723,1,6,3:2:0:0:
256,190,61998,5,6,0:2:0:0:
34,188,64635,5,6,0:2:0:0:
478,188,65295,5,6,0:2:0:0:
34,188,65954,5,6,3:2:0:0:
128,165,66119,1,2,0:0:0:0:
153,159,66201,1,2,0:0:0:0:
177,153,66284,1,8,3:0:0:0:
297,203,66448,1,2,0:0:0:0:
311,197,66531,1,2,0:0:0:0:
325,192,66613,1,4,0:3:0:0:
425,155,66778,5,2,0:0:0:0:
432,151,66860,1,2,0:0:0:0:
440,148,66943,2,0,L|167:225,1,270.000010299683,2|6,0:0|3:2,0:0:0:0:
76,126,77163,6,0,L|74:82,2,36,2|2|2,0:0|0:0|0:0,0:0:0:0:
257,195,77492,6,0,L|266:138,2,36,2|2|2,0:0|0:0|0:0,0:0:0:0:
429,113,77822,5,6,3:2:0:0:
419,181,77987,1,2,0:2:0:0:
405,248,78152,1,2,0:2:0:0:
405,274,78234,1,2,0:2:0:0:
421,295,78316,1,0,0:0:0:0:
447,302,78399,1,2,0:2:0:0:
471,292,78481,1,2,0:2:0:0:
340,319,78646,5,2,0:2:0:0:
326,330,78728,1,2,0:2:0:0:
315,344,78810,1,2,0:2:0:0:
236,313,78976,5,0,0:0:0:0:
226,328,79058,1,2,0:2:0:0:
222,345,79140,1,2,0:2:0:0:
151,324,79306,5,0,0:0:0:0:
151,324,79388,1,2,0:2:0:0:
100,270,79553,1,0,0:0:0:0:
100,270,79635,1,2,0:2:0:0:
94,189,79800,5,2,0:2:0:0:
152,137,79965,1,2,0:2:0:0:
152,137,80047,1,2,0:2:0:0:
152,137,80130,1,2,0:2:0:0:
218,111,80295,1,2,0:2:0:0:
291,131,80459,5,2,0:2:0:0:
366,128,80624,1,2,0:2:0:0:
366,128,80707,1,2,0:2:0:0:
403,69,80871,1,2,0:2:0:0:
403,69,80954,1,0,0:0:0:0:
344,19,81119,5,2,0:2:0:0:
284,56,81284,1,2,0:2:0:0:
294,125,81448,1,2,0:2:0:0:
289,151,81530,1,2,0:2:0:0:
284,178,81612,1,2,0:2:0:0:
279,204,81695,1,2,0:2:0:0:
275,231,81777,1,2,0:2:0:0:
261,292,81943,1,2,0:2:0:0:
211,241,82108,5,2,0:2:0:0:
208,232,82190,1,2,0:2:0:0:
206,223,82272,1,2,0:2:0:0:
204,214,82355,1,2,0:2:0:0:
202,206,82437,1,2,0:2:0:0:
188,137,82602,1,2,0:2:0:0:
179,73,82767,1,2,0:2:0:0:
166,8,82932,1,2,0:2:0:0:
114,55,83097,5,2,0:2:0:0:
114,55,83179,1,0,0:0:0:0:
114,55,83262,1,2,0:2:0:0:
69,114,83426,1,2,0:2:0:0:
69,114,83509,1,2,0:2:0:0:
120,171,83674,1,2,0:2:0:0:
120,171,83756,1,2,0:2:0:0:
74,231,83921,1,2,0:2:0:0:
74,231,84003,1,2,0:2:0:0:
74,231,84086,1,2,0:2:0:0:
74,231,84168,1,0,0:0:0:0:
74,231,84251,1,2,0:2:0:0:
127,280,84415,5,2,0:2:0:0:
196,265,84580,1,2,0:2:0:0:
196,265,84663,1,2,0:2:0:0:
251,304,84828,1,0,0:0:0:0:
251,304,84910,1,2,0:2:0:0:
239,373,85075,5,2,0:2:0:0:
167,380,85240,1,0,0:0:0:0:
167,380,85322,1,2,0:2:0:0:
167,380,85404,1,2,0:2:0:0:
99,349,85569,1,2,0:2:0:0:
130,278,85734,5,2,0:2:0:0:
154,211,85899,1,2,0:2:0:0:
176,145,86064,1,2,0:0:0:0:
198,82,86229,1,2,0:2:0:0:
198,82,86311,1,2,0:2:0:0:
198,82,86393,1,2,0:2:0:0:
225,19,86558,1,2,0:2:0:0:
296,17,86723,5,2,0:2:0:0:
296,17,86806,1,2,0:2:0:0:
296,17,86888,1,0,0:0:0:0:
325,79,87053,1,2,0:2:0:0:
365,24,87218,1,2,0:2:0:0:
295,23,87382,5,2,0:2:0:0:
289,49,87464,1,2,0:2:0:0:
284,75,87546,1,2,0:2:0:0:
279,102,87629,1,2,0:2:0:0:
274,128,87711,1,2,0:2:0:0:
316,187,87877,1,2,0:2:0:0:
272,238,88042,1,2,0:2:0:0:
264,273,88124,1,2,0:2:0:0:
257,308,88206,1,2,0:2:0:0:
334,334,88371,6,0,L|519:308,1,180,6|10,3:2|3:2,0:0:0:0:
499,229,88866,1,0,0:0:0:0:
499,229,88948,1,2,0:2:0:0:
499,229,89031,2,0,L|401:243,1,90,2|2,3:2|0:2,0:0:0:0:
398,159,89360,2,0,L|500:146,1,90,10|2,3:2|0:2,0:0:0:0:
258,35,89690,5,2,3:2:0:0:
186,75,89855,1,2,0:2:0:0:
186,75,89937,2,0,L|43:55,1,135,2|2,0:2|0:2,0:0:0:0:
247,127,90349,1,2,3:2:0:0:
233,213,90514,1,2,0:2:0:0:
233,213,90597,1,2,0:2:0:0:
233,213,90679,1,10,3:2:0:0:
214,300,90844,1,2,0:2:0:0:
285,345,91009,6,0,L|384:330,1,90,2|2,3:2|0:2,0:0:0:0:
143,362,91339,1,8,3:2:0:0:
143,362,91421,2,0,L|-2:333,1,135,2|2,0:2|3:2,0:0:0:0:
0,232,91833,1,2,0:2:0:0:
77,174,91998,1,10,3:2:0:0:
77,174,92080,2,0,L|105:75,1,90,2|2,0:2|0:2,0:0:0:0:
108,74,92328,5,2,3:2:0:0:
40,10,92492,1,2,0:2:0:0:
128,0,92657,1,10,3:2:0:0:
154,4,92739,1,2,0:2:0:0:
181,9,92821,1,2,0:2:0:0:
207,14,92904,1,2,0:2:0:0:
234,18,92986,1,2,3:2:0:0:
320,45,93152,1,2,0:2:0:0:
297,131,93317,1,10,3:2:0:0:
209,107,93481,1,2,0:2:0:0:
263,76,93646,6,0,L|234:183,1,90,2|2,3:2|0:2,0:0:0:0:
298,219,93976,1,10,3:2:0:0:
298,219,94058,2,0,L|269:363,1,135,2|2,0:2|3:2,0:0:0:0:
366,326,94470,1,2,0:2:0:0:
376,350,94552,1,2,0:2:0:0:
398,366,94634,1,10,3:2:0:0:
424,369,94717,1,2,0:2:0:0:
448,358,94799,1,2,0:2:0:0:
486,285,94965,5,2,3:2:0:0:
438,226,95130,1,2,0:2:0:0:
438,226,95212,1,2,0:2:0:0:
438,226,95295,2,0,L|456:118,1,90,10|2,3:2|0:2,0:0:0:0:
294,44,95624,5,2,3:2:0:0:
367,96,95789,1,0,0:0:0:0:
367,96,95871,1,2,0:2:0:0:
367,96,95954,2,0,L|347:206,1,90,10|2,3:2|0:2,0:0:0:0:
249,135,96284,6,0,L|63:110,1,180,2|8,3:2|3:2,0:0:0:0:
3,172,96778,1,2,0:2:0:0:
3,172,96860,1,2,0:2:0:0:
3,172,96943,1,2,3:2:0:0:
60,244,97108,1,2,0:2:0:0:
147,204,97273,5,10,3:2:0:0:
147,204,97355,1,2,0:2:0:0:
229,240,97520,5,0,0:0:0:0:
229,240,97602,2,0,B|233:248|247:248|247:248|237:252|231:274,1,45,6|0,3:2|0:0,0:0:0:0:
157,274,97932,2,0,L|436:210,1,270.000010299683,10|6,3:2|3:2,0:0:0:0:
475,142,98426,5,2,3:2:0:0:
480,123,98509,1,0,3:0:0:0:
485,103,98591,1,14,3:2:0:0:
419,47,98756,1,2,3:2:0:0:
326,74,98921,6,0,B|254:124|254:124|155:51,1,180,6|8,3:2|3:2,0:0:0:0:
168,61,99333,1,0,0:0:0:0:
158,53,99415,1,2,0:2:0:0:
257,45,99580,2,0,L|254:153,1,90,0|0,3:0|0:0,0:0:0:0:
252,226,99910,1,8,3:2:0:0:
254,300,100075,5,2,0:2:0:0:
255,341,100157,1,0,0:0:0:0:
255,382,100240,2,0,L|110:349,1,135,2|0,3:2|0:0,0:0:0:0:
111,340,100569,1,8,3:2:0:0:
137,256,100734,1,0,0:0:0:0:
63,195,100899,1,2,3:2:0:0:
2,261,101064,1,2,0:2:0:0:
2,261,101146,1,2,0:2:0:0:
2,261,101229,1,10,3:2:0:0:
20,345,101393,1,2,0:2:0:0:
71,274,101558,6,0,L|60:162,1,90,2|0,3:2|0:0,0:0:0:0:
6,136,101888,1,8,3:2:0:0:
6,136,101970,2,0,B|55:88|55:88|118:132,1,135,2|2,0:0|3:2,0:0:0:0:
181,175,102382,1,0,0:0:0:0:
264,102,102547,5,8,3:2:0:0:
264,102,102629,1,0,0:0:0:0:
343,176,102794,1,0,0:0:0:0:
343,176,102876,1,2,3:2:0:0:
258,242,103042,1,0,0:0:0:0:
260,172,103207,5,10,3:2:0:0:
260,172,103289,1,0,0:0:0:0:
336,247,103454,1,0,0:0:0:0:
336,247,103536,1,2,3:2:0:0:
257,315,103701,1,0,0:0:0:0:
182,243,103866,1,10,3:2:0:0:
258,242,104031,1,0,0:0:0:0:
336,247,104196,6,0,L|442:255,1,90,2|0,3:2|0:0,0:0:0:0:
476,315,104525,1,8,3:2:0:0:
476,315,104608,2,0,B|511:260|511:260|467:169,1,135,2|2,0:0|3:2,0:0:0:0:
437,119,105020,1,0,0:0:0:0:
437,119,105102,1,0,0:0:0:0:
437,119,105185,1,8,3:2:0:0:
384,45,105349,1,0,0:0:0:0:
507,78,105514,6,0,L|334:164,1,180,2|8,3:2|3:2,0:0:0:0:
248,136,106009,1,2,0:0:0:0:
248,136,106091,1,2,0:0:0:0:
248,136,106174,2,0,L|139:121,1,90,2|0,3:2|0:0,0:0:0:0:
87,179,106503,2,0,L|-6:200,1,90,8|2,3:2|0:2,0:0:0:0:
22,286,106833,5,2,3:2:0:0:
101,358,106998,1,2,3:2:0:0:
178,294,107163,1,10,3:2:0:0:
265,225,107328,5,2,3:2:0:0:
265,225,107410,1,2,0:0:0:0:
265,225,107492,1,2,3:2:0:0:
344,157,107657,1,2,3:2:0:0:
424,223,107822,1,10,3:2:0:0:
345,284,107987,1,2,3:2:0:0:
265,225,108152,5,6,3:2:0:0:
236,140,108317,1,0,0:0:0:0:
236,140,108399,1,0,3:0:0:0:
212,53,108564,1,0,0:0:0:0:
212,53,108646,1,2,3:2:0:0:
123,31,108811,5,2,0:2:0:0:
123,31,108893,2,0,L|94:194,1,135,2|14,3:2|3:2,0:0:0:0:
25,315,109470,5,6,3:2:0:0:
117,337,109635,1,2,0:2:0:0:
195,284,109800,1,10,3:2:0:0:
222,289,109882,1,0,0:0:0:0:
250,295,109964,1,2,0:2:0:0:
277,300,110047,1,0,0:0:0:0:
305,306,110129,1,2,3:2:0:0:
288,316,110212,1,2,0:2:0:0:
275,324,110295,1,2,0:2:0:0:
265,332,110377,1,2,0:2:0:0:
299,331,110459,1,10,3:2:0:0:
340,326,110542,1,2,0:2:0:0:
382,321,110624,1,2,0:2:0:0:
422,315,110707,1,0,0:0:0:0:
417,323,110789,5,2,3:2:0:0:
398,326,110871,1,2,0:2:0:0:
380,329,110953,1,2,0:2:0:0:
361,332,111036,1,2,0:2:0:0:
346,336,111119,1,10,3:2:0:0:
366,342,111201,1,2,0:2:0:0:
384,347,111284,1,2,0:2:0:0:
401,353,111366,1,2,0:2:0:0:
392,359,111448,5,2,3:2:0:0:
379,334,111531,1,2,0:2:0:0:
367,306,111613,1,2,0:2:0:0:
354,276,111696,1,2,0:2:0:0:
338,243,111778,1,10,3:2:0:0:
356,209,111860,1,2,0:2:0:0:
379,177,111943,1,2,0:2:0:0:
406,146,112025,1,0,0:0:0:0:
434,117,112108,5,2,3:2:0:0:
364,60,112273,1,2,0:2:0:0:
364,60,112355,2,0,L|179:85,1,168.75,2|2,0:0|0:2,0:0:0:0:
247,157,112767,1,2,3:2:0:0:
152,165,112932,1,2,0:2:0:0:
212,233,113097,1,10,3:2:0:0:
115,243,113262,1,2,0:2:0:0:
115,243,113344,1,0,0:0:0:0:
115,243,113426,2,0,L|14:264,1,90,6|2,3:2|0:2,0:0:0:0:
6,174,113756,5,10,3:2:0:0:
29,147,113839,1,2,0:2:0:0:
57,118,113921,1,2,0:2:0:0:
81,94,114003,1,2,0:2:0:0:
104,68,114086,1,2,3:2:0:0:
81,81,114168,1,2,0:2:0:0:
59,94,114251,1,2,0:2:0:0:
43,107,114333,1,2,0:2:0:0:
21,123,114415,5,10,3:2:0:0:
62,124,114498,1,2,0:2:0:0:
104,120,114580,1,2,0:2:0:0:
150,118,114663,1,0,0:0:0:0:
197,116,114745,5,6,3:2:0:0:
262,178,114910,1,2,0:2:0:0:
300,172,114992,1,2,0:0:0:0:
366,234,115157,1,2,0:2:0:0:
408,227,115240,1,2,0:2:0:0:
449,218,115322,1,2,0:0:0:0:
492,210,115404,1,2,3:2:0:0:
444,297,115569,1,2,0:2:0:0:
406,307,115652,1,2,0:2:0:0:
316,329,115817,1,2,0:2:0:0:
273,340,115899,1,2,0:2:0:0:
216,268,116064,5,2,3:2:0:0:
171,279,116146,1,2,0:2:0:0:
127,290,116229,1,2,0:2:0:0:
81,302,116311,1,0,0:0:0:0:
36,313,116393,1,10,3:2:0:0:
54,292,116476,1,2,0:2:0:0:
74,270,116558,1,2,0:2:0:0:
94,250,116641,1,0,0:0:0:0:
120,232,116723,1,2,3:2:0:0:
113,249,116806,1,2,0:2:0:0:
108,263,116888,1,2,0:2:0:0:
104,276,116970,1,0,0:0:0:0:
100,288,117053,1,10,3:2:0:0:
96,280,117135,1,2,0:2:0:0:
92,272,117218,1,2,0:2:0:0:
89,263,117300,1,2,0:2:0:0:
83,255,117382,5,6,3:2:0:0:
133,170,117547,1,2,3:2:0:0:
226,166,117712,1,10,3:2:0:0:
274,245,117877,1,2,3:2:0:0:
197,238,118042,5,6,3:2:0:0:
302,158,118207,1,2,3:2:0:0:
399,240,118371,1,10,3:2:0:0:
392,267,118453,1,2,0:0:0:0:
385,294,118535,1,2,0:2:0:0:
378,321,118618,1,2,0:0:0:0:
371,349,118700,5,6,3:2:0:0:
347,331,118784,1,2,0:2:0:0:
324,314,118866,1,2,0:2:0:0:
356,296,118948,1,2,0:2:0:0:
394,281,119031,1,14,3:2:0:0:
434,271,119113,1,2,3:2:0:0:
472,262,119196,1,2,3:2:0:0:
449,231,119278,1,2,3:2:0:0:
422,206,119360,1,6,3:2:0:0:
424,216,119443,1,2,3:2:0:0:
428,228,119525,1,2,3:2:0:0:
432,240,119608,1,2,3:2:0:0:
435,252,119690,5,14,3:2:0:0:
441,206,119773,1,2,3:2:0:0:
450,160,119855,1,2,3:2:0:0:
458,112,119937,1,2,3:2:0:0:
464,63,120020,1,6,3:2:0:0:
