osu file format v14

[General]
AudioFilename: audio.mp3
AudioLeadIn: 0
PreviewTime: 67273
Countdown: 0
SampleSet: Soft
StackLeniency: 0.7
Mode: 0
LetterboxInBreaks: 0
WidescreenStoryboard: 1

[Editor]
DistanceSpacing: 1.3
BeatDivisor: 8
GridSize: 8
TimelineZoom: 3.299999

[Metadata]
Title:Bird Sprite -Awakening of Light-
TitleUnicode:Bird Sprite -Awakening of Light-
Artist:syatten remixed celas
ArtistUnicode:syatten remixed celas
Creator:emu1337
Version:Extreme
Source:
Tags:electronic instrumental lmt tynamo -tynamo sleepymateo sleepy ratina0 reku bof2011 bga intersection conflict backfire fighters 2011 creation records
BeatmapID:2737086
BeatmapSetID:1321314

[Difficulty]
HPDrainRate:5
CircleSize:3.6
OverallDifficulty:9.2
ApproachRate:9.2
SliderMultiplier:1.8
SliderTickRate:1

[Events]
//Background and Video events
0,0,"bggggg.jpg",0,0
//Break Periods
2,67472,76593
//Storyboard Layer 0 (Background)
//Storyboard Layer 1 (Fail)
//Storyboard Layer 2 (Pass)
//Storyboard Layer 3 (Foreground)
//Storyboard Layer 4 (Overlay)
//Storyboard Sound Samples

[TimingPoints]
1339,329.67032967033,4,2,1,70,1,0
2492,-100,4,2,1,50,0,0
3976,-125,4,2,1,50,0,0
14525,-125,4,2,1,60,0,0
25075,-95.2380952380952,4,2,1,70,0,0
44855,-74.0740740740741,4,2,1,70,0,0
46174,-125,4,2,1,75,0,0
56723,-181.818181818182,4,2,1,75,0,0
56806,-181.818181818182,4,2,1,60,0,0
66943,-40,4,2,1,60,0,0
77163,-100,4,2,1,60,0,0
77822,-181.818181818182,4,2,1,60,0,0
87053,-133.333333333334,4,2,1,60,0,0
88371,-111.111111111111,4,2,1,70,0,0
98921,-95.2380952380952,4,2,1,75,0,0
109470,-80,4,2,1,80,0,1
112437,-100,4,2,1,80,0,1
117382,-80,4,2,1,80,0,0
118701,-80,4,2,1,80,0,1
120020,-80,4,2,1,80,0,0

[Colours]
Combo1 : 207,167,226
Combo2 : 167,226,226
Combo3 : 177,203,228
Combo4 : 173,170,227

[HitObjects]
261,70,2492,6,0,L|254:114,2,30,4|4|4,0:3|0:3|0:3,0:0:0:0:
278,46,2657,5,0,3:0:0:0:
110,170,2904,5,0,3:0:0:0:
234,338,3152,5,0,3:0:0:0:
402,214,3399,5,0,3:0:0:0:
387,200,3481,2,0,L|386:182,4,11.25,0|0|0|0|0,3:0|0:0|0:0|0:0|0:0,0:0:0:0:
436,135,3646,1,0,3:0:0:0:
442,119,3729,1,0,3:0:0:0:
374,27,3893,1,0,3:0:0:0:
369,9,3976,6,0,L|473:31,1,72,4|0,3:2|0:0,0:0:0:0:
341,112,4306,2,0,L|237:134,1,72,8|0,3:0|0:0,0:0:0:0:
182,201,4635,2,0,L|252:215,1,72,0|0,3:0|0:0,0:0:0:0:
112,282,4965,1,8,3:0:0:0:
27,229,5130,1,0,0:0:0:0:
27,229,5212,1,0,0:0:0:0:
27,229,5295,6,0,P|48:194|50:132,1,72,0|0,3:0|0:0,0:0:0:0:
107,42,5624,2,0,P|114:77|133:107,1,72,8|0,3:0|0:0,0:0:0:0:
285,61,5954,2,0,P|250:50|215:51,1,72,0|0,3:0|0:0,0:0:0:0:
358,132,6284,1,8,3:0:0:0:
315,218,6448,1,0,0:0:0:0:
315,218,6531,1,0,0:0:0:0:
315,218,6613,6,0,L|326:307,1,72,0|0,3:0|0:0,0:0:0:0:
404,384,6943,2,0,L|412:312,1,72,8|0,3:0|0:0,0:0:0:0:
233,269,7273,2,0,L|241:340,1,72,0|0,3:0|0:0,0:0:0:0:
412,222,7602,1,8,3:0:0:0:
412,222,7767,1,0,0:0:0:0:
358,132,7932,6,0,B|342:114|342:114|336:60,1,72,0|0,3:0|0:0,0:0:0:0:
421,0,8262,1,8,3:0:0:0:
421,0,8344,1,0,0:0:0:0:
421,0,8426,1,0,0:0:0:0:
496,57,8591,1,0,3:0:0:0:
460,143,8756,1,0,0:0:0:0:
358,132,8921,1,8,3:0:0:0:
496,57,9086,1,0,3:0:0:0:
326,44,9251,6,0,B|281:56|281:56|177:49,1,144,4|8,3:2|3:0,0:0:0:0:
84,26,9745,1,0,0:0:0:0:
84,26,9828,1,0,0:0:0:0:
84,26,9910,2,0,P|96:60|93:102,1,72,0|0,3:0|0:0,0:0:0:0:
161,165,10240,2,0,P|152:190|152:241,1,72,8|0,3:0|0:0,0:0:0:0:
109,340,10569,5,0,3:0:0:0:
32,287,10734,1,0,0:0:0:0:
62,202,10899,1,8,3:0:0:0:
62,202,10981,1,0,0:0:0:0:
62,202,11064,1,0,0:0:0:0:
150,235,11229,5,0,3:0:0:0:
227,182,11394,1,0,0:0:0:0:
197,97,11558,1,8,3:0:0:0:
194,78,11641,2,0,L|207:4,1,72,2|2,0:0|0:0,0:0:0:0:
238,1,11888,5,0,3:0:0:0:
304,76,12053,1,0,0:0:0:0:
402,56,12218,1,8,3:0:0:0:
404,73,12300,1,2,0:0:0:0:
406,91,12382,1,0,0:0:0:0:
408,109,12465,1,2,0:0:0:0:
411,127,12547,1,0,3:0:0:0:
360,210,12712,1,2,0:0:0:0:
262,190,12877,1,8,3:0:0:0:
259,207,12959,1,2,0:0:0:0:
257,225,13041,1,0,0:0:0:0:
256,243,13124,1,2,0:0:0:0:
252,261,13207,6,0,L|132:283,1,108,0|0,3:0|0:0,0:0:0:0:
105,254,13536,2,0,P|108:200|98:152,1,72,8|0,3:0|0:0,0:0:0:0:
101,167,13784,1,0,0:0:0:0:
97,152,13866,1,8,3:0:0:0:
8,254,14031,1,10,3:2:0:0:
8,254,14113,1,2,3:2:0:0:
8,254,14196,1,14,3:2:0:0:
198,184,14360,1,8,3:0:0:0:
38,43,14525,6,0,B|58:55|58:55|112:60,1,72,6|0,3:2|0:0,0:0:0:0:
181,102,14855,1,10,3:2:0:0:
198,99,14937,1,2,0:2:0:0:
251,32,15102,1,2,0:2:0:0:
268,29,15184,1,0,3:2:0:0:
339,80,15349,1,2,0:2:0:0:
356,77,15431,1,2,0:2:0:0:
373,75,15514,1,10,3:2:0:0:
390,72,15597,2,0,B|415:68|415:68|468:85,1,72,2|2,0:2|0:2,0:0:0:0:
502,70,15844,6,0,L|509:164,1,72,0|0,3:2|0:0,0:0:0:0:
463,212,16174,1,10,3:2:0:0:
466,229,16256,1,2,0:2:0:0:
428,305,16421,1,2,0:2:0:0:
425,322,16503,1,0,3:2:0:0:
332,329,16668,1,2,0:2:0:0:
315,332,16750,1,2,0:2:0:0:
298,334,16833,1,10,3:2:0:0:
281,337,16916,2,0,L|204:325,1,72,2|2,0:2|0:2,0:0:0:0:
165,342,17163,6,0,P|151:306|152:247,1,72,0|0,3:2|0:0,0:0:0:0:
206,206,17492,1,10,3:2:0:0:
223,203,17574,1,2,0:2:0:0:
155,136,17740,1,2,0:2:0:0:
138,133,17822,1,0,3:2:0:0:
228,91,17987,1,2,0:2:0:0:
233,77,18069,1,2,0:2:0:0:
235,60,18152,1,10,3:2:0:0:
232,46,18234,2,0,P|203:15|172:6,1,72,2|2,0:2|0:2,0:0:0:0:
140,32,18481,6,0,L|54:43,1,72,0|0,3:2|0:0,0:0:0:0:
17,117,18811,1,10,3:2:0:0:
0,114,18893,1,2,0:2:0:0:
58,190,19059,1,2,0:2:0:0:
75,187,19141,1,0,3:2:0:0:
13,276,19306,1,2,0:2:0:0:
13,276,19388,1,2,0:2:0:0:
13,276,19471,1,10,3:2:0:0:
82,365,19635,1,0,3:0:0:0:
189,302,19800,5,0,3:2:0:0:
269,338,19965,1,0,0:0:0:0:
332,282,20130,1,10,3:2:0:0:
335,266,20212,1,2,0:2:0:0:
280,204,20377,1,2,0:2:0:0:
277,188,20459,1,0,3:2:0:0:
334,128,20624,1,2,0:2:0:0:
337,112,20706,1,2,0:2:0:0:
340,97,20789,1,10,3:2:0:0:
343,81,20871,2,0,B|371:86|371:86|435:69,1,72,2|2,0:2|0:2,0:0:0:0:
440,52,21119,5,0,3:2:0:0:
505,117,21284,1,0,0:0:0:0:
438,176,21448,1,10,3:2:0:0:
421,179,21530,1,2,0:2:0:0:
492,243,21696,1,2,0:2:0:0:
509,246,21778,1,0,3:2:0:0:
445,310,21943,1,2,0:2:0:0:
436,324,22025,1,2,0:2:0:0:
424,335,22108,1,10,3:2:0:0:
411,340,22190,2,0,P|369:349|332:337,1,72,2|2,0:2|0:2,0:0:0:0:
311,311,22437,5,0,3:2:0:0:
233,363,22602,1,0,0:0:0:0:
162,300,22767,1,10,3:2:0:0:
168,283,22849,1,2,0:2:0:0:
223,218,23014,1,2,0:2:0:0:
217,201,23096,1,0,3:2:0:0:
167,132,23262,1,2,0:2:0:0:
173,115,23344,1,2,0:2:0:0:
179,99,23426,1,10,3:2:0:0:
185,82,23509,2,0,L|174:2,1,72,2|2,0:2|0:2,0:0:0:0:
132,3,23756,5,0,3:2:0:0:
89,78,23921,1,0,0:0:0:0:
0,66,24086,2,0,P|7:102|22:142,1,72,10|0,3:2|0:0,0:0:0:0:
266,122,24415,2,0,P|278:88|284:52,1,72,2|0,3:2|0:0,0:0:0:0:
243,266,24745,1,10,3:2:0:0:
273,320,24827,1,0,3:0:0:0:
325,355,24909,1,0,3:0:0:0:
387,362,24992,1,0,3:0:0:0:
445,340,25075,6,0,B|475:306|475:306|472:231,1,94.499997116089,6|0,3:2|0:0,0:0:0:0:
225,83,25404,2,0,B|195:117|195:117|198:192,1,94.499997116089,10|0,3:2|0:0,0:0:0:0:
512,153,25734,2,0,L|394:174,1,94.499997116089,2|0,3:2|0:0,0:0:0:0:
149,249,26064,2,0,L|267:270,1,94.499997116089,10|0,3:2|0:0,0:0:0:0:
512,63,26393,6,0,L|325:96,1,188.999994232178,2|8,3:2|3:2,0:0:0:0:
80,144,26888,1,2,0:2:0:0:
308,186,27053,1,2,3:2:0:0:
147,7,27218,2,0,B|138:34|138:34|160:106,1,94.499997116089,2|8,0:2|3:2,0:0:0:0:
273,260,27547,1,2,0:2:0:0:
275,297,27630,1,2,0:2:0:0:
259,329,27712,6,0,P|217:345|159:350,1,94.499997116089,2|0,3:2|0:0,0:0:0:0:
368,269,28042,2,0,P|414:273|459:290,1,94.499997116089,8|0,3:2|0:0,0:0:0:0:
162,151,28371,2,0,L|180:243,1,94.499997116089,2|0,3:2|0:0,0:0:0:0:
382,96,28701,2,0,L|400:3,1,94.499997116089,10|0,3:2|0:0,0:0:0:0:
67,127,29031,6,0,L|105:319,1,188.999994232178,2|8,3:2|3:2,0:0:0:0:
104,312,29690,1,2,3:2:0:0:
253,183,29855,1,2,0:2:0:0:
67,127,30020,1,10,3:2:0:0:
239,314,30185,1,2,3:2:0:0:
163,27,30349,6,0,B|151:52|151:52|171:130,1,94.499997116089,6|0,3:2|0:0,0:0:0:0:
336,272,30679,2,0,L|447:285,1,94.499997116089,8|0,3:2|0:0,0:0:0:0:
239,314,31009,2,0,B|227:289|227:289|247:211,1,94.499997116089,2|0,3:2|0:0,0:0:0:0:
512,197,31339,2,0,L|401:184,1,94.499997116089,10|0,3:2|0:0,0:0:0:0:
57,225,31668,6,0,B|98:239|98:239|286:219,1,188.999994232178,2|8,3:2|3:2,0:0:0:0:
242,223,32328,2,0,P|240:171|268:124,1,94.499997116089,2|0,3:2|0:0,0:0:0:0:
468,273,32657,2,0,P|487:315|484:362,1,94.499997116089,10|0,3:2|0:0,0:0:0:0:
139,248,32987,6,0,P|142:152|202:43,1,188.999994232178,2|8,3:2|3:2,0:0:0:0:
413,40,33481,1,2,0:2:0:0:
450,56,33564,1,2,0:2:0:0:
473,85,33646,2,0,P|459:132|423:177,1,94.499997116089,2|2,3:2|0:2,0:0:0:0:
197,237,33976,1,10,3:2:0:0:
139,248,34058,1,2,0:2:0:0:
87,277,34140,1,2,0:2:0:0:
47,319,34223,1,2,0:2:0:0:
21,372,34306,6,0,B|56:379|56:379|147:363,1,94.499997116089,2|2,3:2|0:2,0:0:0:0:
160,354,34553,1,2,0:2:0:0:
207,339,34635,2,0,B|237:332|237:332|314:352,1,94.499997116089,10|2,3:2|0:2,0:0:0:0:
482,366,34965,1,2,3:2:0:0:
335,250,35130,1,2,0:2:0:0:
512,152,35295,1,14,3:2:0:0:
298,348,35459,1,2,3:2:0:0:
262,60,35624,6,0,L|153:47,1,94.499997116089,6|0,3:2|0:0,0:0:0:0:
335,250,35954,2,0,L|428:238,1,94.499997116089,10|0,3:2|0:0,0:0:0:0:
346,14,36284,1,2,3:2:0:0:
273,151,36448,1,0,0:0:0:0:
168,48,36613,1,10,3:2:0:0:
247,235,36777,1,0,0:0:0:0:
261,34,36943,6,0,B|120:16|120:16|69:44,1,188.999994232178,2|8,3:2|3:2,0:0:0:0:
0,131,37437,1,2,0:2:0:0:
170,282,37602,1,2,3:2:0:0:
141,106,37767,2,0,L|123:198,1,94.499997116089,2|8,0:2|3:2,0:0:0:0:
319,355,38097,1,2,0:2:0:0:
353,348,38179,1,2,0:2:0:0:
378,324,38262,6,0,P|396:268|397:228,1,94.499997116089,2|0,3:2|0:0,0:0:0:0:
266,23,38591,1,8,3:2:0:0:
251,153,38756,1,0,0:0:0:0:
251,153,38839,1,0,0:0:0:0:
251,153,38921,2,0,B|298:155|298:155|343:125,1,94.499997116089,2|0,3:2|0:0,0:0:0:0:
141,286,39251,2,0,B|94:284|94:284|49:314,1,94.499997116089,10|0,3:2|0:0,0:0:0:0:
412,227,39580,6,0,B|449:145|449:145|421:26,1,188.999994232178,2|8,3:2|3:2,0:0:0:0:
268,48,40075,1,0,0:0:0:0:
337,128,40240,5,2,3:2:0:0:
111,197,40487,5,2,0:2:0:0:
111,197,40569,1,14,3:2:0:0:
272,196,40734,1,2,3:2:0:0:
305,221,40817,1,0,0:0:0:0:
325,260,40899,6,0,P|320:313|301:359,1,94.499997116089,6|0,3:2|0:0,0:0:0:0:
192,140,41229,2,0,P|175:95|172:48,1,94.499997116089,8|0,3:2|0:0,0:0:0:0:
337,128,41558,1,2,3:2:0:0:
195,239,41723,1,0,0:0:0:0:
263,74,41888,1,10,3:2:0:0:
223,326,42053,1,0,0:0:0:0:
413,179,42218,6,0,L|527:195,1,94.499997116089,2|0,3:2|0:0,0:0:0:0:
408,36,42547,1,8,3:2:0:0:
408,36,42630,1,0,0:0:0:0:
408,36,42712,1,0,0:0:0:0:
315,154,42877,2,0,B|310:188|310:188|339:262,1,94.499997116089,2|0,3:2|0:0,0:0:0:0:
126,380,43207,2,0,B|131:346|131:346|102:272,1,94.499997116089,10|0,3:2|0:0,0:0:0:0:
21,179,43536,5,2,3:2:0:0:
206,101,43701,1,2,3:2:0:0:
15,199,43866,1,10,3:2:0:0:
216,86,44031,1,2,3:2:0:0:
12,88,44196,1,2,3:2:0:0:
109,290,44360,1,2,3:2:0:0:
115,45,44525,1,10,3:2:0:0:
14,328,44690,1,2,3:2:0:0:
284,131,44855,6,0,B|278:224|278:224|261:247,1,121.500000463486,6|0,3:2|0:0,0:0:0:0:
220,363,45102,2,0,B|213:272|213:272|196:247,1,121.500000463486,6|0,3:2|0:0,0:0:0:0:
149,206,45349,1,6,3:2:0:0:
412,133,45514,1,0,0:0:0:0:
412,133,45597,1,2,3:2:0:0:
412,133,45679,1,0,0:0:0:0:
277,32,45844,1,10,3:2:0:0:
271,102,45926,1,2,3:2:0:0:
266,174,46008,1,2,3:2:0:0:
261,246,46091,1,2,3:2:0:0:
256,316,46174,6,0,B|284:343|284:343|368:349,1,108,6|2,3:2|0:2,0:0:0:0:
389,319,46503,1,8,3:2:0:0:
482,351,46668,1,2,0:2:0:0:
482,351,46751,1,0,3:0:0:0:
482,351,46833,2,0,P|483:301|466:249,1,72,2|0,3:2|3:0,0:0:0:0:
444,241,47080,2,0,P|443:191|460:139,1,72,2|0,3:2|0:0,0:0:0:0:
485,137,47328,1,2,0:2:0:0:
428,61,47492,6,0,L|270:76,1,144,0|8,3:0|3:2,0:0:0:0:
154,194,47987,1,0,0:0:0:0:
154,194,48069,1,0,3:0:0:0:
154,194,48152,1,0,3:0:0:0:
212,266,48317,2,0,L|370:251,1,144,0|0,3:0|0:0,0:0:0:0:
193,105,48811,5,2,3:2:0:0:
188,90,48893,1,2,0:2:0:0:
121,39,49058,1,2,0:2:0:0:
126,24,49140,1,10,3:2:0:0:
58,101,49306,1,2,0:2:0:0:
58,101,49388,1,0,3:0:0:0:
58,101,49470,2,0,B|52:129|52:129|64:177,1,72,2|0,3:2|3:0,0:0:0:0:
104,196,49718,2,0,B|110:224|110:224|98:272,1,72,2|0,3:2|0:0,0:0:0:0:
62,299,49965,1,2,0:2:0:0:
141,358,50130,6,0,P|209:367|279:336,1,144,0|8,3:0|3:2,0:0:0:0:
483,333,50624,1,0,0:0:0:0:
483,333,50707,1,0,3:0:0:0:
483,333,50789,1,0,3:0:0:0:
459,222,50954,1,0,3:0:0:0:
354,240,51119,1,10,3:2:0:0:
318,247,51201,1,2,0:2:0:0:
283,255,51283,1,2,3:2:0:0:
248,263,51366,1,2,0:2:0:0:
214,272,51448,6,0,B|253:236|253:236|259:176,1,108,6|2,3:2|0:2,0:0:0:0:
292,156,51779,1,10,3:2:0:0:
236,86,51943,1,2,0:2:0:0:
236,86,52025,1,0,3:0:0:0:
236,86,52108,2,0,B|265:62|265:62|308:59,1,72,2|0,3:2|3:0,0:0:0:0:
336,78,52355,2,0,L|411:87,1,72,2|0,3:2|0:0,0:0:0:0:
442,68,52602,1,2,0:2:0:0:
496,144,52767,6,0,B|513:180|513:180|496:295,1,144,0|8,3:0|3:2,0:0:0:0:
294,360,53262,1,0,0:0:0:0:
294,360,53344,1,0,3:0:0:0:
294,360,53426,1,0,3:0:0:0:
389,384,53591,2,0,B|406:348|406:348|389:233,1,144,0|0,3:0|0:0,0:0:0:0:
207,297,54086,5,2,3:2:0:0:
202,282,54168,1,2,0:2:0:0:
134,341,54333,1,2,0:2:0:0:
139,356,54415,1,10,3:2:0:0:
52,313,54580,1,2,0:2:0:0:
52,313,54663,1,0,3:0:0:0:
52,313,54745,2,0,L|65:234,1,72,2|0,3:2|3:0,0:0:0:0:
97,209,54992,2,0,L|84:130,1,72,2|0,3:2|0:0,0:0:0:0:
117,99,55240,1,2,0:2:0:0:
210,68,55404,6,0,L|200:141,1,72,0|2,3:0|0:2,0:0:0:0:
315,12,55734,1,8,3:2:0:0:
396,116,55899,1,2,0:2:0:0:
396,116,55981,1,0,3:0:0:0:
396,116,56064,1,0,3:0:0:0:
302,196,56229,1,2,3:2:0:0:
200,139,56393,1,10,3:2:0:0:
208,192,56475,1,2,0:2:0:0:
216,245,56557,1,2,3:2:0:0:
224,299,56640,1,2,0:2:0:0:
232,352,56722,5,6,3:2:0:0:
340,363,56970,1,2,0:2:0:0:
450,370,57218,1,2,0:2:0:0:
340,363,57382,5,2,0:2:0:0:
347,253,57630,1,2,0:2:0:0:
358,146,57878,1,2,0:2:0:0:
358,146,59360,5,2,0:2:0:0:
358,146,59443,1,2,0:2:0:0:
248,153,59608,1,2,0:2:0:0:
140,163,59856,1,2,0:2:0:0:
255,263,60020,5,2,0:2:0:0:
248,153,60267,1,2,0:2:0:0:
238,45,60514,1,2,0:2:0:0:
238,45,61998,5,6,0:2:0:0:
238,45,62080,1,2,0:2:0:0:
128,38,62246,1,2,0:2:0:0:
20,27,62492,1,2,0:2:0:0:
128,38,62657,5,2,0:2:0:0:
117,146,62904,1,2,0:2:0:0:
110,256,63152,1,2,0:2:0:0:
110,256,64634,5,6,0:2:0:0:
110,256,64718,1,2,0:2:0:0:
220,249,64882,1,2,0:2:0:0:
328,239,65131,1,2,0:2:0:0:
338,347,65295,5,6,0:2:0:0:
328,239,65542,1,2,0:2:0:0:
321,129,65789,1,2,0:2:0:0:
388,54,65954,5,6,3:2:0:0:
401,198,66119,1,0,0:0:0:0:
368,228,66201,1,0,0:0:0:0:
328,239,66284,1,8,3:0:0:0:
216,157,66448,1,0,0:0:0:0:
196,147,66531,1,0,0:0:0:0:
173,146,66613,1,4,0:3:0:0:
52,204,66778,1,0,0:0:0:0:
41,200,66860,1,0,0:0:0:0:
33,192,66943,6,0,B|256:114|255:289|469:191,1,450,2|6,0:0|3:2,0:0:0:0:
344,91,77163,6,0,L|332:147,2,45,2|2|2,0:0|0:0|0:0,0:0:0:0:
170,91,77492,2,0,L|182:35,2,45,2|2|2,0:0|0:0|0:0,0:0:0:0:
257,91,77822,5,6,3:2:0:0:
237,176,77987,1,2,0:2:0:0:
282,250,78152,1,2,0:2:0:0:
284,262,78234,1,2,0:2:0:0:
287,274,78316,1,0,0:0:0:0:
289,286,78399,1,2,0:2:0:0:
292,298,78481,2,0,L|273:375,1,74.2500022659302,2|2,0:2|0:2,0:0:0:0:
246,384,78811,1,2,0:2:0:0:
178,338,78976,1,0,0:0:0:0:
169,349,79058,1,2,0:2:0:0:
161,358,79141,6,0,L|138:274,1,74.2500022659302,2|2,0:2|0:2,0:0:0:0:
162,256,79470,1,2,0:2:0:0:
104,196,79635,1,2,0:2:0:0:
153,125,79800,1,2,0:2:0:0:
235,157,79964,1,2,0:2:0:0:
239,168,80047,1,2,0:2:0:0:
243,178,80129,1,2,0:2:0:0:
322,148,80295,1,2,0:2:0:0:
340,63,80459,6,0,P|375:46|404:40,1,49.5000015106202,2|2,0:2|0:2,0:0:0:0:
256,29,80789,1,2,0:2:0:0:
256,29,80871,2,0,P|222:50|186:53,1,74.2500022659302,2|2,0:2|0:2,0:0:0:0:
340,63,81284,1,2,0:2:0:0:
403,126,81448,1,2,0:2:0:0:
408,136,81530,1,2,0:2:0:0:
412,148,81612,1,2,0:2:0:0:
414,160,81695,1,2,0:2:0:0:
413,173,81777,5,2,0:2:0:0:
481,238,81943,1,2,0:2:0:0:
423,308,82108,1,2,0:2:0:0:
411,311,82190,1,2,0:2:0:0:
399,314,82272,1,2,0:2:0:0:
387,317,82355,1,2,0:2:0:0:
375,320,82437,1,2,0:2:0:0:
300,272,82602,1,2,0:2:0:0:
216,281,82767,1,2,0:2:0:0:
166,352,82932,1,2,0:2:0:0:
89,308,83097,6,0,L|80:231,1,74.2500022659302,2|0,0:2|0:0,0:0:0:0:
102,205,83426,1,2,0:2:0:0:
102,205,83509,1,2,0:2:0:0:
173,145,83674,1,2,0:2:0:0:
173,145,83756,2,0,L|183:84,1,49.5000015106202,2|2,0:2|0:2,0:0:0:0:
111,19,84086,1,2,0:2:0:0:
108,30,84168,1,0,0:0:0:0:
105,42,84250,1,2,0:2:0:0:
101,54,84333,1,0,0:0:0:0:
98,66,84415,6,0,B|86:82|86:82|16:94,1,74.2500022659302,2|2,0:2|0:2,0:0:0:0:
9,114,84745,1,2,0:2:0:0:
0,205,84910,1,2,0:2:0:0:
89,240,85075,1,2,0:2:0:0:
89,240,85157,1,2,0:2:0:0:
145,177,85322,1,2,0:2:0:0:
164,172,85404,1,2,0:2:0:0:
184,181,85487,1,0,0:0:0:0:
204,178,85569,1,2,0:2:0:0:
285,215,85734,6,0,P|295:243|282:298,1,74.2500022659302,2|2,0:2|0:2,0:0:0:0:
348,353,86146,1,2,0:2:0:0:
367,348,86228,1,2,0:2:0:0:
387,357,86311,1,2,0:2:0:0:
407,354,86393,1,2,0:2:0:0:
476,288,86558,1,2,0:2:0:0:
412,218,86723,1,2,0:2:0:0:
406,193,86806,1,2,0:2:0:0:
401,167,86888,1,2,0:2:0:0:
465,95,87053,6,0,L|474:22,1,67.5000025749208,2|2,0:2|0:2,0:0:0:0:
321,112,87382,1,2,0:2:0:0:
309,146,87465,1,2,0:2:0:0:
311,183,87547,1,2,0:2:0:0:
251,53,87712,1,2,0:2:0:0:
246,42,87795,1,2,0:2:0:0:
241,31,87877,1,2,0:2:0:0:
192,116,88042,1,2,0:2:0:0:
183,134,88125,1,2,0:2:0:0:
175,152,88207,1,2,0:2:0:0:
21,28,88371,6,0,B|-2:70|-2:70|17:204,1,161.999995056153,6|10,3:2|3:2,0:0:0:0:
48,353,88866,1,0,0:0:0:0:
48,353,88948,1,2,0:2:0:0:
48,353,89031,2,0,L|64:273,1,80.9999975280763,2|2,3:2|0:2,0:0:0:0:
265,253,89360,1,10,3:2:0:0:
261,273,89442,1,0,0:0:0:0:
257,291,89524,1,2,0:2:0:0:
280,170,89689,5,2,3:2:0:0:
168,278,89855,1,2,0:2:0:0:
172,312,89937,1,2,0:2:0:0:
176,342,90020,1,10,3:2:0:0:
344,285,90185,1,2,0:2:0:0:
280,170,90349,1,2,3:2:0:0:
361,128,90514,1,2,0:2:0:0:
363,145,90596,1,2,0:2:0:0:
365,160,90679,1,10,3:2:0:0:
432,207,90844,1,2,0:2:0:0:
507,173,91009,5,2,3:2:0:0:
503,93,91174,1,2,0:2:0:0:
503,93,91256,1,2,0:2:0:0:
432,207,91421,1,2,0:2:0:0:
410,34,91668,5,2,3:2:0:0:
392,36,91751,1,0,0:0:0:0:
376,39,91833,1,2,0:2:0:0:
268,16,91998,1,10,3:2:0:0:
286,52,92080,1,2,0:2:0:0:
298,90,92162,1,2,0:2:0:0:
303,130,92245,1,2,0:2:0:0:
302,171,92327,5,2,3:2:0:0:
245,249,92492,1,2,0:2:0:0:
159,203,92657,1,10,3:2:0:0:
140,166,92739,1,2,0:2:0:0:
128,128,92821,1,2,0:2:0:0:
123,88,92904,1,2,0:2:0:0:
124,47,92986,5,2,3:2:0:0:
214,108,93152,1,2,0:2:0:0:
159,203,93317,1,10,3:2:0:0:
181,310,93481,1,2,0:2:0:0:
245,249,93646,6,0,B|265:244|265:244|329:260,1,80.9999975280763,2|2,3:2|0:2,0:0:0:0:
120,369,93976,1,10,3:2:0:0:
120,369,94058,2,0,B|100:374|100:374|36:358,1,80.9999975280763,2|2,0:2|0:2,0:0:0:0:
15,335,94306,1,2,3:2:0:0:
76,259,94470,1,2,0:2:0:0:
79,245,94553,1,2,0:2:0:0:
83,232,94635,1,10,3:2:0:0:
35,153,94800,1,2,0:2:0:0:
176,220,94965,5,2,3:2:0:0:
241,157,95130,1,2,0:2:0:0:
245,127,95212,1,2,0:2:0:0:
250,95,95295,1,10,3:2:0:0:
335,145,95459,1,2,0:2:0:0:
287,233,95624,1,2,3:2:0:0:
259,244,95706,1,2,0:2:0:0:
229,246,95788,1,0,0:0:0:0:
200,237,95871,1,2,0:2:0:0:
176,220,95953,1,10,3:2:0:0:
151,129,96119,1,2,0:2:0:0:
250,95,96284,5,2,3:2:0:0:
185,28,96448,1,2,0:2:0:0:
185,28,96531,1,2,0:2:0:0:
91,53,96696,1,2,0:2:0:0:
91,53,96778,1,2,0:2:0:0:
250,95,96943,1,2,3:2:0:0:
275,87,97025,1,2,0:2:0:0:
298,80,97108,1,2,0:2:0:0:
363,211,97273,1,10,3:2:0:0:
398,224,97355,1,2,0:2:0:0:
430,237,97437,1,2,0:2:0:0:
504,358,97602,6,0,P|463:342|419:343,1,80.9999975280763,6|0,3:2|0:0,0:0:0:0:
127,222,97932,1,10,3:2:0:0:
127,222,98014,1,2,0:2:0:0:
127,222,98097,1,2,0:2:0:0:
185,296,98262,1,6,3:2:0:0:
210,263,98344,1,2,0:0:0:0:
216,223,98426,1,2,3:2:0:0:
112,16,98591,1,14,3:2:0:0:
121,69,98673,1,2,0:0:0:0:
154,113,98755,1,2,3:2:0:0:
204,139,98838,1,2,0:0:0:0:
259,141,98921,6,0,L|364:127,1,94.499997116089,6|0,3:2|0:0,0:0:0:0:
217,34,99251,1,8,3:2:0:0:
127,222,99415,2,0,L|22:208,1,94.499997116089,2|0,0:2|3:0,0:0:0:0:
0,112,99745,1,0,0:0:0:0:
0,112,99828,1,0,0:0:0:0:
0,112,99910,1,8,3:2:0:0:
47,306,100075,1,2,0:2:0:0:
229,254,100240,6,0,P|231:202|205:145,1,94.499997116089,2|0,3:2|0:0,0:0:0:0:
340,37,100569,2,0,P|338:89|364:146,1,94.499997116089,8|0,3:2|0:0,0:0:0:0:
512,195,100899,1,2,3:2:0:0:
399,346,101064,1,2,0:2:0:0:
366,342,101146,1,2,0:2:0:0:
334,338,101229,1,10,3:2:0:0:
426,267,101393,1,2,0:2:0:0:
226,339,101558,6,0,B|204:296|204:296|214:239,1,94.499997116089,2|0,3:2|0:0,0:0:0:0:
239,74,101888,1,8,3:2:0:0:
239,74,101970,1,0,0:0:0:0:
239,74,102053,1,0,0:0:0:0:
400,166,102218,2,0,B|357:187|357:187|300:177,1,94.499997116089,2|0,3:2|0:0,0:0:0:0:
135,152,102548,1,8,3:2:0:0:
135,152,102630,1,0,0:0:0:0:
135,152,102713,1,0,0:0:0:0:
325,0,102877,6,0,L|339:100,1,94.499997116089,2|0,3:2|0:0,0:0:0:0:
30,186,103207,2,0,L|43:92,1,94.499997116089,10|0,3:2|0:0,0:0:0:0:
311,180,103536,2,0,L|404:193,1,94.499997116089,2|0,3:2|0:0,0:0:0:0:
94,283,103866,2,0,L|0:296,1,94.499997116089,10|0,3:2|0:0,0:0:0:0:
378,379,104196,6,0,P|363:334|368:287,1,94.499997116089,2|0,3:2|0:0,0:0:0:0:
223,154,104525,1,8,3:2:0:0:
223,154,104608,1,0,0:0:0:0:
223,154,104690,1,0,0:0:0:0:
116,51,104855,2,0,P|130:95|125:142,1,94.499997116089,2|0,3:2|0:0,0:0:0:0:
271,276,105184,1,8,3:2:0:0:
271,276,105267,1,0,0:0:0:0:
271,276,105349,1,0,0:0:0:0:
493,151,105514,6,0,L|301:191,1,188.999994232178,2|8,3:2|3:2,0:0:0:0:
68,360,106009,1,0,0:0:0:0:
68,360,106091,1,0,0:0:0:0:
68,360,106174,2,0,B|58:311|58:311|70:267|70:267|58:210,2,141.749995674133,2|2|2,3:2|0:2|0:2,0:0:0:0:
395,230,106833,5,2,3:2:0:0:
160,188,106998,1,2,3:2:0:0:
160,188,107080,1,0,3:0:0:0:
160,188,107163,1,10,3:2:0:0:
224,379,107328,2,0,L|244:284,1,94.499997116089,2|0,3:2|3:0,0:0:0:0:
490,248,107657,1,2,3:2:0:0:
280,136,107822,1,10,3:2:0:0:
285,172,107904,1,2,0:0:0:0:
289,204,107987,1,2,3:2:0:0:
416,122,108152,5,6,3:2:0:0:
417,108,108234,1,0,0:0:0:0:
419,95,108317,1,0,0:0:0:0:
400,74,108399,5,0,3:0:0:0:
398,61,108481,1,8,3:2:0:0:
396,47,108564,1,0,0:0:0:0:
400,32,108646,5,2,3:2:0:0:
371,47,108729,1,2,0:2:0:0:
348,72,108811,1,2,0:2:0:0:
330,109,108893,1,2,3:2:0:0:
308,151,108976,1,2,0:2:0:0:
265,179,109058,1,2,0:2:0:0:
210,189,109141,5,14,3:2:0:0:
279,266,109306,1,6,3:2:0:0:
75,251,109470,6,0,P|62:299|78:365,1,112.5,6|2,3:2|0:2,0:0:0:0:
375,302,109800,2,0,P|390:250|377:189,1,112.5,10|2,3:2|0:2,0:0:0:0:
179,59,110130,5,2,3:2:0:0:
141,86,110212,1,2,0:2:0:0:
127,121,110295,1,2,0:2:0:0:
132,152,110377,1,2,0:2:0:0:
150,168,110459,1,10,3:2:0:0:
166,174,110542,1,2,0:2:0:0:
184,171,110624,1,2,0:2:0:0:
188,161,110707,1,0,0:0:0:0:
181,150,110789,5,2,3:2:0:0:
161,156,110871,1,2,0:2:0:0:
151,185,110954,1,2,0:2:0:0:
158,217,111036,1,2,0:2:0:0:
183,245,111119,1,10,3:2:0:0:
222,244,111201,1,2,0:2:0:0:
255,217,111284,1,2,0:2:0:0:
264,180,111366,1,2,0:2:0:0:
289,144,111448,1,2,3:2:0:0:
341,133,111531,1,2,0:2:0:0:
383,159,111613,1,2,0:2:0:0:
395,209,111696,1,2,0:2:0:0:
369,255,111778,1,10,3:2:0:0:
321,278,111860,1,2,0:2:0:0:
303,327,111943,1,2,0:2:0:0:
332,368,112025,1,0,0:0:0:0:
383,374,112108,5,2,3:2:0:0:
410,348,112190,1,0,0:0:0:0:
443,324,112273,5,2,0:2:0:0:
450,294,112355,1,0,0:0:0:0:
477,266,112437,6,0,L|466:199,3,45,10|2|2|0,3:2|0:2|0:2|0:0,0:0:0:0:
444,150,112767,5,2,3:2:0:0:
455,118,112849,1,0,0:0:0:0:
483,94,112932,5,2,0:2:0:0:
480,65,113014,1,0,0:0:0:0:
459,37,113097,6,0,L|393:31,3,45,10|2|2|0,3:2|0:2|0:2|0:0,0:0:0:0:
343,70,113426,5,6,3:2:0:0:
336,82,113509,1,2,0:2:0:0:
331,99,113591,1,2,0:2:0:0:
333,124,113674,1,2,0:2:0:0:
342,147,113756,1,10,3:2:0:0:
343,180,113839,1,2,0:2:0:0:
328,209,113921,1,2,0:2:0:0:
297,230,114003,1,2,0:2:0:0:
260,226,114086,1,2,3:2:0:0:
224,206,114168,1,2,0:2:0:0:
206,170,114251,1,2,0:2:0:0:
214,127,114333,1,2,0:2:0:0:
205,79,114415,1,10,3:2:0:0:
163,50,114498,1,2,0:2:0:0:
111,55,114580,1,2,0:2:0:0:
71,90,114663,1,0,0:0:0:0:
66,147,114745,5,6,3:2:0:0:
96,199,114828,1,2,0:2:0:0:
153,216,114910,1,2,0:2:0:0:
212,206,114992,1,0,0:0:0:0:
252,160,115075,1,10,3:2:0:0:
306,132,115157,1,2,0:2:0:0:
366,126,115240,1,2,0:2:0:0:
421,148,115322,1,0,0:0:0:0:
458,195,115404,5,2,3:2:0:0:
428,247,115487,1,2,0:2:0:0:
370,264,115569,1,2,0:2:0:0:
311,254,115651,1,2,0:2:0:0:
271,207,115734,1,10,3:2:0:0:
218,181,115816,1,2,0:2:0:0:
158,174,115899,1,2,0:2:0:0:
102,196,115981,1,0,0:0:0:0:
66,243,116063,5,2,3:2:0:0:
99,297,116146,1,2,0:2:0:0:
161,319,116229,1,2,0:2:0:0:
222,303,116311,1,0,0:0:0:0:
265,257,116393,5,10,3:2:0:0:
309,232,116476,1,2,0:2:0:0:
361,242,116559,1,2,0:2:0:0:
397,278,116641,1,0,0:0:0:0:
391,317,116723,5,2,3:2:0:0:
350,316,116806,1,2,0:2:0:0:
318,288,116889,1,2,0:2:0:0:
307,249,116971,1,0,0:0:0:0:
331,218,117053,5,10,3:2:0:0:
346,246,117136,1,2,0:2:0:0:
341,279,117219,1,2,0:2:0:0:
318,302,117301,1,2,0:2:0:0:
288,316,117382,6,0,L|158:330,1,112.5,6|2,3:2|3:2,0:0:0:0:
359,86,117712,2,0,L|489:100,1,112.5,10|2,3:2|3:2,0:0:0:0:
163,44,118042,5,6,3:2:0:0:
225,230,118207,1,2,3:2:0:0:
359,86,118371,1,10,3:2:0:0:
394,96,118454,1,2,0:0:0:0:
432,118,118536,1,2,0:2:0:0:
461,154,118619,1,2,0:0:0:0:
460,203,118701,5,6,3:2:0:0:
407,244,118784,1,2,3:2:0:0:
343,254,118866,1,2,0:2:0:0:
279,233,118948,1,2,3:2:0:0:
235,184,119031,1,14,3:2:0:0:
186,140,119113,1,2,3:2:0:0:
119,131,119196,1,2,3:2:0:0:
57,150,119278,1,2,3:2:0:0:
23,208,119360,2,0,L|27:248,4,28.125,6|0|2|0|2,3:2|0:0|3:2|0:0|3:2,0:0:0:0:
112,57,119690,5,14,3:2:0:0:
119,131,119772,1,2,3:2:0:0:
128,206,119854,1,2,3:2:0:0:
136,281,119937,1,2,3:2:0:0:
144,356,120019,1,6,3:2:0:0:
