osu file format v14

[General]
AudioFilename: audio.mp3
AudioLeadIn: 0
PreviewTime: 18711
Countdown: 0
SampleSet: Normal
StackLeniency: 0.4
Mode: 0
LetterboxInBreaks: 0
WidescreenStoryboard: 1

[Editor]
Bookmarks: 17649,54195,77649
DistanceSpacing: 0.8
BeatDivisor: 2
GridSize: 8
TimelineZoom: 1.8

[Metadata]
Title:jocelyn flores
TitleUnicode:jocelyn flores
Artist:swerzie
ArtistUnicode:swerzie
Creator:Aosek
Version:s a d d n e s
Source:
Tags:sad depression suicide jocelyn flores swerzie lisabestgirl
BeatmapID:1626426
BeatmapSetID:773751

[Difficulty]
HPDrainRate:4
CircleSize:5
OverallDifficulty:8
ApproachRate:8.8
SliderMultiplier:1
SliderTickRate:1

[Events]
//Background and Video events
Video,0,"Untitled.mp4"
0,0,"chrome_2018-09-01_03-39-01.png",0,0
//Break Periods
//Storyboard Layer 0 (Background)
//Storyboard Layer 1 (Fail)
//Storyboard Layer 2 (Pass)
//Storyboard Layer 3 (Foreground)
//Storyboard Sound Samples

[TimingPoints]
166,545.454545454546,4,1,1,100,1,0
17620,-100,4,1,2,60,0,0
18166,-100,4,1,2,80,0,0
22529,-100,4,1,2,100,0,0
28529,-100,4,1,2,100,0,0
31802,-100,4,1,2,100,0,0
39438,-100,4,1,2,100,0,0
39984,-100,4,1,2,100,0,0
43256,-100,4,1,2,100,0,0
43802,-100,4,1,2,100,0,0
44166,-100,4,1,2,100,0,0
48166,-100,4,1,2,100,0,0
49256,-100,4,1,2,100,0,0
51984,-200,4,1,2,100,0,0
52529,-100,4,1,2,100,0,0
54166,-100,4,1,2,100,0,0
59075,-100,4,1,2,100,0,0
59620,-125,4,1,2,100,0,0
60166,-166.666666666667,4,1,2,100,0,0
61256,-100,4,1,2,100,0,0
66166,-125,4,1,2,80,0,0
67256,-100,4,1,2,60,0,0
68347,-100,4,1,2,40,0,0
68620,-100,4,1,2,50,0,0
69984,-100,4,1,2,100,0,0
72438,-100,4,1,2,80,0,0
74893,-125,4,1,2,60,0,0
75438,-166.666666666667,4,1,2,40,0,0
75984,-166.666666666667,4,1,2,20,0,0

[Colours]
Combo1 : 177,168,46
Combo2 : 255,255,255
Combo3 : 229,229,229
Combo4 : 223,217,132

[HitObjects]
256,192,12711,12,0,17075,0:0:0:0:
312,80,17620,6,0,P|280:48|240:32,1,50,0|0,1:0|1:0,1:0:0:0:
168,72,18166,2,0,P|197:106|240:120,1,50,0|0,1:0|1:0,1:0:0:0:
311,160,18711,5,0,0:0:0:0:
382,207,18893,1,0,0:0:0:0:
311,239,19075,1,0,0:0:0:0:
365,120,19256,5,0,0:0:0:0:
397,289,19438,1,0,0:0:0:0:
240,215,19620,1,0,0:0:0:0:
366,120,19802,6,0,L|405:105,2,33.3333333333333,0|0|0,1:0|1:0|1:0,1:0:0:0:
296,152,20347,1,0,1:0:0:0:
191,229,20893,5,0,0:0:0:0:
182,272,21075,1,0,0:0:0:0:
225,255,21256,1,0,1:0:0:0:
152,185,21438,5,0,1:0:0:0:
287,222,21620,1,0,1:0:0:0:
183,318,21802,1,0,1:0:0:0:
238,145,21984,5,0,1:0:0:0:
271,341,22166,1,0,1:0:0:0:
102,256,22347,1,0,1:0:0:0:
62,312,22529,6,0,B|35:299|22:272,1,50,0|0,1:0|1:0,1:0:0:0:
111,183,23075,5,0,1:0:0:0:
36,162,23256,1,0,1:0:0:0:
166,128,23438,1,0,1:0:0:0:
73,32,23620,5,0,1:0:0:0:
148,54,23802,1,0,1:0:0:0:
17,86,23984,1,0,1:0:0:0:
17,86,24166,1,0,1:0:0:0:
128,0,24347,1,0,1:0:0:0:
244,88,24529,1,0,1:0:0:0:
244,88,24711,6,0,L|276:72,1,33.3333333333333,0|0,1:0|1:0,1:0:0:0:
170,178,25075,6,0,L|215:164,2,33.3333333333333,0|0|0,1:0|1:0|1:0,1:0:0:0:
258,225,25620,1,0,1:0:0:0:
327,282,25802,6,0,L|359:304,1,33.3333333333333,0|0,1:0|1:0,1:0:0:0:
459,290,26166,1,0,1:0:0:0:
498,192,26347,2,0,L|466:152,1,33.3333333333333,0|0,1:0|1:0,1:0:0:0:
361,58,26893,5,0,1:0:0:0:
225,138,27075,1,0,1:0:0:0:
329,122,27256,1,0,1:0:0:0:
228,243,27438,5,0,1:0:0:0:
319,213,27620,1,0,1:0:0:0:
273,311,27802,1,0,1:0:0:0:
352,384,27984,5,0,1:0:0:0:
449,333,28166,1,0,1:0:0:0:
427,227,28347,1,0,1:0:0:0:
319,213,28529,6,0,L|351:197,1,33.3333333333333,0|0,1:0|1:0,1:0:0:0:
258,150,28893,1,0,1:0:0:0:
185,81,29075,6,0,L|241:89,1,33.3333333333333,0|0,1:0|1:0,1:0:0:0:
126,151,29438,1,0,1:0:0:0:
60,238,29620,2,0,B|85:235|85:235|117:219,1,50,0|0,1:0|1:0,1:0:0:0:
238,293,30166,6,0,L|277:271,2,25
272,128,30711,6,0,L|305:96,1,33.3333333333333,0|0,1:0|1:0,1:0:0:0:
208,56,31075,1,0,1:0:0:0:
144,136,31256,1,0,1:0:0:0:
112,40,31438,5,0,1:0:0:0:
40,160,31620,1,0,1:0:0:0:
78,260,31802,2,0,L|133:295,1,33.3333333333333,0|0,1:0|1:0,1:0:0:0:
163,358,32166,1,0,1:0:0:0:
187,213,32347,2,0,L|227:236,2,33.3333333333333,0|0|0,1:0|1:0|1:0,1:0:0:0:
268,329,32893,5,0,1:0:0:0:
339,213,33075,1,0,1:0:0:0:
411,336,33256,1,0,1:0:0:0:
512,199,33438,5,0,1:0:0:0:
440,98,33620,1,0,1:0:0:0:
375,199,33802,1,0,1:0:0:0:
298,77,33984,6,0,L|282:125,1,33.3333333333333,0|0,1:0|1:0,1:0:0:0:
205,191,34347,1,0,1:0:0:0:
205,191,34529,2,0,L|229:223,2,33.3333333333333,0|0|0,1:0|1:0|1:0,1:0:0:0:
144,320,35075,5,0,1:0:0:0:
144,320,35256,1,0,1:0:0:0:
208,264,35438,1,0,1:0:0:0:
287,339,35620,5,0,1:0:0:0:
287,339,35802,1,0,1:0:0:0:
294,220,35984,1,0,1:0:0:0:
418,259,36166,5,0,1:0:0:0:
418,259,36347,1,0,1:0:0:0:
306,134,36529,1,0,1:0:0:0:
411,96,36711,5,0,1:0:0:0:
411,96,36893,1,0,1:0:0:0:
208,96,37075,1,0,1:0:0:0:
304,248,37256,5,0,1:0:0:0:
411,96,37438,1,0,1:0:0:0:
232,216,37620,5,0,1:0:0:0:
170,132,37802,1,0,1:0:0:0:
70,261,37984,1,0,1:0:0:0:
74,159,38166,1,0,1:0:0:0:
164,295,38347,6,0,L|192:360,1,50,0|0,1:0|1:0,1:0:0:0:
296,360,38893,5,0,1:0:0:0:
231,274,39075,1,0,1:0:0:0:
359,180,39256,1,0,1:0:0:0:
256,88,39438,6,0,L|280:56,1,33.3333333333333,0|0,1:0|1:0,1:0:0:0:
213,164,39802,1,0,1:0:0:0:
99,204,39984,6,0,L|131:180,2,33.3333333333333,0|0|0,1:0|1:0|1:0,1:0:0:0:
179,284,40529,5,0,1:0:0:0:
259,329,40711,1,0,1:0:0:0:
352,308,40893,1,0,1:0:0:0:
435,284,41075,5,0,1:0:0:0:
347,204,41256,1,0,1:0:0:0:
235,180,41438,1,0,1:0:0:0:
355,84,41620,6,0,L|379:44,1,33.3333333333333,0|0,1:0|1:0,1:0:0:0:
243,172,41984,1,0,1:0:0:0:
299,36,42166,6,0,L|283:-28,1,33.3333333333333,0|0,1:0|1:0,1:0:0:0:
347,228,42529,1,0,1:0:0:0:
203,23,42711,6,0,L|164:-16,1,33.3333333333333,0|0,1:0|1:0,1:0:0:0:
349,264,43256,6,0,L|308:298,1,33.3333333333333,0|0,1:0|1:0,1:0:0:0:
265,356,43620,1,0,1:0:0:0:
179,283,43802,2,0,L|129:279,1,33.3333333333333,0|0,1:0|1:0,1:0:0:0:
50,219,44165,5,0,1:0:0:0:
96,128,44347,1,0,1:0:0:0:
169,222,44529,5,0,1:0:0:0:
224,101,44711,1,0,1:0:0:0:
310,21,44893,6,0,L|342:5,2,33.3333333333333,0|0|0,1:0|1:0|1:0,1:0:0:0:
293,115,45438,5,0,1:0:0:0:
317,235,45620,1,0,1:0:0:0:
405,283,45802,1,0,1:0:0:0:
497,280,45984,5,0,1:0:0:0:
426,235,46166,1,0,1:0:0:0:
410,147,46347,2,0,L|426:107,2,33.3333333333333,0|0|0,1:0|1:0|1:0,1:0:0:0:
393,22,46893,5,0,0:0:0:0:
501,107,47074,1,0,0:0:0:0:
432,264,47620,5,0,1:0:0:0:
390,333,47802,1,0,1:0:0:0:
315,355,47984,1,0,1:0:0:0:
225,306,48166,6,0,L|202:257,1,33.3333333333333,0|0,1:0|1:0,1:0:0:0:
116,324,48529,1,0,1:0:0:0:
273,190,48711,6,0,L|265:238,2,33.3333333333333,0|0|0,1:0|1:0|1:0,1:0:0:0:
209,84,49256,1,0,1:0:0:0:
185,124,49438,2,0,L|169:164,1,33.3333333333333,0|0,1:0|1:0,1:0:0:0:
244,13,49802,1,0,1:0:0:0:
289,46,49984,2,0,L|310:71,1,33.3333333333333,0|0,1:0|1:0,1:0:0:0:
407,146,50347,5,0,1:0:0:0:
438,257,50529,1,0,1:0:0:0:
326,218,50711,1,0,1:0:0:0:
311,159,50893,5,0,1:0:0:0:
344,124,51075,1,0,1:0:0:0:
298,113,51257,1,0,1:0:0:0:
236,151,51438,2,0,L|176:164,1,50
309,377,51984,6,0,L|285:385,1,16.6666666666667,0|0,1:0|1:0,1:0:0:0:
156,180,52529,6,0,L|141:117,1,50
52,156,53075,6,0,L|124:178,1,50
126,78,53620,6,0,L|83:130,1,50
97,19,54166,6,0,P|123:8|156:8,1,50,0|0,1:0|1:0,1:0:0:0:
204,61,54711,1,0,1:0:0:0:
285,55,54984,1,0,1:0:0:0:
289,59,55075,1,0,1:0:0:0:
293,63,55166,1,0,1:0:0:0:
297,67,55256,1,0,1:0:0:0:
383,79,55529,5,0,1:0:0:0:
383,79,55802,1,0,1:0:0:0:
367,189,56075,2,0,P|341:210|295:213,1,50,0|0,1:0|1:0,1:0:0:0:
259,168,56620,5,0,1:0:0:0:
179,118,56893,2,0,P|211:102|246:110,1,50,0|0,1:0|1:0,1:0:0:0:
278,174,57438,5,0,1:0:0:0:
278,174,57711,1,0,1:0:0:0:
217,234,57984,2,0,L|164:267,1,50
76,228,58529,2,0,L|129:195,1,50
200,188,59075,5,0,0:0:0:0:
239,143,59347,1,0,0:0:0:0:
239,175,59620,5,0,0:0:0:0:
263,151,59893,1,0,0:0:0:0:
264,175,60166,5,0,0:0:0:0:
279,156,60438,1,0,0:0:0:0:
340,98,60711,5,0,1:0:0:0:
252,154,60984,1,0,1:0:0:0:
197,272,61256,6,0,P|178:285|124:294,1,50,0|0,1:0|1:0,1:0:0:0:
78,265,61802,1,0,1:0:0:0:
31,189,62075,5,0,1:0:0:0:
35,186,62165,1,0,1:0:0:0:
39,182,62256,1,0,1:0:0:0:
43,178,62347,1,0,1:0:0:0:
115,128,62620,5,0,1:0:0:0:
115,128,62893,2,0,L|165:162,1,50,0|0,1:0|1:0,1:0:0:0:
239,118,63438,5,0,1:0:0:0:
286,192,63711,6,0,L|278:208,3,16.6666666666667,0|0|0|0,1:0|1:0|1:0|1:0,1:0:0:0:
323,276,64256,5,0,1:0:0:0:
299,300,64529,1,0,1:0:0:0:
267,300,64802,1,0,1:0:0:0:
178,255,65075,6,0,L|218:183,1,50,0|0,1:0|1:0,1:0:0:0:
231,140,65620,5,0,1:0:0:0:
287,116,65893,1,0,1:0:0:0:
327,204,66166,6,0,L|367:140,1,40,0|0,1:0|1:0,1:0:0:0:
400,107,66711,5,0,1:0:0:0:
428,98,66984,1,0,1:0:0:0:
483,161,67256,6,0,L|506:144,2,25,0|0|0,1:0|1:0|1:0,1:0:0:0:
448,234,67666,2,0,L|376:290,1,75,0|0,1:0|1:0,1:0:0:0:
319,242,68347,6,0,L|298:276,1,25,0|0,1:0|1:0,1:0:0:0:
234,290,68620,6,0,L|213:309,3,16.6666666666667,0|0|0|0,1:0|1:0|1:0|1:0,1:0:0:0:
131,294,69166,5,0,1:0:0:0:
172,180,69438,2,0,L|202:154,2,25,0|0|0,1:0|1:0|1:0,1:0:0:0:
279,171,69984,6,0,L|335:123,1,50,0|0,1:0|1:0,1:0:0:0:
314,57,70529,1,0,1:0:0:0:
240,90,70802,5,0,1:0:0:0:
234,92,70892,1,0,1:0:0:0:
229,95,70983,1,0,1:0:0:0:
224,97,71074,1,0,1:0:0:0:
130,112,71347,5,0,1:0:0:0:
130,112,71620,6,0,P|146:139|205:159,1,50,0|0,1:0|1:0,1:0:0:0:
196,236,72166,1,0,1:0:0:0:
295,245,72438,2,0,L|316:236,3,16.6666666666667,0|0|0|0,1:0|1:0|1:0|1:0,1:0:0:0:
347,158,72984,1,0,1:0:0:0:
290,76,73256,6,0,L|218:52,1,50,0|0,1:0|1:0,1:0:0:0:
139,82,73802,5,0,1:0:0:0:
139,82,74075,1,0,1:0:0:0:
227,178,74347,6,0,P|245:205|286:224,1,50,0|0,1:0|1:0,1:0:0:0:
315,154,74893,6,0,P|331:170|376:182,1,40,0|0,1:0|1:0,1:0:0:0:
411,122,75438,5,0,0:0:0:0:
438,132,75710,1,0,0:0:0:0:
256,192,75984,12,0,78711,1:0:0:0:
