osu file format v14

[General]
AudioFilename: audio.mp3
AudioLeadIn: 0
PreviewTime: 18711
Countdown: 0
SampleSet: Normal
StackLeniency: 0.6
Mode: 0
LetterboxInBreaks: 0
WidescreenStoryboard: 1

[Editor]
Bookmarks: 17620,54195,77649
DistanceSpacing: 0.8
BeatDivisor: 2
GridSize: 8
TimelineZoom: 1

[Metadata]
Title:jocelyn flores
TitleUnicode:jocelyn flores
Artist:swerzie
ArtistUnicode:swerzie
Creator:Aosek
Version:n o r m a l
Source:
Tags:sad depression suicide jocelyn flores swerzie lisabestgirl
BeatmapID:1640148
BeatmapSetID:773751

[Difficulty]
HPDrainRate:5
CircleSize:3.5
OverallDifficulty:4
ApproachRate:5
SliderMultiplier:1
SliderTickRate:2

[Events]
//Background and Video events
Video,0,"Untitled.mp4"
0,0,"chrome_2018-09-01_03-39-01.png",0,0
//Break Periods
//Storyboard Layer 0 (Background)
//Storyboard Layer 1 (Fail)
//Storyboard Layer 2 (Pass)
//Storyboard Layer 3 (Foreground)
//Storyboard Sound Samples

[TimingPoints]
166,545.454545454546,4,1,2,100,1,0
25256,-83.3333333333333,4,1,2,100,0,0
26347,-100,4,1,2,100,0,0

[Colours]
Combo1 : 177,168,46
Combo2 : 255,255,255
Combo3 : 229,229,229
Combo4 : 223,217,132

[HitObjects]
368,287,17620,6,0,P|343:306|304:305,1,50
288,292,18166,2,0,P|267:276|243:269,1,50
208,252,18711,5,0,0:0:0:0:
208,252,19256,1,0,0:0:0:0:
186,174,19802,2,0,P|154:186|112:228,2,50
252,129,20893,6,0,P|281:131|324:153,1,50
331,168,21438,2,0,P|357:167|378:152,1,50
428,111,21984,2,0,P|417:96|388:95,2,50
234,41,23075,6,0,L|162:33,2,50
264,67,23893,1,0,0:0:0:0:
299,83,24166,6,0,L|348:88,2,50
265,104,24984,1,0,0:0:0:0:
220,121,25256,6,0,P|233:142|274:156,1,59.9999981689454
309,173,25802,6,0,P|291:196|263:205,1,59.9999981689454
227,224,26347,6,0,L|166:247,1,50
147,264,26893,5,0,0:0:0:0:
161,301,27166,1,0,0:0:0:0:
195,320,27438,2,0,P|214:331|243:331,3,50
276,350,28529,6,0,L|333:331,1,50
362,343,29075,5,0,0:0:0:0:
399,312,29347,1,0,0:0:0:0:
427,283,29620,6,0,P|451:261|462:218,1,50
450,206,30166,2,0,P|429:186|397:183,1,50
373,163,30711,5,0,0:0:0:0:
335,150,30984,1,0,0:0:0:0:
300,169,31256,1,0,0:0:0:0:
266,147,31528,1,0,0:0:0:0:
243,180,31802,6,0,L|299:252,3,50
309,237,32893,6,0,L|261:309,1,50
258,311,33438,5,0,0:0:0:0:
220,296,33711,1,0,0:0:0:0:
186,274,33984,1,0,0:0:0:0:
151,254,34256,6,0,P|123:237|103:198,3,50
96,187,35347,1,0,0:0:0:0:
100,147,35620,6,0,P|115:107|148:91,3,50
149,76,36710,5,0,0:0:0:0:
186,62,36983,1,0,0:0:0:0:
222,78,37256,5,0,0:0:0:0:
239,114,37529,2,0,L|292:156,1,50
317,135,38075,2,0,L|357:191,1,50
405,229,38893,6,0,L|341:285,3,50
341,292,39984,1,0,0:0:0:0:
304,307,40256,1,0,0:0:0:0:
265,317,40529,6,0,P|240:314|219:301,3,50
194,269,41620,1,0,0:0:0:0:
175,233,41893,1,0,0:0:0:0:
138,249,42166,1,0,0:0:0:0:
110,219,42438,1,0,0:0:0:0:
87,185,42711,2,0,L|37:117,1,50
72,107,43256,5,0,0:0:0:0:
89,70,43529,1,0,0:0:0:0:
128,61,43802,2,0,P|157:70|180:93,1,50
158,119,44347,5,0,0:0:0:0:
126,144,44620,1,0,0:0:0:0:
119,183,44893,2,0,L|159:271,3,50
158,263,45984,5,0,0:0:0:0:
192,242,46256,2,0,L|216:170,1,50
239,169,46802,1,0,0:0:0:0:
221,133,47075,1,0,0:0:0:0:
298,113,47620,6,0,P|288:85|248:45,2,50
293,152,48438,1,0,0:0:0:0:
312,187,48711,2,0,L|379:230,1,50
336,249,49256,2,0,L|384:262,1,50
416,285,49802,1,0,0:0:0:0:
438,317,50075,1,0,0:0:0:0:
256,192,50347,12,0,51438,0:0:0:0:
256,192,51984,5,0,0:0:0:0:
256,192,52529,12,0,54166,0:0:0:0:
326,117,54711,6,0,P|360:75|416:48,1,100
439,48,55529,1,0,0:0:0:0:
461,81,55802,2,0,L|451:135,1,50
458,169,56347,6,0,L|402:225,3,50
256,192,57438,12,0,60166,0:0:0:0:
256,192,60711,5,0,0:0:0:0:
205,130,61256,6,0,P|227:83|277:50,1,100
295,28,62075,1,0,0:0:0:0:
334,34,62347,1,0,0:0:0:0:
359,72,62620,1,0,0:0:0:0:
384,102,62893,6,0,B|383:145|383:145|356:195,1,100
374,272,63984,2,0,B|318:264|318:264|283:238,1,100
345,188,65075,6,0,P|348:138|340:88,1,100
273,45,66166,2,0,P|269:95|277:145,1,100
256,192,67256,12,0,69438,0:0:0:0:
255,304,69984,6,0,P|205:323|151:320,1,100
92,278,71075,1,0,0:0:0:0:
113,244,71347,1,0,0:0:0:0:
138,213,71620,2,0,L|210:109,3,100
234,138,73529,5,0,0:0:0:0:
273,130,73802,2,0,L|397:107,3,100
256,192,75711,12,0,78711,0:0:0:0:
