osu file format v14

[General]
AudioFilename: audio.mp3
AudioLeadIn: 0
PreviewTime: 52670
Countdown: 0
SampleSet: Soft
StackLeniency: 0.4
Mode: 0
LetterboxInBreaks: 0
WidescreenStoryboard: 0

[Editor]
Bookmarks: 73888
DistanceSpacing: 1
BeatDivisor: 2
GridSize: 8
TimelineZoom: 1.300001

[Metadata]
Title:Blade of Hope (TV Size)
TitleUnicode:Blade of Hope (TV Size)
Artist:sweet ARMS
ArtistUnicode:sweet ARMS
Creator:Grissaryath
Version:Normal
Source:新妹魔王の契約者
Tags:shinmai maou no keiyakusha the testament of sister new devil opening anime japanese KwAIMSuckASFuk Azinlen
BeatmapID:2238630
BeatmapSetID:1069345

[Difficulty]
HPDrainRate:3
CircleSize:3.3
OverallDifficulty:4
ApproachRate:5.5
SliderMultiplier:1
SliderTickRate:1

[Events]
//Background and Video events
0,0,"Konachan.com - 235276 armor boots braids breasts clouds demon group horns katana male navel ponytail red_eyes red_hair seifuku short.jpg",0,0
//Break Periods
//Storyboard Layer 0 (Background)
//Storyboard Layer 1 (Fail)
//Storyboard Layer 2 (Pass)
//Storyboard Layer 3 (Foreground)
//Storyboard Layer 4 (Overlay)
//Storyboard Sound Samples

[TimingPoints]
999,346.820809248555,4,2,1,100,1,0
1158,320.855614973262,4,2,1,100,1,0
1459,331.491712707182,4,2,1,100,1,0
1624,310.880829015544,4,2,1,100,1,0
2240,319.148936170213,4,2,1,100,1,0
3681,319.148936170213,4,2,1,100,1,0
3681,-100,4,2,1,80,0,0
21553,-111.111111111111,4,2,1,40,0,0
31766,-100,4,2,1,60,0,0
41978,-100,4,2,1,60,0,0
53468,-100,4,2,1,80,0,1
73574,-100,4,2,1,80,0,0
73893,-100,4,2,1,80,0,1
77723,-100,4,2,1,80,0,0
86181,-100,4,2,1,80,0,0
90010,-100,4,2,1,5,0,0

[Colours]
Combo1 : 152,0,179
Combo2 : 174,0,0
Combo3 : 192,192,192

[HitObjects]
116,369,3357,5,8,0:2:0:0:
55,289,3681,2,0,P|45:228|29:175,1,100,6|8,1:2|0:2,0:0:0:0:
55,145,4159,2,0,P|64:84|80:31,1,100,2|0,1:2|1:2,0:0:0:0:
109,10,4638,2,0,P|139:59|189:66,1,100,10|0,0:2|0:2,0:0:0:0:
273,38,5276,1,8,0:2:0:0:
350,100,5595,2,0,L|450:95,1,100,2|10,1:2|0:2,0:0:0:0:
499,182,6234,6,0,L|399:187,1,100,6|10,1:2|0:2,0:0:0:0:
349,192,6712,2,0,P|322:260|269:204,1,150,2|8,1:2|0:2,0:0:0:0:
215,150,7510,1,0,1:2:0:0:
118,177,7829,1,8,0:2:0:0:
86,272,8149,2,0,P|95:324|99:373,1,100,0|10,1:2|0:2,0:0:0:0:
197,356,8787,6,0,B|236:370|236:370|320:342,1,100,6|8,1:2|0:2,0:0:0:0:
328,317,9266,2,0,B|367:303|367:303|451:331,1,100,2|0,1:2|1:2,0:0:0:0:
460,353,9744,2,0,P|466:304|482:248,1,100,10|0,0:2|1:2,0:0:0:0:
490,155,10383,1,8,0:2:0:0:
400,200,10702,2,0,P|369:224|299:210,1,100,2|10,1:2|0:2,0:0:0:0:
223,171,11340,6,0,P|222:130|215:66,1,100,6|10,1:2|0:2,0:0:0:0:
248,32,11819,2,0,P|289:17|374:75,1,150,2|8,1:2|0:2,0:0:0:0:
393,115,12457,1,4,1:2:0:0:
343,201,12776,2,0,P|330:256|328:303,1,100,2|2,1:2|1:2,0:0:0:0:
256,370,13415,1,6,1:2:0:0:
141,273,13893,6,0,P|91:275|38:281,1,100,6|8,1:2|0:2,0:0:0:0:
18,235,14372,2,0,P|11:184|-2:125,1,100,2|0,1:2|1:2,0:0:0:0:
22,91,14851,2,0,P|68:83|128:81,1,100,10|0,0:2|0:2,0:0:0:0:
165,170,15489,1,8,0:2:0:0:
229,93,15808,2,0,P|291:69|343:86,1,100,2|10,1:2|0:2,0:0:0:0:
384,152,16446,6,0,P|392:103|408:56,1,100,6|10,1:2|0:2,0:0:0:0:
441,18,16925,2,0,P|498:79|482:153,1,150,2|8,1:2|0:2,0:0:0:0:
479,239,17723,1,0,1:2:0:0:
383,266,18042,1,8,0:2:0:0:
301,208,18361,2,0,P|255:213|192:234,1,100,0|10,1:2|0:2,0:0:0:0:
112,271,19000,6,0,P|91:218|59:171,1,100,6|8,1:2|0:2,0:0:0:0:
28,150,19478,2,0,P|43:88|83:78,1,100,2|0,1:2|1:2,0:0:0:0:
125,87,19957,1,14,0:2:0:0:
125,87,20117,1,6,1:2:0:0:
199,20,20436,1,6,1:2:0:0:
276,82,20755,2,0,B|309:96|309:96|371:83,1,100,6|6,1:2|1:2,0:0:0:0:
466,178,21553,6,0,P|450:249|439:333,1,134.999995880127,0|2,0:0|0:2,0:0:0:0:
358,346,22351,2,0,P|352:289|341:236,1,89.9999972534181,0|2,0:2|0:2,0:0:0:0:
316,177,22989,1,0,0:2:0:0:
316,177,23149,2,0,B|274:148|274:148|141:174,1,179.999994506836,2|0,0:2|0:0,0:0:0:0:
60,195,24106,6,0,P|73:247|81:295,1,89.9999972534181,2|0,0:2|0:2,0:0:0:0:
71,327,24585,2,0,P|112:355|160:330,1,89.9999972534181,2|0,0:2|0:2,0:0:0:0:
184,262,25223,2,0,P|236:286|271:308,1,89.9999972534181,2|0,0:2|0:2,0:0:0:0:
292,338,25702,2,0,P|358:308|307:239,1,179.999994506836,2|0,0:2|0:0,0:0:0:0:
267,159,26659,6,0,L|366:149,1,89.9999972534181,2|0,0:2|0:2,0:0:0:0:
387,116,27138,2,0,P|424:110|470:146,1,89.9999972534181,2|0,0:2|0:2,0:0:0:0:
473,227,27776,2,0,P|456:277|450:322,1,89.9999972534181,2|0,0:2|0:2,0:0:0:0:
434,356,28255,2,0,P|358:337|251:320,1,179.999994506836,2|0,0:2|0:0,0:0:0:0:
179,365,29212,5,2,0:2:0:0:
110,315,29532,1,0,0:2:0:0:
110,315,29691,2,0,P|102:258|87:208,1,89.9999972534181,2|0,0:2|0:2,0:0:0:0:
45,150,30329,1,2,0:2:0:0:
90,72,30649,2,0,P|110:62|144:51,1,44.999998626709,0|2,0:0|0:2,0:0:0:0:
187,131,31127,1,8,0:2:0:0:
187,131,31287,2,0,P|168:144|142:157,2,44.999998626709,0|0|0,1:2|0:0|0:0,0:0:0:0:
237,127,31766,6,0,P|285:130|333:173,1,100,6|10,1:2|0:2,0:0:0:0:
345,206,32244,2,0,P|332:258|325:309,1,100,2|2,1:2|1:2,0:0:0:0:
345,355,32723,1,10,0:2:0:0:
345,355,32883,2,0,P|396:367|437:336,1,100,2|2,0:2|1:2,0:0:0:0:
462,302,33361,1,10,0:2:0:0:
466,201,33681,1,2,1:2:0:0:
403,122,34000,1,10,0:2:0:0:
303,111,34319,6,0,B|266:132|266:132|242:191,1,100,6|10,1:2|0:2,0:0:0:0:
220,229,34798,2,0,P|235:276|245:325,1,100,2|2,1:2|1:2,0:0:0:0:
155,370,35436,1,2,1:2:0:0:
80,312,35755,1,2,1:2:0:0:
80,312,35915,2,0,P|90:263|105:215,1,100,10|2,0:2|1:2,0:0:0:0:
81,118,36553,1,10,0:2:0:0:
157,53,36872,6,0,B|195:29|195:29|334:55,1,150,6|2,1:2|1:2,0:0:0:0:
395,75,37670,2,0,P|401:50|412:22,2,50,2|10|2,1:2|0:2|1:2,0:0:0:0:
380,177,38308,1,2,1:2:0:0:
380,177,38468,2,0,P|395:219|404:288,1,100,10|2,0:2|1:2,0:0:0:0:
448,362,39106,1,10,0:2:0:0:
349,343,39425,6,0,B|316:331|316:331|246:349,1,100,6|8,1:2|0:2,0:0:0:0:
205,362,39904,2,0,P|194:313|172:259,1,100,2|2,1:2|1:2,0:0:0:0:
93,210,40542,2,0,P|104:161|126:107,1,100,6|0,1:2|1:2,0:0:0:0:
151,74,41021,1,10,0:2:0:0:
249,59,41340,1,8,0:2:0:0:
320,128,41659,1,4,1:3:0:0:
309,227,41978,6,0,P|366:246|487:266,1,150,6|0,1:2|0:0,0:0:0:0:
409,118,42936,1,2,1:2:0:0:
338,46,43255,2,0,P|251:29|196:69,1,150,2|0,1:2|0:0,0:0:0:0:
113,180,44212,1,2,1:2:0:0:
68,269,44532,6,0,P|125:270|218:284,1,150,6|0,1:2|0:0,0:0:0:0:
340,197,45489,1,2,1:2:0:0:
403,275,45808,2,0,B|445:247|445:247|466:145,1,150,2|14,1:2|0:2,0:0:0:0:
375,28,46766,1,10,0:2:0:0:
292,84,47085,6,0,P|235:81|163:67,1,100,6|10,1:2|0:2,0:0:0:0:
103,118,47723,2,0,P|109:142|113:168,1,50,2|0,0:2|0:0,0:0:0:0:
118,216,48042,1,10,0:2:0:0:
183,291,48361,2,0,P|232:283|282:281,1,100,2|10,0:2|0:2,0:0:0:0:
377,312,49000,2,0,P|426:319|476:321,1,100,2|8,1:2|0:2,0:0:0:0:
476,221,49638,6,0,P|451:186|389:175,1,100,14|0,0:2|0:0,0:0:0:0:
298,182,50276,2,0,P|283:123|264:73,1,100,14|0,0:2|0:0,0:0:0:0:
187,28,50915,1,14,0:2:0:0:
97,71,51234,1,10,0:2:0:0:
99,170,51553,2,0,P|82:217|70:265,1,100,14|10,0:2|0:2,0:0:0:0:
129,345,52191,6,0,P|152:355|184:351,1,50,2|2,0:2|0:2,0:0:0:0:
218,326,52510,2,0,P|241:316|273:320,1,50,2|2,0:2|0:2,0:0:0:0:
308,343,52829,2,0,P|302:293|287:232,1,100,2|10,0:2|0:2,0:0:0:0:
313,146,53468,5,6,1:2:0:0:
416,138,53787,1,10,0:2:0:0:
416,138,53946,2,0,P|423:88|437:40,1,100,2|2,1:2|1:2,0:0:0:0:
337,28,54585,2,0,L|183:14,1,150,6|8,1:2|0:2,0:0:0:0:
100,64,55383,2,0,P|110:87|127:105,1,50,2|0,1:2|1:2,0:0:0:0:
171,127,55702,1,10,0:2:0:0:
119,212,56021,5,6,1:2:0:0:
24,230,56340,1,8,0:2:0:0:
24,230,56500,2,0,P|35:274|44:339,1,100,2|2,1:2|1:2,0:0:0:0:
134,367,57138,2,0,P|180:357|282:343,1,150,6|10,1:2|0:2,0:0:0:0:
322,251,57936,2,0,P|355:253|381:259,1,50,6|0,1:2|1:2,0:0:0:0:
419,271,58255,1,14,0:2:0:0:
465,359,58574,5,4,1:2:0:0:
504,266,58893,2,0,P|498:235|487:202,2,50,10|2|6,0:2|1:2|0:2,0:0:0:0:
482,169,59532,2,0,P|487:138|499:105,2,50,10|2|6,0:2|1:2|0:2,0:0:0:0:
384,147,60170,1,10,0:2:0:0:
304,208,60489,2,0,P|275:194|249:186,1,50,2|0,1:2|0:0,0:0:0:0:
212,168,60808,1,10,0:2:0:0:
188,70,61127,5,6,1:2:0:0:
267,8,61446,1,10,0:2:0:0:
267,8,61606,2,0,P|320:13|366:23,1,100,2|2,1:2|1:2,0:0:0:0:
387,120,62244,1,6,1:2:0:0:
329,202,62563,1,2,1:2:0:0:
329,202,62723,2,0,P|344:244|357:308,1,100,10|6,0:2|1:2,0:0:0:0:
275,357,63361,1,10,0:2:0:0:
191,300,63681,5,6,1:2:0:0:
220,207,64000,1,10,0:2:0:0:
220,207,64159,2,0,P|173:190|127:206,1,100,2|2,1:2|1:2,0:0:0:0:
103,303,64798,2,0,P|78:323|25:231,1,150,6|8,1:2|0:2,0:0:0:0:
6,159,65595,2,0,P|11:133|12:102,1,50,2|0,1:2|1:2,0:0:0:0:
10,59,65915,1,10,0:2:0:0:
102,20,66234,5,6,1:2:0:0:
184,85,66553,1,10,0:2:0:0:
184,85,66712,2,0,P|234:90|286:100,1,100,2|2,1:2|1:2,0:0:0:0:
382,92,67351,2,0,B|392:128|392:128|362:240,1,150,2|10,1:2|0:2,0:0:0:0:
414,322,68149,2,0,P|380:327|305:344,1,100,6|14,1:2|0:2,0:0:0:0:
258,259,68787,5,4,1:2:0:0:
284,162,69106,2,0,P|293:130|308:94,2,50,10|2|6,0:2|1:2|0:2,0:0:0:0:
211,93,69744,2,0,P|202:61|187:25,2,50,10|2|6,0:2|1:2|0:2,0:0:0:0:
166,182,70383,1,10,0:2:0:0:
67,175,70702,2,0,P|57:152|37:123,1,50,2|0,1:2|0:0,0:0:0:0:
14,89,71021,1,10,0:2:0:0:
72,17,71340,5,6,1:2:0:0:
170,52,71659,1,10,0:2:0:0:
170,52,71819,2,0,P|217:41|277:33,1,100,2|2,1:2|1:2,0:0:0:0:
365,11,72457,2,0,P|375:85|305:115,1,150,2|10,1:2|0:2,0:0:0:0:
356,208,73255,2,0,P|373:237|382:264,1,50,12|0,0:2|1:2,0:0:0:0:
408,292,73574,2,0,P|391:321|382:348,1,50,10|0,0:2|1:2,0:0:0:0:
345,366,73893,5,14,0:2:0:0:
247,342,74212,1,10,0:2:0:0:
234,242,74532,1,10,0:2:0:0:
143,199,74851,1,14,0:2:0:0:
53,242,75170,6,0,P|46:189|31:137,1,100,14|10,0:2|0:2,0:0:0:0:
66,49,75808,1,14,0:2:0:0:
165,52,76127,1,10,0:2:0:0:
219,135,76446,6,0,P|270:120|339:110,1,100,14|14,0:2|0:2,0:0:0:0:
398,55,77085,1,10,0:0:0:0:
484,104,77404,1,0,1:2:0:0:
423,183,77723,6,0,B|422:224|452:255|452:255|433:295|451:335,1,150,12|0,1:2|0:0,0:0:0:0:
427,369,78361,2,0,P|377:350|320:341,1,100,0|2,0:0|1:2,0:0:0:0:
231,353,79000,6,0,B|213:319|213:319|233:244,1,100,6|8,1:2|0:2,0:0:0:0:
245,212,79478,2,0,P|204:172|156:170,1,100,2|0,1:2|1:2,0:0:0:0:
116,187,79957,2,0,P|102:134|80:87,1,100,10|0,0:2|0:2,0:0:0:0:
145,14,80595,1,8,0:2:0:0:
240,44,80915,2,0,P|292:39|340:39,1,100,2|10,1:2|0:2,0:0:0:0:
435,69,81553,6,0,B|443:105|443:105|423:177,1,100,2|10,1:2|0:2,0:0:0:0:
398,206,82032,2,0,P|319:211|238:222,1,150,2|8,1:2|0:2,0:0:0:0:
168,279,82829,1,0,1:2:0:0:
215,367,83149,1,8,0:2:0:0:
312,346,83468,2,0,P|378:341|448:342,1,100,0|10,1:2|0:2,0:0:0:0:
490,279,84106,6,0,P|472:226|436:202,1,100,6|8,1:2|0:2,0:0:0:0:
388,191,84585,2,0,P|398:141|415:94,1,100,2|0,1:2|1:2,0:0:0:0:
441,54,85063,1,10,0:2:0:0:
441,54,85223,1,0,1:2:0:0:
352,7,85542,5,6,1:2:0:0:
258,43,85861,1,6,1:2:0:0:
253,143,86181,2,0,P|184:135|91:131,1,150,6|0,1:2|0:2,0:0:0:0:
256,192,87457,12,0,90010,0:0:0:0:
