osu file format v14

[General]
AudioFilename: audio.mp3
AudioLeadIn: 0
PreviewTime: 68018
Countdown: 0
SampleSet: Soft
StackLeniency: 0.3
Mode: 0
LetterboxInBreaks: 0
WidescreenStoryboard: 1

[Editor]
DistanceSpacing: 1
BeatDivisor: 4
GridSize: 4
TimelineZoom: 2.1

[Metadata]
Title:Trust in you (TV Size)
TitleUnicode:Trust in you (TV Size)
Artist:sweet ARMS
ArtistUnicode:sweet ARMS
Creator:Murada-
Version:Normal
Source:デート・ア・ライブⅡ
Tags:mahiru shiina seapodeerman date a live season 2 date-a-live ii season2 s2 opening op j-pop anime japanese jpop pop nomizu iori 野水伊織 togashi misuzu 富樫美鈴 kaori sadohara 佐土原かお misato 味里 female vocal vocalist
BeatmapID:4492466
BeatmapSetID:2135074

[Difficulty]
HPDrainRate:4
CircleSize:3
OverallDifficulty:4.5
ApproachRate:5.5
SliderMultiplier:0.959999999999999
SliderTickRate:1

[Events]
//Background and Video events
0,0,"tohkaa.jpg",0,0
//Break Periods
//Storyboard Layer 0 (Background)
//Storyboard Layer 1 (Fail)
//Storyboard Layer 2 (Pass)
//Storyboard Layer 3 (Foreground)
//Storyboard Layer 4 (Overlay)
//Storyboard Sound Samples

[TimingPoints]
755,315.789473684211,4,2,0,25,1,0
15912,-100,4,2,1,60,0,0
18439,-100,4,2,2,60,0,0
19702,-100,4,2,1,60,0,0
20965,-100,4,2,2,65,0,0
22070,-100,4,2,1,65,0,0
23491,-100,4,2,2,65,0,0
24123,-100,4,2,1,65,0,0
24755,-100,4,2,2,65,0,0
25070,-100,4,2,1,65,0,0
25386,-100,4,2,2,65,0,0
26018,-100,4,2,1,70,0,0
27123,-100,4,2,2,70,0,0
31070,-100,4,2,1,70,0,0
32176,-100,4,2,2,70,0,0
34860,-100,4,2,1,70,0,0
35333,-100,4,2,2,70,0,0
35806,-100,4,2,1,70,0,0
36123,-100,4,2,1,60,0,0
37070,-100,4,2,2,60,0,0
37227,-100,4,2,1,60,0,0
37702,-100,4,2,2,60,0,0
38649,-100,4,2,1,60,0,0
58544,-100,4,2,2,60,0,0
58860,-100,4,2,2,50,0,0
59965,-100,4,2,1,50,0,0
61386,-100,4,2,2,50,0,0
62491,-100,4,2,1,50,0,0
65018,-100,4,2,2,50,0,0
66439,-100,4,2,1,70,0,0
66912,-100,4,2,2,70,0,0
68807,-95.2380952380952,4,2,1,80,0,1
70070,-95.2380952380952,4,2,2,80,0,1
71333,-95.2380952380952,4,2,1,80,0,1
72597,-95.2380952380952,4,2,2,80,0,1
73860,-95.2380952380952,4,2,1,80,0,1
75123,-95.2380952380952,4,2,2,80,0,1
76544,-95.2380952380952,4,2,1,80,0,1
77649,-95.2380952380952,4,2,2,80,0,1
80176,-95.2380952380952,4,2,1,80,0,1
81439,-95.2380952380952,4,2,2,80,0,1
82702,-95.2380952380952,4,2,1,80,0,1
83965,-95.2380952380952,4,2,2,80,0,1
85228,-95.2380952380952,4,2,1,80,0,1
86649,-95.2380952380952,4,2,2,80,0,1
87123,-95.2380952380952,4,2,1,80,0,1
88070,-95.2380952380952,4,2,2,80,0,1
89176,-95.2380952380952,4,2,1,60,0,0
91702,-100,4,2,1,70,0,0
92807,-100,4,2,2,70,0,0
94228,-100,4,2,1,70,0,0
96123,-100,4,2,2,70,0,0
96439,-100,4,2,1,70,0,0
97702,-100,4,2,2,70,0,0
97859,-100,4,2,1,70,0,0
100544,-100,4,2,1,5,0,0

[Colours]
Combo1 : 255,241,121
Combo2 : 137,114,171
Combo3 : 204,148,207
Combo4 : 255,211,81

[HitObjects]
0,249,15912,6,0,P|22:155|49:63,1,192,4|2,3:2|2:0,2:0:0:0:
191,36,17018,2,0,P|299:14|335:118,1,240,6|2,3:2|2:0,2:0:0:0:
415,171,18123,1,2,2:0:0:0:
391,264,18439,2,0,P|297:286|205:313,1,192,6|2,3:2|2:0,2:0:0:0:
136,380,19386,1,2,2:0:0:0:
43,352,19702,2,0,P|25:282|5:212,1,144,6|8,3:2|2:0,2:0:0:0:
22,168,20333,1,8,2:0:0:0:
125,6,20965,6,0,P|166:86|257:82,1,192,6|10,3:2|2:0,2:0:0:0:
289,45,21755,1,0,3:0:0:0:
377,8,22070,1,6,3:2:0:0:
447,73,22386,2,0,P|427:142|409:211,1,144,8|10,2:0|2:0,2:0:0:0:
462,292,23176,1,2,2:0:0:0:
392,358,23491,2,0,P|322:354|285:296,1,144,6|0,3:2|3:0,2:0:0:0:
244,271,24123,2,0,P|255:224|268:178,1,95.9999999999999,14|2,2:0|2:0,2:0:0:0:
305,89,24755,1,6,3:2:0:0:
240,18,25070,1,6,3:2:0:0:
156,65,25386,2,0,P|109:51|63:41,1,95.9999999999999,6|10,3:2|2:0,2:0:0:0:
0,114,26018,6,0,P|6:137|11:160,1,48,6|0,3:2|2:0,2:0:0:0:
27,206,26333,1,8,2:0:0:0:
106,261,26649,2,0,P|92:306|82:353,1,95.9999999999999,2|8,3:2|2:0,2:0:0:0:
120,384,27123,2,0,P|152:349|198:338,1,95.9999999999999,6|0,3:2|3:0,2:0:0:0:
242,356,27597,1,8,2:0:0:0:
330,319,27912,2,0,P|362:354|408:365,1,95.9999999999999,2|8,3:2|2:0,2:0:0:0:
460,363,28386,1,0,2:0:0:0:
460,363,28544,6,0,P|469:316|484:270,1,95.9999999999999,2|8,3:2|2:0,2:0:0:0:
512,178,29176,1,2,3:2:0:0:
436,119,29491,1,10,2:0:0:0:
359,176,29807,2,0,P|313:161|266:152,1,95.9999999999999,2|8,3:2|2:0,2:0:0:0:
170,147,30439,2,0,P|181:100|216:69,1,95.9999999999999,0|10,3:0|2:0,2:0:0:0:
143,6,31070,6,0,P|120:12|97:17,1,48,6|0,3:2|2:0,2:0:0:0:
51,33,31386,1,8,2:0:0:0:
73,126,31702,2,0,P|59:171|49:218,1,95.9999999999999,2|8,3:2|2:0,2:0:0:0:
6,241,32176,2,0,P|20:286|30:333,1,95.9999999999999,6|0,3:2|3:0,2:0:0:0:
57,373,32649,1,8,2:0:0:0:
138,323,32965,2,0,P|170:288|216:277,1,95.9999999999999,2|8,3:2|2:0,2:0:0:0:
268,280,33439,1,0,2:0:0:0:
268,280,33597,6,0,P|253:325|244:372,1,95.9999999999999,2|8,3:2|2:0,2:0:0:0:
339,375,34228,2,0,P|362:369|385:364,1,48,2|0,3:2|3:0,2:0:0:0:
433,368,34544,1,10,2:0:0:0:
488,289,34860,2,0,P|496:241|512:196,1,95.9999999999999,14|2,2:0|3:2,2:0:0:0:
486,156,35333,1,12,2:0:0:0:
486,156,35491,2,0,P|454:121|408:110,1,95.9999999999999,2|14,3:2|2:0,2:0:0:0:
323,63,36123,6,0,P|317:39|311:16,2,48,10|10|10,2:0|2:0|2:0,2:0:0:0:
261,137,36755,1,8,2:0:0:0:
261,137,36912,2,0,P|245:182|237:229,1,95.9999999999999,8|6,2:0|3:2,2:0:0:0:
292,315,37544,1,10,2:0:0:0:
292,315,37702,1,6,3:2:0:0:
9,369,38649,6,0,P|19:322|32:276,1,95.9999999999999,6|8,3:2|3:2,2:0:0:0:
110,219,39281,2,0,P|134:225|157:231,2,48,2|2|10,3:2|2:0|3:2,2:0:0:0:
46,146,39912,2,0,P|36:99|23:53,1,95.9999999999999,2|10,3:2|3:2,2:0:0:0:
55,17,40386,2,0,P|101:28|132:63,1,95.9999999999999,2|2,2:0|3:2,2:0:0:0:
144,110,40860,1,8,2:0:0:0:
234,143,41176,6,0,P|265:108|311:96,1,95.9999999999999,0|8,3:0|3:2,2:0:0:0:
393,46,41807,2,0,P|399:22|405:-1,2,48,2|2|10,3:2|2:0|3:2,2:0:0:0:
478,91,42439,2,0,P|491:137|501:184,1,95.9999999999999,2|10,3:2|3:2,2:0:0:0:
466,217,42912,2,0,P|452:263|442:310,1,95.9999999999999,2|2,2:0|3:2,2:0:0:0:
425,355,43386,1,8,2:0:0:0:
330,371,43702,6,0,P|299:336|253:324,1,95.9999999999999,2|8,3:2|3:2,2:0:0:0:
220,359,44176,2,0,P|202:289|182:219,1,144,2|10,2:0|3:2,2:0:0:0:
277,207,44965,2,0,P|286:160|300:114,1,95.9999999999999,2|8,3:2|3:2,2:0:0:0:
344,92,45439,2,0,P|306:33|237:30,1,144,2|10,2:0|2:0,2:0:0:0:
146,1,46228,5,0,3:0:0:0:
75,65,46544,2,0,P|88:110|98:158,1,95.9999999999999,10|2,3:2|3:2,2:0:0:0:
23,219,47176,1,10,2:0:0:0:
105,269,47491,2,0,P|91:314|81:362,1,95.9999999999999,2|10,3:2|2:0,2:0:0:0:
125,384,47965,2,0,P|170:372|202:337,1,95.9999999999999,2|2,2:0|3:2,2:0:0:0:
243,310,48439,1,10,2:0:0:0:
325,369,48755,5,6,3:2:0:0:
326,370,48912,2,0,P|349:363|372:358,1,48,0|8,2:0|3:2,2:0:0:0:
449,299,49386,2,0,P|413:267|401:221,1,95.9999999999999,2|10,3:2|3:2,2:0:0:0:
434,187,49860,1,2,2:0:0:0:
434,187,50018,1,2,3:2:0:0:
497,116,50333,1,10,3:2:0:0:
497,116,50491,2,0,P|484:70|448:39,1,95.9999999999999,2|2,2:0|3:2,2:0:0:0:
404,21,50965,1,8,2:0:0:0:
350,100,51281,6,0,P|303:109|257:123,1,95.9999999999999,2|8,3:2|3:2,2:0:0:0:
161,132,51912,2,0,P|176:177|185:224,1,95.9999999999999,2|10,3:2|3:2,2:0:0:0:
227,259,52386,1,2,2:0:0:0:
227,259,52544,1,2,3:2:0:0:
167,335,52860,1,10,3:2:0:0:
167,335,53018,2,0,P|121:348|90:384,1,95.9999999999999,2|2,2:0|3:2,2:0:0:0:
12,327,53649,1,2,2:0:0:0:
12,327,53807,6,0,P|20:279|36:234,1,95.9999999999999,2|8,3:2|3:2,2:0:0:0:
75,206,54281,2,0,P|57:136|37:66,1,144,2|10,2:0|3:2,2:0:0:0:
111,5,55070,1,0,3:0:0:0:
184,67,55386,2,0,P|196:113|208:159,2,95.9999999999999,10|2|10,3:2|3:2|2:0,2:0:0:0:
267,19,56333,6,0,P|298:54|343:67,1,95.9999999999999,2|8,3:2|3:2,2:0:0:0:
431,26,56965,1,2,3:2:0:0:
503,89,57281,1,10,2:0:0:0:
442,163,57597,1,2,3:2:0:0:
512,229,57912,2,0,P|505:252|500:275,1,48,10|0,2:0|3:0,2:0:0:0:
458,299,58228,2,0,P|451:322|446:345,1,48,10|8,2:0|3:0,2:0:0:0:
416,383,58544,1,10,2:3:0:0:
330,340,58860,5,6,1:3:0:0:
330,340,59018,2,0,P|299:305|254:292,1,95.9999999999999,4|4,1:3|1:3,2:0:0:0:
214,262,59491,1,4,1:3:0:0:
274,187,59807,1,6,1:3:0:0:
274,187,59965,2,0,P|237:83|129:105,1,240,6|0,3:2|2:0,2:0:0:0:
10,256,61386,5,4,1:3:0:0:
10,256,61544,2,0,P|22:302|34:348,1,95.9999999999999,4|4,1:3|1:3,2:0:0:0:
69,382,62018,1,4,1:3:0:0:
135,313,62333,1,6,1:3:0:0:
135,313,62491,2,0,P|204:316|241:375,1,144,6|0,3:2|2:0,2:0:0:0:
509,270,63912,6,0,P|487:176|460:84,1,192,6|8,3:2|2:0,2:0:0:0:
332,18,65018,2,0,P|295:76|226:79,1,144,6|0,3:2|3:0,2:0:0:0:
146,26,65807,1,10,2:0:0:0:
71,87,66123,1,2,2:0:0:0:
113,173,66439,6,0,P|101:219|89:265,1,95.9999999999999,6|10,3:2|2:0,2:0:0:0:
43,280,66912,2,0,P|55:326|67:372,1,95.9999999999999,6|8,3:2|2:0,2:0:0:0:
119,384,67386,1,8,2:0:0:0:
119,384,67544,2,0,P|150:349|195:336,1,95.9999999999999,4|6,3:2|1:3,2:0:0:0:
239,358,68018,1,14,2:0:0:0:
486,309,68807,6,0,P|473:260|459:211,1,100.8,6|0,3:2|2:0,2:0:0:0:
415,188,69281,1,10,2:0:0:0:
415,188,69439,2,0,P|421:163|428:139,1,50.4,2|2,2:0|3:2,2:0:0:0:
447,92,69755,1,2,3:2:0:0:
375,22,70070,2,0,P|343:59|294:68,1,100.8,6|0,3:2|3:0,2:0:0:0:
244,77,70544,1,10,2:0:0:0:
244,77,70702,2,0,P|238:52|231:28,1,50.4,2|2,2:0|3:2,2:0:0:0:
189,0,71018,1,2,3:2:0:0:
142,89,71333,6,0,P|93:97|60:134,1,100.8,6|0,3:2|3:0,2:0:0:0:
48,184,71807,2,0,P|23:190|-1:197,2,50.4,10|2|2,2:0|2:0|3:2,2:0:0:0:
80,223,72281,1,2,2:0:0:0:
175,257,72597,2,0,P|161:305|148:354,1,100.8,6|2,3:2|3:2,2:0:0:0:
189,383,73070,2,0,P|222:346|270:338,1,100.8,10|2,2:0|3:2,2:0:0:0:
313,310,73544,1,2,3:2:0:0:
270,219,73860,6,0,P|250:145|228:73,1,151.2,6|8,3:2|2:0,2:0:0:0:
305,8,74649,2,0,P|329:15|353:20,1,50.4,2|2,3:2|3:2,2:0:0:0:
406,11,74965,1,10,2:0:0:0:
406,11,75123,2,0,P|443:44|451:92,1,100.8,6|0,3:2|3:0,2:0:0:0:
412,125,75597,1,10,2:0:0:0:
371,217,75912,1,2,3:2:0:0:
452,277,76228,1,10,2:0:0:0:
384,352,76544,6,0,P|336:338|287:325,1,100.8,6|8,3:2|2:0,2:0:0:0:
224,245,77176,2,0,P|176:259|127:272,1,100.8,2|8,3:2|2:0,2:0:0:0:
92,309,77649,2,0,P|55:276|47:228,1,100.8,6|8,3:2|2:0,2:0:0:0:
48,126,78281,2,0,P|23:132|-1:139,2,50.4,10|10|10,2:0|3:2|2:3,2:0:0:0:
83,31,78912,6,0,P|155:41|204:97,1,151.2,6|8,3:2|2:0,2:0:0:0:
253,113,79544,2,0,P|277:105|301:100,1,50.4,2|2,2:0|3:2,2:0:0:0:
348,78,79860,1,2,3:2:0:0:
422,145,80176,2,0,P|401:217|381:290,1,151.2,6|8,3:2|2:0,2:0:0:0:
398,339,80807,2,0,P|422:331|446:326,2,50.4,2|2|2,2:0|3:2|3:2,2:0:0:0:
307,384,81439,6,0,P|259:370|210:357,1,100.8,6|0,3:2|3:0,2:0:0:0:
179,317,81912,2,0,P|154:322|130:330,1,50.4,10|2,2:0|2:0,2:0:0:0:
82,346,82228,1,2,3:2:0:0:
82,346,82386,1,2,3:2:0:0:
14,271,82702,2,0,P|21:223|58:190,1,100.8,6|2,3:2|3:2,2:0:0:0:
79,143,83176,2,0,P|127:155|176:170,1,100.8,10|2,2:0|3:2,2:0:0:0:
220,146,83649,1,2,3:2:0:0:
282,225,83965,6,0,P|354:223|391:161,1,151.2,6|8,3:2|2:0,2:0:0:0:
488,125,84755,1,2,3:2:0:0:
488,125,84912,2,0,P|483:100|475:76,1,50.4,2|8,3:2|2:0,2:0:0:0:
434,47,85228,2,0,P|385:32|336:19,1,100.8,6|0,3:2|3:0,2:0:0:0:
292,43,85702,1,10,2:0:0:0:
196,11,86018,1,2,3:2:0:0:
141,95,86333,1,10,2:0:0:0:
205,172,86649,6,0,P|190:221|177:270,1,100.8,14|2,2:0|3:2,2:0:0:0:
127,264,87123,2,0,P|142:313|155:362,1,100.8,14|0,2:0|3:0,2:0:0:0:
200,384,87597,1,10,2:0:0:0:
295,346,87912,1,0,3:0:0:0:
295,346,88070,2,0,P|327:308|376:301,1,100.8,14|0,2:0|3:0,2:0:0:0:
410,263,88544,2,0,P|405:238|397:214,1,50.4,10|10,2:0|2:0,2:0:0:0:
352,189,88860,2,0,P|347:164|339:140,1,50.4,10|10,2:3|2:3,2:0:0:0:
373,102,89176,5,6,3:2:0:0:
189,14,91702,6,0,P|175:60|164:106,1,95.9999999999999,6|8,3:2|2:0,2:0:0:0:
109,185,92333,2,0,P|115:208|120:231,1,48,2|0,3:2|2:0,2:0:0:0:
161,267,92649,1,8,2:0:0:0:
161,267,92807,2,0,P|193:232|239:221,1,95.9999999999999,6|0,3:2|3:0,2:0:0:0:
273,254,93281,1,8,2:0:0:0:
328,332,93597,1,2,2:0:0:0:
418,300,93912,1,10,2:0:0:0:
415,203,94228,6,0,P|426:156|440:110,1,95.9999999999999,6|8,3:2|2:0,2:0:0:0:
406,20,94860,2,0,P|383:26|360:31,1,48,2|0,3:2|3:0,2:0:0:0:
322,61,95176,1,10,2:0:0:0:
241,10,95491,2,0,P|206:41|194:87,1,95.9999999999999,2|10,3:2|2:0,2:0:0:0:
172,132,95965,1,0,3:0:0:0:
172,132,96123,2,0,P|149:126|126:121,1,48,14|8,2:0|2:0,2:0:0:0:
77,118,96439,1,10,2:3:0:0:
0,175,96755,6,0,P|6:198|11:221,1,48,6|0,3:2|2:0,2:0:0:0:
22,268,97070,1,0,3:0:0:0:
106,324,97386,1,10,2:0:0:0:
106,324,97544,2,0,P|75:359|29:371,1,95.9999999999999,8|6,2:0|3:2,2:0:0:0:
256,192,98018,12,0,100544,2:0:0:0:
