osu file format v14

[General]
AudioFilename: audio.mp3
AudioLeadIn: 0
PreviewTime: 68018
Countdown: 0
SampleSet: Soft
StackLeniency: 0.3
Mode: 0
LetterboxInBreaks: 0
WidescreenStoryboard: 1

[Editor]
DistanceSpacing: 1
BeatDivisor: 4
GridSize: 4
TimelineZoom: 2.1

[Metadata]
Title:Trust in you (TV Size)
TitleUnicode:Trust in you (TV Size)
Artist:sweet ARMS
ArtistUnicode:sweet ARMS
Creator:Murada-
Version:Hard
Source:デート・ア・ライブⅡ
Tags:mahiru shiina seapodeerman date a live season 2 date-a-live ii season2 s2 opening op j-pop anime japanese jpop pop nomizu iori 野水伊織 togashi misuzu 富樫美鈴 kaori sadohara 佐土原かお misato 味里 female vocal vocalist
BeatmapID:4492464
BeatmapSetID:2135074

[Difficulty]
HPDrainRate:4.5
CircleSize:3.5
OverallDifficulty:5.5
ApproachRate:7.5
SliderMultiplier:1.44
SliderTickRate:1

[Events]
//Background and Video events
0,0,"tohkaa.jpg",0,0
//Break Periods
//Storyboard Layer 0 (Background)
//Storyboard Layer 1 (Fail)
//Storyboard Layer 2 (Pass)
//Storyboard Layer 3 (Foreground)
//Storyboard Layer 4 (Overlay)
//Storyboard Sound Samples

[TimingPoints]
755,315.789473684211,4,2,0,25,1,0
15912,-100,4,2,1,60,0,0
18439,-100,4,2,2,60,0,0
19702,-100,4,2,1,60,0,0
20754,-100,4,2,2,60,0,0
20965,-100,4,2,2,65,0,0
22070,-100,4,2,1,65,0,0
23491,-100,4,2,2,65,0,0
24123,-100,4,2,1,65,0,0
24755,-100,4,2,2,65,0,0
25070,-100,4,2,1,65,0,0
25386,-100,4,2,2,65,0,0
26018,-90.9090909090909,4,2,1,70,0,0
27123,-90.9090909090909,4,2,2,70,0,0
31070,-90.9090909090909,4,2,1,70,0,0
32176,-90.9090909090909,4,2,2,70,0,0
34860,-90.9090909090909,4,2,1,70,0,0
35096,-90.9090909090909,4,2,1,5,0,0
35176,-90.9090909090909,4,2,1,70,0,0
35333,-90.9090909090909,4,2,2,70,0,0
35806,-90.9090909090909,4,2,1,70,0,0
36123,-90.9090909090909,4,2,1,60,0,0
37069,-90.9090909090909,4,2,2,60,0,0
37228,-90.9090909090909,4,2,1,60,0,0
37702,-90.9090909090909,4,2,2,60,0,0
38649,-111.111111111111,4,2,1,60,0,0
58544,-111.111111111111,4,2,2,60,0,0
58701,-111.111111111111,4,2,1,60,0,0
58860,-111.111111111111,4,2,2,50,0,0
59965,-111.111111111111,4,2,1,50,0,0
61386,-111.111111111111,4,2,2,50,0,0
62491,-111.111111111111,4,2,1,50,0,0
63912,-100,4,2,1,50,0,0
65018,-100,4,2,2,50,0,0
66439,-100,4,2,1,70,0,0
66912,-100,4,2,2,70,0,0
68807,-83.3333333333333,4,2,1,80,0,1
70070,-83.3333333333333,4,2,2,80,0,1
71333,-83.3333333333333,4,2,1,80,0,1
72597,-83.3333333333333,4,2,2,80,0,1
73860,-83.3333333333333,4,2,1,80,0,1
75123,-83.3333333333333,4,2,2,80,0,1
76544,-83.3333333333333,4,2,1,80,0,1
77649,-83.3333333333333,4,2,2,80,0,1
80176,-83.3333333333333,4,2,1,80,0,1
81439,-83.3333333333333,4,2,2,80,0,1
82702,-83.3333333333333,4,2,1,80,0,1
83965,-83.3333333333333,4,2,2,80,0,1
85228,-83.3333333333333,4,2,1,80,0,1
86649,-83.3333333333333,4,2,2,80,0,1
87123,-83.3333333333333,4,2,1,80,0,1
88070,-83.3333333333333,4,2,2,80,0,1
89176,-83.3333333333333,4,2,1,60,0,0
91702,-90.9090909090909,4,2,1,70,0,0
92807,-90.9090909090909,4,2,2,70,0,0
94228,-90.9090909090909,4,2,1,70,0,0
95727,-90.9090909090909,4,2,1,5,0,0
95807,-90.9090909090909,4,2,1,70,0,0
96123,-90.9090909090909,4,2,2,70,0,0
96439,-90.9090909090909,4,2,1,70,0,0
97701,-90.9090909090909,4,2,2,70,0,0
97860,-90.9090909090909,4,2,1,70,0,0
100544,-90.9090909090909,4,2,1,5,0,0

[Colours]
Combo1 : 255,241,121
Combo2 : 137,114,171
Combo3 : 204,148,207
Combo4 : 255,211,81

[HitObjects]
0,182,15912,6,0,B|83:165|146:221|99:248|163:304|246:287,1,288,4|2,3:2|2:0,2:0:0:0:
512,384,17018,2,0,P|485:279|456:175,1,216,6|0,3:2|2:0,2:0:0:0:
456,175,17807,1,2,2:0:0:0:
456,175,18123,1,2,2:0:0:0:
456,175,18439,6,0,P|352:175|301:85,1,216,6|0,3:2|2:0,2:0:0:0:
229,27,19070,1,2,2:0:0:0:
229,27,19386,1,2,2:0:0:0:
229,27,19702,2,0,P|199:131|174:235,1,216,6|8,3:2|2:0,2:0:0:0:
98,291,20333,2,0,P|111:337|122:383,2,96,8|8|8,2:0|2:3|2:3,2:0:0:0:
0,213,20965,6,0,P|30:109|55:5,1,216,6|0,3:2|2:0,2:0:0:0:
133,57,21597,2,0,P|141:93|151:127,2,72,10|0|8,2:0|3:0|2:3,2:0:0:0:
211,5,22070,1,6,3:2:0:0:
211,5,22439,6,0,P|280:8|317:67,1,144,0|0,2:0|3:0,2:0:0:0:
367,105,22860,2,0,P|413:92|459:81,2,96,10|8|8,2:0|2:0|2:0,2:0:0:0:
438,206,23491,6,0,P|348:257|349:361,1,216,6|0,3:2|3:0,2:0:0:0:
256,379,24123,1,14,2:0:0:0:
256,379,24439,1,2,2:0:0:0:
256,379,24755,6,0,P|221:368|186:361,1,72,6|0,3:2|2:0,2:0:0:0:
95,383,25070,2,0,P|60:372|25:365,1,72,6|0,3:2|2:0,2:0:0:0:
0,274,25386,1,6,3:2:0:0:
94,245,25544,1,8,2:0:0:0:
94,245,25623,1,8,2:0:0:0:
94,245,25702,2,0,P|90:227|85:210,3,36,10|8|8|8,2:0|2:0|2:0|2:0,2:0:0:0:
113,171,26018,6,0,P|151:180|189:191,2,79.2,6|0|8,3:2|2:0|2:0,2:0:0:0:
51,99,26491,1,0,2:0:0:0:
51,99,26649,2,0,P|90:34|166:32,1,158.4,2|8,3:2|2:0,2:0:0:0:
260,12,27123,6,0,P|299:77|375:79,1,158.4,6|0,3:2|3:0,2:0:0:0:
471,77,27597,2,0,P|459:115|450:153,1,79.2,8|0,2:0|2:0,2:0:0:0:
511,234,27912,1,2,3:2:0:0:
511,234,28070,1,0,3:0:0:0:
433,288,28228,2,0,P|421:326|412:364,1,79.2,8|0,2:0|2:0,2:0:0:0:
328,315,28544,6,0,P|253:317|213:382,1,158.4,2|8,3:2|2:0,2:0:0:0:
118,378,29018,1,0,2:0:0:0:
118,378,29176,2,0,P|108:339|96:301,1,79.2,2|0,3:2|3:0,2:0:0:0:
156,227,29491,2,0,P|193:215|232:205,1,79.2,10|0,2:0|2:0,2:0:0:0:
327,206,29807,6,0,P|325:131|260:91,1,158.4,2|8,3:2|2:0,2:0:0:0:
198,17,30281,1,0,2:0:0:0:
198,17,30439,2,0,P|159:27|121:39,1,79.2,0|0,3:0|3:0,2:0:0:0:
74,122,30755,2,0,P|79:140|84:160,3,39.6,10|2|2|2,2:0|2:0|2:0|2:0,2:0:0:0:
76,207,31070,6,0,P|39:195|0:185,2,79.2,6|0|8,3:2|2:0|2:0,2:0:0:0:
93,306,31544,1,0,2:0:0:0:
93,306,31702,2,0,P|169:325|245:350,1,158.4,2|8,3:2|2:0,2:0:0:0:
340,359,32176,6,0,P|321:283|296:207,1,158.4,6|0,3:2|3:0,2:0:0:0:
346,126,32649,2,0,P|384:135|422:147,1,79.2,8|0,2:0|2:0,2:0:0:0:
511,108,32965,1,2,3:2:0:0:
511,108,33123,1,0,3:0:0:0:
455,31,33281,2,0,P|416:21|378:9,1,79.2,8|0,2:0|2:0,2:0:0:0:
289,42,33597,6,0,P|214:44|174:109,1,158.4,2|8,3:2|2:0,2:0:0:0:
82,82,34070,1,0,2:0:0:0:
82,82,34228,2,0,P|44:93|5:103,1,79.2,2|0,3:2|3:0,2:0:0:0:
28,196,34544,2,0,P|65:184|104:174,1,79.2,10|0,2:0|2:0,2:0:0:0:
197,198,34860,6,0,P|178:254|163:312,1,118.8,14|0,2:0|2:0,2:0:0:0:
165,360,35176,2,0,P|202:348|241:338,1,79.2,2|12,3:2|2:0,2:0:0:0:
325,383,35491,2,0,P|390:343|392:267,1,158.4,2|14,3:2|2:0,2:0:0:0:
436,186,35965,1,8,2:3:0:0:
436,186,36044,1,4,2:3:0:0:
436,186,36123,6,0,P|475:176|513:164,2,79.2,10|10|10,2:0|2:0|2:0,2:0:0:0:
375,10,36755,1,8,2:0:0:0:
375,10,36912,2,0,P|337:22|299:32,1,79.2,8|8,2:0|2:3,2:0:0:0:
204,16,37228,2,0,P|269:56|271:132,1,158.4,6|10,3:2|2:0,2:0:0:0:
305,220,37702,1,6,3:2:0:0:
305,220,38649,6,0,P|367:223|402:275,1,129.6,6|8,3:2|3:2,2:0:0:0:
238,355,39281,2,0,P|269:362|300:371,2,64.8000000000001,2|2|10,3:2|2:0|3:2,2:0:0:0:
149,375,39755,1,2,2:0:0:0:
93,304,39912,6,0,P|108:241|126:178,1,129.6,2|10,3:2|3:2,2:0:0:0:
113,88,40386,2,0,P|175:91|210:143,1,129.6,2|2,2:0|3:2,2:0:0:0:
298,119,40860,1,8,2:0:0:0:
298,119,41176,6,0,P|290:87|281:56,1,64.8000000000001,0|0,3:0|2:0,2:0:0:0:
362,14,41491,2,0,P|424:17|459:69,1,129.6,8|2,3:2|3:2,2:0:0:0:
512,150,41965,1,2,2:0:0:0:
512,150,42123,2,0,P|503:181|496:212,1,64.8000000000001,10|2,3:2|2:0,2:0:0:0:
510,303,42439,6,0,P|446:318|384:335,1,129.6,2|10,3:2|3:2,2:0:0:0:
295,316,42912,2,0,P|302:284|311:253,1,64.8000000000001,2|0,2:0|3:0,2:0:0:0:
221,237,43228,2,0,P|214:269|205:300,1,64.8000000000001,2|8,3:2|2:0,2:0:0:0:
37,229,43702,6,0,P|40:167|92:132,1,129.6,2|8,3:2|3:2,2:0:0:0:
95,40,44176,2,0,P|189:64|282:90,1,194.4,2|10,2:0|3:2,2:0:0:0:
464,87,44965,6,0,P|402:90|367:142,1,129.6,2|8,3:2|3:2,2:0:0:0:
440,197,45439,2,0,P|413:290|389:384,1,194.4,2|10,2:0|2:0,2:0:0:0:
227,302,46228,5,0,3:0:0:0:
227,302,46544,2,0,P|163:316|101:333,2,129.6,10|2|10,3:2|3:2|2:0,2:0:0:0:
275,127,47491,6,0,P|268:95|259:64,1,64.8000000000001,2|0,3:2|3:0,2:0:0:0:
175,26,47807,1,10,2:0:0:0:
175,26,47965,2,0,P|113:29|78:81,1,129.6,2|2,2:0|3:2,2:0:0:0:
0,129,48439,2,0,P|9:160|15:191,1,64.8000000000001,10|8,2:0|2:0,2:0:0:0:
4,286,48755,5,6,3:2:0:0:
4,286,48912,2,0,P|35:292|67:302,1,64.8000000000001,0|8,2:0|3:2,2:0:0:0:
248,312,49386,2,0,P|257:343|264:374,2,64.8000000000001,2|2|10,3:2|2:0|3:2,2:0:0:0:
317,252,49860,1,2,2:0:0:0:
378,319,50018,6,0,P|440:315|475:263,1,129.6,2|10,3:2|3:2,2:0:0:0:
418,192,50491,2,0,P|424:160|433:129,1,64.8000000000001,2|0,2:0|3:0,2:0:0:0:
355,82,50807,2,0,P|361:50|370:19,1,64.8000000000001,2|8,3:2|2:0,2:0:0:0:
216,117,51281,6,0,P|184:122|153:131,1,64.8000000000001,2|0,3:2|2:0,2:0:0:0:
63,118,51597,2,0,P|67:180|119:215,1,129.6,8|2,3:2|3:2,2:0:0:0:
112,309,52070,1,2,2:0:0:0:
112,309,52228,2,0,P|143:299|174:294,1,64.8000000000001,10|2,3:2|2:0,2:0:0:0:
248,347,52544,6,0,P|282:294|345:290,1,129.6,2|10,3:2|3:2,2:0:0:0:
388,371,53018,2,0,P|419:361|451:356,1,64.8000000000001,2|0,2:0|3:0,2:0:0:0:
512,290,53333,2,0,P|502:258|497:226,1,64.8000000000001,2|8,3:2|2:0,2:0:0:0:
472,139,53649,1,2,2:0:0:0:
388,173,53807,6,0,P|325:155|262:142,1,129.6,2|8,3:2|3:2,2:0:0:0:
235,229,54281,2,0,P|172:211|109:198,1,129.6,2|0,2:0|2:0,2:0:0:0:
18,207,54755,2,0,P|12:175|3:144,1,64.8000000000001,10|0,3:2|2:0,2:0:0:0:
0,53,55070,5,0,3:0:0:0:
0,53,55386,2,0,P|32:59|63:68,1,64.8000000000001,10|0,3:2|2:0,2:0:0:0:
139,17,55702,2,0,P|171:23|202:32,1,64.8000000000001,2|0,3:2|3:0,2:0:0:0:
257,105,56018,1,10,2:0:0:0:
257,105,56333,6,0,P|275:168|288:231,2,129.6,2|8|2,3:2|3:2|3:2,2:0:0:0:
324,42,57123,1,0,3:0:0:0:
324,42,57281,2,0,P|355:32|386:27,1,64.8000000000001,10|0,2:0|2:0,2:0:0:0:
468,68,57597,6,0,P|481:131|498:193,1,129.6,2|10,3:2|2:0,2:0:0:0:
421,238,58070,1,0,3:0:0:0:
421,238,58228,2,0,P|431:269|436:300,1,64.8000000000001,10|8,2:0|3:0,2:0:0:0:
368,362,58544,2,0,P|336:367|305:377,1,64.8000000000001,10|4,2:3|2:3,2:0:0:0:
216,353,58860,5,6,1:3:0:0:
216,353,59018,2,0,P|211:290|158:257,1,129.6,4|4,1:3|1:3,2:0:0:0:
72,286,59491,2,0,P|19:252|14:190,1,129.6,4|6,1:3|1:3,2:0:0:0:
73,120,59965,1,6,3:2:0:0:
73,120,61386,5,4,1:3:0:0:
73,120,61544,2,0,P|135:103|199:90,1,129.6,4|4,1:3|1:3,2:0:0:0:
234,174,62018,2,0,P|296:157|360:144,1,129.6,4|6,1:3|1:3,2:0:0:0:
450,137,62491,2,0,P|368:180|371:273,1,194.4,6|0,3:2|2:0,2:0:0:0:
0,384,63912,6,0,P|26:279|55:175,1,216,6|0,3:2|3:0,2:0:0:0:
37,82,64544,2,0,P|74:140|144:143,1,144,8|0,2:0|2:0,2:0:0:0:
230,105,65018,6,0,P|276:14|379:18,1,216,6|0,3:2|3:0,2:0:0:0:
512,150,65807,2,0,P|501:185|494:220,1,72,10|0,2:0|3:0,2:0:0:0:
402,195,66123,2,0,P|391:230|384:265,1,72,2|0,2:0|2:0,2:0:0:0:
322,336,66439,6,0,P|263:298|260:229,1,144,6|10,3:2|2:0,2:0:0:0:
319,157,66912,2,0,P|311:121|301:87,1,72,6|0,3:2|2:0,2:0:0:0:
268,0,67228,1,8,2:0:0:0:
174,5,67386,1,8,2:0:0:0:
150,96,67544,1,4,3:2:0:0:
150,96,67860,5,6,1:3:0:0:
229,147,68018,1,14,2:0:0:0:
229,147,68807,6,0,P|205:230|184:314,1,172.8,6|0,3:2|2:0,2:0:0:0:
267,384,69281,1,10,2:0:0:0:
267,384,69439,1,2,2:0:0:0:
346,316,69597,1,2,3:2:0:0:
346,316,69755,2,0,P|387:326|429:338,1,86.4,2|8,3:2|2:0,2:0:0:0:
441,235,70070,6,0,P|512:194|512:111,1,172.8,6|0,3:2|3:0,2:0:0:0:
463,25,70544,1,10,2:0:0:0:
463,25,70702,1,2,2:0:0:0:
379,84,70860,1,2,3:2:0:0:
379,84,71018,2,0,P|337:72|295:61,1,86.4,2|8,3:2|2:0,2:0:0:0:
212,0,71333,6,0,P|141:41|141:124,1,172.8,6|0,3:2|3:0,2:0:0:0:
113,225,71807,2,0,P|71:214|29:202,1,86.4,10|2,2:0|2:0,2:0:0:0:
7,307,72123,1,2,3:2:0:0:
7,307,72281,2,0,P|48:317|90:329,1,86.4,2|8,2:0|2:0,2:0:0:0:
189,361,72597,6,0,B|234:383|279:361|256:338|302:315|347:338,1,172.8,6|2,3:2|3:2,2:0:0:0:
448,365,73070,2,0,P|437:323|425:281,1,86.4,10|0,2:0|2:0,2:0:0:0:
512,221,73386,1,2,3:2:0:0:
512,221,73544,2,0,P|501:179|489:137,1,86.4,2|8,3:2|2:0,2:0:0:0:
415,64,73860,6,0,P|374:135|291:135,1,172.8,6|0,3:2|3:0,2:0:0:0:
188,121,74333,2,0,P|199:162|210:204,1,86.4,8|0,2:0|2:0,2:0:0:0:
288,273,74649,2,0,P|329:261|371:250,2,86.4,2|2|10,3:2|3:2|2:0,2:0:0:0:
230,360,75123,6,0,P|147:336|63:315,1,172.8,6|0,3:2|3:0,2:0:0:0:
0,232,75597,2,0,P|10:190|22:148,1,86.4,10|0,2:0|2:0,2:0:0:0:
7,50,75912,1,2,3:2:0:0:
7,50,76070,1,0,3:0:0:0:
109,32,76228,2,0,P|151:42|193:54,1,86.4,10|0,2:0|2:0,2:0:0:0:
169,155,76544,6,0,P|251:155|293:84,1,172.8,6|8,3:2|2:0,2:0:0:0:
485,2,77176,2,0,P|497:43|507:85,1,86.4,2|0,3:2|3:0,2:0:0:0:
416,136,77491,1,8,2:0:0:0:
498,199,77649,6,0,P|474:282|453:366,1,172.8,6|8,3:2|2:0,2:0:0:0:
453,365,78044,1,8,2:0:0:0:
453,365,78123,1,8,3:2:0:0:
363,313,78281,2,0,P|359:291|352:271,2,43.2,10|8|10,2:0|2:0|3:2,2:0:0:0:
263,342,78597,2,0,P|267:364|274:384,2,43.2,10|8|8,2:3|2:3|3:2,2:0:0:0:
178,282,78912,6,0,P|95:258|11:237,1,172.8,6|0,3:2|3:0,2:0:0:0:
7,137,79386,1,8,2:0:0:0:
7,137,79544,2,0,P|20:95|29:53,1,86.4,2|2,2:0|3:2,2:0:0:0:
128,20,79860,2,0,P|170:29|211:42,1,86.4,2|8,3:2|2:0,2:0:0:0:
311,73,80176,6,0,P|229:73|187:144,1,172.8,6|0,3:2|3:0,2:0:0:0:
122,226,80649,2,0,P|135:267|144:309,1,86.4,8|2,2:0|2:0,2:0:0:0:
233,373,80965,1,2,3:2:0:0:
233,373,81123,2,0,P|274:359|316:350,1,86.4,2|8,3:2|2:0,2:0:0:0:
418,370,81439,6,0,B|441:323|418:277|395:300|373:255|395:210,1,172.8,6|0,3:2|3:0,2:0:0:0:
486,158,81912,1,10,2:0:0:0:
486,158,82070,1,2,2:0:0:0:
431,75,82228,1,2,3:2:0:0:
431,75,82386,2,0,P|388:84|347:98,1,86.4,2|8,3:2|2:0,2:0:0:0:
258,44,82702,6,0,P|175:20|91:-1,1,172.8,6|2,3:2|3:2,2:0:0:0:
0,49,83176,2,0,P|24:132|45:216,1,172.8,10|2,2:0|3:2,2:0:0:0:
3,315,83649,1,2,3:2:0:0:
3,315,83728,1,0,3:0:0:0:
3,315,83807,1,8,2:0:0:0:
91,370,83965,6,0,P|132:298|215:298,1,172.8,6|0,3:2|3:0,2:0:0:0:
316,278,84439,2,0,P|307:321|293:362,1,86.4,8|0,2:0|2:0,2:0:0:0:
399,384,84755,1,2,3:2:0:0:
399,384,84912,2,0,P|408:341|422:300,1,86.4,2|8,3:2|2:0,2:0:0:0:
512,249,85228,6,0,P|491:165|467:82,1,172.8,6|0,3:2|3:0,2:0:0:0:
402,0,85702,2,0,P|359:8|318:22,1,86.4,10|0,2:0|2:0,2:0:0:0:
219,34,86018,1,2,3:2:0:0:
219,34,86176,1,0,3:0:0:0:
286,111,86333,2,0,P|299:151|308:194,1,86.4,10|0,2:0|3:0,2:0:0:0:
287,297,86649,6,0,P|204:297|163:369,1,172.8,14|2,2:0|3:2,2:0:0:0:
83,303,87123,2,0,P|40:311|-1:325,2,86.4,14|0|0,2:0|2:0|3:0,2:0:0:0:
96,199,87597,6,0,P|96:116|168:75,1,172.8,10|0,2:0|3:0,2:0:0:0:
270,85,88070,2,0,P|277:42|291:1,2,86.4,14|0|0,2:0|2:0|3:0,2:0:0:0:
350,159,88544,5,10,2:0:0:0:
350,159,88702,1,10,2:0:0:0:
441,106,88860,1,10,2:3:0:0:
441,106,89018,1,10,2:3:0:0:
512,182,89176,5,6,3:2:0:0:
62,373,91702,6,0,P|71:334|83:296,1,79.2,6|0,3:2|2:0,2:0:0:0:
2,246,92018,2,0,P|11:207|23:169,1,79.2,8|0,2:0|2:0,2:0:0:0:
0,77,92333,2,0,P|39:142|115:144,1,158.4,2|8,3:2|2:0,2:0:0:0:
190,85,92807,6,0,P|229:20|305:18,1,158.4,6|0,3:2|3:0,2:0:0:0:
400,22,93281,2,0,P|388:60|379:98,1,79.2,8|0,2:0|2:0,2:0:0:0:
459,158,93597,1,2,2:0:0:0:
459,158,93755,1,0,3:0:0:0:
390,223,93912,2,0,P|378:261|369:299,1,79.2,10|0,2:0|2:0,2:0:0:0:
297,363,94228,6,0,P|221:361|181:296,1,158.4,6|8,3:2|2:0,2:0:0:0:
107,245,94702,1,0,2:0:0:0:
107,245,94860,2,0,P|68:254|29:265,1,79.2,2|0,3:2|3:0,2:0:0:0:
3,173,95176,2,0,P|41:164|79:154,1,79.2,10|0,2:0|2:0,2:0:0:0:
170,121,95491,6,0,P|184:63|203:7,1,118.8,2|0,3:2|2:0,2:0:0:0:
246,29,95807,2,0,P|284:18|322:9,1,79.2,10|0,2:0|3:0,2:0:0:0:
406,64,96123,1,14,2:0:0:0:
406,64,96281,1,8,2:0:0:0:
349,140,96439,2,0,P|310:149|272:160,1,79.2,10|8,2:3|2:3,2:0:0:0:
219,241,96755,5,6,3:2:0:0:
219,241,96912,1,0,2:0:0:0:
301,289,97070,2,0,P|338:277|377:268,1,79.2,0|0,3:0|3:0,2:0:0:0:
460,325,97386,5,10,2:0:0:0:
460,325,97544,2,0,P|469:286|480:248,1,79.2,8|8,2:0|2:3,2:0:0:0:
512,158,97860,1,6,3:2:0:0:
256,192,97939,12,0,100544,2:0:0:0:
