osu file format v14

[General]
AudioFilename: audio.mp3
AudioLeadIn: 0
PreviewTime: 68018
Countdown: 0
SampleSet: Soft
StackLeniency: 0.7
Mode: 0
LetterboxInBreaks: 0
WidescreenStoryboard: 0

[Editor]
DistanceSpacing: 1
BeatDivisor: 4
GridSize: 4
TimelineZoom: 2.1

[Metadata]
Title:Trust in you (TV Size)
TitleUnicode:Trust in you (TV Size)
Artist:sweet ARMS
ArtistUnicode:sweet ARMS
Creator:Murada-
Version:Fateful Encounter
Source:デート・ア・ライブⅡ
Tags:mahiru shiina seapodeerman date a live season 2 date-a-live ii season2 s2 opening op j-pop anime japanese jpop pop nomizu iori 野水伊織 togashi misuzu 富樫美鈴 kaori sadohara 佐土原かお misato 味里 female vocal vocalist
BeatmapID:4492463
BeatmapSetID:2135074

[Difficulty]
HPDrainRate:6
CircleSize:4
OverallDifficulty:8.7
ApproachRate:9.3
SliderMultiplier:1.76
SliderTickRate:1

[Events]
//Background and Video events
0,0,"tohkaa.jpg",0,0
//Break Periods
//Storyboard Layer 0 (Background)
//Storyboard Layer 1 (Fail)
//Storyboard Layer 2 (Pass)
//Storyboard Layer 3 (Foreground)
//Storyboard Layer 4 (Overlay)
//Storyboard Sound Samples

[TimingPoints]
755,315.789473684211,4,2,0,25,1,0
15912,-100,4,2,1,60,0,0
17018,-133.333333333333,4,2,1,60,0,0
18123,-200,4,2,1,60,0,0
18359,-200,4,2,1,5,0,0
18439,-66.6666666666667,4,2,2,60,0,0
19070,-133.333333333333,4,2,2,60,0,0
19702,-100,4,2,1,60,0,0
20755,-100,4,2,2,60,0,0
20965,-100,4,2,2,65,0,0
22070,-100,4,2,1,65,0,0
22439,-133.333333333333,4,2,1,65,0,0
23491,-66.6666666666667,4,2,2,65,0,0
24123,-133.333333333333,4,2,1,65,0,0
24755,-100,4,2,2,65,0,0
25070,-100,4,2,1,65,0,0
25386,-100,4,2,2,65,0,0
26018,-80,4,2,1,70,0,0
27123,-80,4,2,2,70,0,0
28464,-80,4,2,2,5,0,0
28544,-80,4,2,2,70,0,0
31070,-80,4,2,1,70,0,0
32176,-80,4,2,2,70,0,0
33517,-80,4,2,2,5,0,0
33597,-80,4,2,2,70,0,0
34860,-80,4,2,1,70,0,0
35333,-80,4,2,2,70,0,0
35807,-80,4,2,1,70,0,0
36123,-80,4,2,1,60,0,0
37069,-80,4,2,2,60,0,0
37228,-80,4,2,1,60,0,0
37702,-80,4,2,2,60,0,0
38649,-133.333333333333,4,2,1,60,0,0
48912,-100,4,2,1,60,0,0
56254,-100,4,2,1,5,0,0
56333,-100,4,2,1,60,0,0
58544,-100,4,2,2,60,0,0
58702,-100,4,2,1,60,0,0
58860,-100,4,2,2,50,0,0
59965,-100,4,2,1,50,0,0
61386,-100,4,2,2,50,0,0
62491,-100,4,2,1,50,0,0
63912,-133.333333333333,4,2,1,50,0,0
65018,-133.333333333333,4,2,2,50,0,0
65807,-100,4,2,2,50,0,0
66439,-100,4,2,1,70,0,0
66912,-100,4,2,2,70,0,0
68807,-66.6666666666667,4,2,1,80,0,1
70070,-66.6666666666667,4,2,2,80,0,1
71333,-66.6666666666667,4,2,1,80,0,1
72597,-66.6666666666667,4,2,2,80,0,1
73860,-66.6666666666667,4,2,1,80,0,1
75123,-66.6666666666667,4,2,2,80,0,1
76544,-66.6666666666667,4,2,1,80,0,1
77649,-66.6666666666667,4,2,2,80,0,1
80176,-66.6666666666667,4,2,1,80,0,1
81439,-66.6666666666667,4,2,2,80,0,1
82702,-66.6666666666667,4,2,1,80,0,1
83965,-66.6666666666667,4,2,2,80,0,1
85228,-66.6666666666667,4,2,1,80,0,1
86649,-66.6666666666667,4,2,2,80,0,1
87123,-66.6666666666667,4,2,1,80,0,1
88070,-66.6666666666667,4,2,2,80,0,1
89176,-66.6666666666667,4,2,1,60,0,0
89649,-66.6666666666667,4,2,1,50,0,0
91702,-80,4,2,1,70,0,0
92807,-80,4,2,2,70,0,0
94148,-80,4,2,2,5,0,0
94228,-80,4,2,1,70,0,0
95727,-80,4,2,1,5,0,0
95807,-80,4,2,1,70,0,0
96123,-80,4,2,2,70,0,0
96439,-80,4,2,1,70,0,0
97701,-80,4,2,2,70,0,0
97860,-200,4,2,1,70,0,0
103070,-200,4,2,1,5,0,0

[Colours]
Combo1 : 255,241,121
Combo2 : 137,114,171
Combo3 : 204,148,207
Combo4 : 255,211,81

[HitObjects]
396,132,15912,6,0,B|320:88|279:171|319:230|391:221|362:194|446:177|486:278|392:337|354:285,1,352,4|2,3:2|2:0,2:0:0:0:
354,379,17018,6,0,P|395:219|440:60,1,330.000000000001,6|2,3:2|2:0,2:0:0:0:
440,60,18123,6,0,P|408:66|377:76,1,66,2|0,2:0|2:0,2:0:0:0:
295,98,18439,6,0,P|419:4|399:158,1,396,6|0,3:2|2:0,2:0:0:0:
333,245,19070,6,0,P|325:212|315:181,1,66.0000000000002,2|0,2:0|2:0,2:0:0:0:
482,139,19386,2,0,P|490:172|500:203,1,66.0000000000002,2|0,2:0|2:0,2:0:0:0:
377,77,19702,6,0,P|412:204|445:332,1,264,6|8,3:2|2:0,2:0:0:0:
512,384,20333,5,8,2:0:0:0:
328,255,20544,5,8,2:3:0:0:
185,327,20755,5,8,2:3:0:0:
243,245,20965,6,0,P|85:277|34:124,1,352,6|10,3:2|2:0,2:0:0:0:
193,20,21755,1,0,3:0:0:0:
251,85,21912,1,8,2:3:0:0:
28,117,22070,5,6,3:2:0:0:
28,117,22439,2,0,P|92:133|155:151,1,132,0|0,2:0|3:0,2:0:0:0:
166,147,22860,5,10,2:0:0:0:
258,79,23070,5,8,2:0:0:0:
422,125,23281,5,8,2:0:0:0:
407,32,23491,6,0,P|372:159|338:287,1,264,6|0,3:2|2:0,2:0:0:0:
137,354,23965,1,0,3:0:0:0:
249,163,24123,6,0,P|257:196|267:227,1,66.0000000000002,14|0,2:0|2:0,2:0:0:0:
230,360,24439,2,0,P|222:327|212:296,1,66.0000000000002,2|0,2:0|2:0,2:0:0:0:
255,154,24755,6,0,P|297:166|339:176,1,88,6|0,3:2|2:0,2:0:0:0:
225,369,25070,2,0,P|182:356|140:346,1,88,6|0,3:2|2:0,2:0:0:0:
62,144,25386,6,0,P|68:165|73:186,1,44,6|0,3:2|2:0,2:0:0:0:
29,58,25544,1,8,2:0:0:0:
72,57,25623,1,8,2:0:0:0:
113,73,25702,1,10,2:0:0:0:
142,106,25781,1,8,2:0:0:0:
171,139,25860,1,8,2:0:0:0:
211,155,25939,1,8,2:0:0:0:
255,154,26018,6,0,P|241:100|226:47,1,110,6|0,3:2|2:0,2:0:0:0:
445,176,26333,2,0,P|459:230|474:283,1,110,8|0,2:0|2:0,2:0:0:0:
354,171,26649,1,2,3:2:0:0:
486,41,26807,1,0,3:0:0:0:
354,171,26965,1,8,2:0:0:0:
512,384,27123,6,0,P|406:354|299:327,1,220,6|0,3:2|3:0,2:0:0:0:
78,243,27597,2,0,P|92:295|106:349,1,110,8|0,2:0|2:0,2:0:0:0:
126,169,27912,1,2,3:2:0:0:
25,374,28070,1,0,3:0:0:0:
172,264,28228,2,0,P|250:263|289:331,1,165,8|0,2:0|2:0,2:0:0:0:
280,341,28544,6,0,P|306:234|336:128,1,220,2|8,3:2|2:0,2:0:0:0:
391,67,29018,1,0,2:0:0:0:
382,298,29176,1,2,3:2:0:0:
247,133,29333,1,0,3:0:0:0:
510,180,29491,2,0,P|456:193|403:208,1,110,10|0,2:0|2:0,2:0:0:0:
142,372,29807,6,0,P|101:277|0:290,2,220,2|8|0,3:2|2:0|3:0,2:0:0:0:
58,351,30597,1,0,3:0:0:0:
269,253,30755,1,10,2:0:0:0:
262,226,30833,1,2,2:0:0:0:
256,199,30912,1,2,2:0:0:0:
248,172,30991,1,2,2:0:0:0:
241,146,31070,6,0,P|188:131|134:118,1,110,6|0,3:2|2:0,2:0:0:0:
231,335,31386,2,0,P|284:347|337:362,1,110,8|0,2:0|2:0,2:0:0:0:
170,218,31702,1,2,3:2:0:0:
339,106,31860,1,0,3:0:0:0:
170,218,32018,1,8,2:0:0:0:
8,0,32176,6,0,P|37:105|63:212,1,220,6|0,3:2|3:0,2:0:0:0:
239,345,32649,2,0,P|251:292|266:239,1,110,8|0,2:0|2:0,2:0:0:0:
152,365,32965,1,2,3:2:0:0:
339,310,33123,1,0,3:0:0:0:
237,159,33281,2,0,P|216:79|194:0,1,165,8|0,2:0|2:0,2:0:0:0:
188,10,33597,6,0,P|289:-2|329:92,1,220,2|8,3:2|2:0,2:0:0:0:
457,28,34070,1,0,2:0:0:0:
349,194,34228,2,0,P|296:178|242:166,1,110,2|0,3:2|3:0,2:0:0:0:
5,260,34544,2,0,P|58:272|111:287,1,110,10|0,2:0|2:0,2:0:0:0:
246,72,34860,5,14,2:0:0:0:
93,191,35018,1,0,3:0:0:0:
337,282,35176,1,2,3:2:0:0:
40,361,35333,5,12,2:0:0:0:
247,175,35491,1,2,3:2:0:0:
6,167,35649,1,2,3:2:0:0:
229,365,35807,5,14,2:0:0:0:
223,338,35886,1,8,2:3:0:0:
216,311,35965,1,8,2:3:0:0:
209,284,36044,1,4,2:3:0:0:
201,258,36123,5,10,2:0:0:0:
422,384,36281,1,10,2:0:0:0:
512,159,36439,1,10,2:0:0:0:
512,159,36755,5,8,2:0:0:0:
328,370,36912,2,0,P|316:317|301:264,1,110,8|8,2:0|2:3,2:0:0:0:
455,0,37228,6,0,P|439:52|427:106,1,110,6|0,3:2|2:0,2:0:0:0:
292,258,37544,1,10,2:0:0:0:
0,47,37702,5,6,3:2:0:0:
0,47,38649,6,0,P|32:101|95:103,1,132,6|8,3:2|3:2,2:0:0:0:
95,102,39281,5,2,3:2:0:0:
140,176,39439,1,2,2:0:0:0:
168,67,39597,1,10,3:2:0:0:
208,136,39755,1,2,2:0:0:0:
349,8,39912,6,0,P|286:10|253:64,1,132,2|10,3:2|3:2,2:0:0:0:
351,150,40386,2,0,P|342:119|334:87,1,66.0000000000002,2|0,2:0|3:0,2:0:0:0:
277,191,40702,2,0,P|287:223|295:255,1,66.0000000000002,2|8,3:2|2:0,2:0:0:0:
295,254,41176,6,0,P|327:262|358:271,1,66.0000000000002,0|0,3:0|2:0,2:0:0:0:
480,225,41491,2,0,P|448:215|416:207,1,66.0000000000002,8|0,3:2|2:0,2:0:0:0:
311,340,41807,5,2,3:2:0:0:
290,262,41965,1,2,2:0:0:0:
233,361,42123,1,10,3:2:0:0:
212,283,42281,1,2,2:0:0:0:
96,364,42439,6,0,P|33:362|0:308,1,132,2|10,3:2|3:2,2:0:0:0:
96,223,42912,2,0,P|87:254|79:286,1,66.0000000000002,2|0,2:0|3:0,2:0:0:0:
6,224,43228,2,0,P|15:193|23:161,1,66.0000000000002,2|8,3:2|2:0,2:0:0:0:
23,160,43702,6,0,P|86:141|150:125,1,132,2|8,3:2|3:2,2:0:0:0:
33,70,44176,1,2,2:0:0:0:
33,70,44333,2,0,P|64:61|96:53,1,66.0000000000002,0|0,3:0|2:0,2:0:0:0:
223,181,44649,1,10,3:2:0:0:
223,181,44965,6,0,P|286:162|350:146,1,132,2|8,3:2|3:2,2:0:0:0:
233,91,45439,1,2,2:0:0:0:
233,91,45597,2,0,P|264:82|296:74,1,66.0000000000002,0|0,3:0|3:0,2:0:0:0:
477,14,45912,1,10,2:0:0:0:
477,14,46228,5,0,3:0:0:0:
477,14,46544,2,0,P|458:76|442:141,2,132,10|2|10,3:2|3:2|2:0,2:0:0:0:
378,53,47333,1,0,2:0:0:0:
512,203,47491,5,2,3:2:0:0:
512,203,47649,1,0,3:0:0:0:
418,316,47807,1,10,2:0:0:0:
360,246,47965,2,0,P|391:237|423:229,1,66.0000000000002,2|0,2:0|3:0,2:0:0:0:
333,329,48281,1,2,3:2:0:0:
494,365,48439,1,10,2:0:0:0:
352,240,48597,1,8,2:0:0:0:
237,384,48755,5,6,3:2:0:0:
237,384,48912,2,0,P|226:341|214:299,1,88,0|8,2:0|3:2,2:0:0:0:
214,299,49386,5,2,3:2:0:0:
221,164,49544,1,2,2:0:0:0:
136,270,49702,1,10,3:2:0:0:
267,235,49860,1,2,2:0:0:0:
140,186,50018,6,0,P|118:100|94:16,1,176,2|10,3:2|3:2,2:0:0:0:
0,86,50491,2,0,P|42:96|84:108,1,88,2|0,2:0|3:0,2:0:0:0:
178,0,50807,1,2,3:2:0:0:
285,101,50965,2,0,P|242:88|199:78,1,88,8|0,2:0|2:0,2:0:0:0:
351,0,51281,6,0,P|363:42|373:85,1,88,2|0,3:2|2:0,2:0:0:0:
512,178,51597,2,0,P|469:165|426:155,1,88,8|0,3:2|2:0,2:0:0:0:
330,304,51912,5,2,3:2:0:0:
337,169,52070,1,2,2:0:0:0:
252,275,52228,1,10,3:2:0:0:
383,240,52386,1,2,2:0:0:0:
256,191,52544,6,0,P|170:213|86:237,1,176,2|10,3:2|3:2,2:0:0:0:
146,384,53018,2,0,P|155:341|168:298,1,88,2|0,2:0|3:0,2:0:0:0:
79,231,53333,2,0,P|69:273|56:316,1,88,2|8,3:2|2:0,2:0:0:0:
159,186,53649,1,2,2:0:0:0:
0,137,53807,6,0,P|84:135|127:63,1,176,2|8,3:2|3:2,2:0:0:0:
239,139,54281,1,2,2:0:0:0:
239,139,54439,2,0,P|230:96|217:54,1,88,0|0,3:0|2:0,2:0:0:0:
329,123,54755,2,0,P|338:166|351:208,1,88,10|0,3:2|2:0,2:0:0:0:
464,325,55070,5,0,3:0:0:0:
464,325,55386,2,0,P|421:311|378:302,1,88,10|0,3:2|2:0,2:0:0:0:
214,348,55702,1,2,3:2:0:0:
358,217,55860,1,0,3:0:0:0:
314,384,56018,2,0,P|297:320|279:256,1,132,10|0,2:0|2:0,2:0:0:0:
279,256,56333,6,0,P|194:253|151:181,2,176,2|8|2,3:2|3:2|3:2,2:0:0:0:
240,179,57123,1,0,3:0:0:0:
161,276,57281,2,0,P|118:262|75:253,1,88,10|0,2:0|2:0,2:0:0:0:
19,84,57597,6,0,P|62:93|103:106,1,88,2|0,3:2|3:0,2:0:0:0:
340,60,57912,5,10,2:0:0:0:
240,179,58070,1,0,3:0:0:0:
173,39,58228,5,10,2:0:0:0:
319,158,58386,1,8,3:0:0:0:
426,147,58544,1,10,2:3:0:0:
484,92,58702,1,4,2:3:0:0:
473,82,58860,5,6,1:3:0:0:
361,255,59018,1,4,1:3:0:0:
361,255,59333,5,4,1:3:0:0:
257,15,59491,1,4,1:3:0:0:
257,15,59807,5,6,1:3:0:0:
83,262,59965,1,6,3:2:0:0:
83,262,61386,5,4,1:3:0:0:
291,186,61544,1,4,1:3:0:0:
291,186,61860,5,4,1:3:0:0:
41,101,62018,1,4,1:3:0:0:
41,101,62333,5,6,1:3:0:0:
341,19,62491,1,6,3:2:0:0:
341,19,63912,6,0,P|245:43|149:70,1,198,6|0,3:2|3:0,2:0:0:0:
69,255,64544,2,0,P|121:217|126:154,1,132,8|0,2:0|2:0,2:0:0:0:
0,314,65018,6,0,P|95:287|191:263,1,198,6|0,3:2|3:0,2:0:0:0:
191,263,65807,6,0,P|180:305|168:347,1,88,10|0,2:0|3:0,2:0:0:0:
321,121,66123,2,0,P|332:79|344:37,1,88,2|0,2:0|2:0,2:0:0:0:
256,192,66439,5,6,3:2:0:0:
256,192,66755,1,10,2:0:0:0:
82,338,66912,5,6,3:2:0:0:
82,338,67228,1,8,2:0:0:0:
233,104,67386,1,8,2:0:0:0:
313,384,67544,5,4,3:2:0:0:
313,384,67860,1,6,1:3:0:0:
199,0,68018,1,14,2:0:0:0:
199,0,68807,6,0,P|159:114|40:92,1,264,6|0,3:2|2:0,2:0:0:0:
276,115,69281,1,10,2:0:0:0:
37,253,69439,1,2,2:0:0:0:
118,38,69597,1,2,3:2:0:0:
231,269,69755,1,2,3:2:0:0:
45,85,69912,1,8,2:0:0:0:
384,30,70070,6,0,P|348:157|315:284,1,264,6|0,3:2|3:0,2:0:0:0:
512,182,70544,1,10,2:0:0:0:
299,30,70702,1,2,2:0:0:0:
371,208,70860,1,2,3:2:0:0:
497,34,71018,1,2,3:2:0:0:
276,115,71176,1,8,2:0:0:0:
478,364,71333,6,0,P|351:328|223:294,1,264,6|0,3:2|3:0,2:0:0:0:
53,351,71807,1,10,2:0:0:0:
206,209,71965,1,2,2:0:0:0:
33,150,72123,1,2,3:2:0:0:
140,330,72281,2,0,P|123:265|105:202,1,132,2|8,2:0|2:0,2:0:0:0:
411,39,72597,6,0,P|291:16|251:130,1,264,6|2,3:2|3:2,2:0:0:0:
373,223,73070,2,0,P|356:158|338:95,1,132,10|0,2:0|2:0,2:0:0:0:
306,280,73386,1,2,3:2:0:0:
447,139,73544,1,2,3:2:0:0:
447,139,73623,1,0,3:2:0:0:
447,139,73702,1,8,2:0:0:0:
130,8,73860,6,0,P|165:134|199:262,1,264,6|0,3:2|3:0,2:0:0:0:
342,384,74333,2,0,P|278:365|214:349,1,132,8|0,2:0|2:0,2:0:0:0:
88,168,74649,1,2,3:2:0:0:
78,372,74807,1,2,3:2:0:0:
207,155,74965,1,10,2:0:0:0:
481,373,75123,6,0,P|504:253|390:213,1,264,6|0,3:2|3:0,2:0:0:0:
224,357,75597,2,0,P|240:293|258:229,1,132,10|0,2:0|2:0,2:0:0:0:
418,120,75912,1,2,3:2:0:0:
328,316,76070,1,0,3:0:0:0:
200,148,76228,2,0,P|263:129|327:113,1,132,10|0,2:0|2:0,2:0:0:0:
125,359,76544,6,0,P|140:294|160:231,1,132,6|0,3:2|2:0,2:0:0:0:
35,80,76860,2,0,P|19:144|0:207,1,132,8|0,2:0|2:0,2:0:0:0:
109,156,77176,1,2,3:2:0:0:
0,0,77333,1,0,3:0:0:0:
109,156,77491,1,8,2:0:0:0:
388,0,77649,6,0,P|353:126|319:254,1,264,6|8,3:2|2:0,2:0:0:0:
318,254,78044,1,8,2:0:0:0:
318,254,78123,1,8,3:2:0:0:
512,273,78281,5,10,2:0:0:0:
462,271,78360,1,8,2:0:0:0:
415,290,78439,1,10,3:2:0:0:
382,328,78518,1,8,3:0:0:0:
348,366,78597,1,10,2:3:0:0:
302,384,78676,1,8,2:3:0:0:
252,383,78755,1,8,3:2:0:0:
0,201,78912,6,0,P|113:242|90:361,1,264,6|0,3:2|3:0,2:0:0:0:
36,285,79386,1,8,2:0:0:0:
162,91,79544,1,2,2:0:0:0:
212,307,79702,1,2,3:2:0:0:
90,175,79860,2,0,P|73:110|54:47,1,132,2|8,3:2|2:0,2:0:0:0:
332,255,80176,6,0,P|298:127|262:0,1,264,6|0,3:2|3:0,2:0:0:0:
251,89,80649,1,8,2:0:0:0:
421,241,80807,1,2,2:0:0:0:
222,171,80965,1,2,3:2:0:0:
434,29,81123,2,0,P|414:92|398:156,1,132,2|8,3:2|2:0,2:0:0:0:
122,362,81439,6,0,P|9:321|32:202,1,264,6|0,3:2|3:0,2:0:0:0:
203,255,81912,1,10,2:0:0:0:
60,112,82070,1,2,2:0:0:0:
227,38,82228,1,2,3:2:0:0:
122,223,82386,2,0,P|138:158|157:96,1,132,2|8,3:2|2:0,2:0:0:0:
501,36,82702,6,0,P|382:11|340:124,1,264,6|2,3:2|3:2,2:0:0:0:
464,215,83176,2,0,P|447:150|428:88,1,132,10|0,2:0|2:0,2:0:0:0:
216,7,83491,1,2,3:2:0:0:
227,38,83570,1,0,3:0:0:0:
236,70,83649,1,2,3:2:0:0:
244,102,83728,1,0,3:0:0:0:
252,134,83807,1,8,2:0:0:0:
512,335,83965,6,0,P|393:360|351:246,1,264,6|0,3:2|3:0,2:0:0:0:
192,370,84439,2,0,P|256:350|319:334,1,132,8|0,2:0|2:0,2:0:0:0:
140,199,84755,1,2,3:2:0:0:
252,134,84912,2,0,P|232:198|216:261,1,132,2|8,3:2|2:0,2:0:0:0:
0,30,85228,6,0,P|119:5|161:119,1,264,6|0,3:2|3:0,2:0:0:0:
38,213,85702,2,0,P|54:148|73:85,1,132,10|0,2:0|2:0,2:0:0:0:
126,287,86018,2,0,P|62:303|0:322,1,132,2|0,3:2|3:0,2:0:0:0:
252,134,86333,2,0,P|315:117|378:98,1,132,10|0,2:0|3:0,2:0:0:0:
511,330,86649,6,0,P|393:355|350:241,1,264,14|2,2:0|3:2,2:0:0:0:
283,34,87123,5,14,2:0:0:0:
430,189,87281,1,0,2:0:0:0:
222,238,87439,1,0,3:0:0:0:
504,24,87597,6,0,P|469:150|435:278,1,264,10|0,2:0|3:0,2:0:0:0:
194,52,88070,5,14,2:0:0:0:
264,315,88228,1,0,2:0:0:0:
371,94,88386,1,0,3:0:0:0:
83,225,88544,5,10,2:0:0:0:
435,279,88702,1,10,2:0:0:0:
110,384,88860,1,10,2:3:0:0:
284,53,89018,1,10,2:3:0:0:
351,242,89176,5,6,3:2:0:0:
256,192,89255,12,0,90439,2:0:0:0:
512,371,91702,6,0,P|459:356|405:343,1,110,6|0,3:2|2:0,2:0:0:0:
270,227,92018,2,0,P|323:242|377:255,1,110,8|0,2:0|2:0,2:0:0:0:
216,299,92333,1,2,3:2:0:0:
345,158,92491,1,0,2:0:0:0:
216,299,92649,1,8,2:0:0:0:
39,126,92807,6,0,P|140:114|180:208,1,220,6|0,3:2|3:0,2:0:0:0:
68,295,93281,2,0,P|81:241|96:188,1,110,8|0,2:0|2:0,2:0:0:0:
138,348,93597,1,2,2:0:0:0:
0,223,93755,1,0,3:0:0:0:
190,202,93912,2,0,P|210:122|233:42,1,165,10|0,2:0|2:0,2:0:0:0:
229,31,94228,6,0,P|267:125|369:114,1,220,6|8,3:2|2:0,2:0:0:0:
310,51,94702,1,0,2:0:0:0:
505,133,94860,1,2,3:2:0:0:
305,219,95018,1,0,3:0:0:0:
462,359,95176,2,0,P|449:305|434:252,1,110,10|0,2:0|2:0,2:0:0:0:
119,361,95491,6,0,P|197:362|236:294,1,165,2|0,3:2|2:0,2:0:0:0:
227,286,95807,2,0,P|214:232|199:179,1,110,10|0,2:0|3:0,2:0:0:0:
18,11,96123,5,14,2:0:0:0:
233,94,96281,1,8,2:0:0:0:
86,198,96439,5,10,2:3:0:0:
86,198,96597,1,8,2:3:0:0:
242,1,96755,5,6,3:2:0:0:
3,109,96912,1,0,2:0:0:0:
210,189,97070,2,0,P|262:174|316:161,1,110,0|0,3:0|3:0,2:0:0:0:
10,116,97386,5,10,2:0:0:0:
106,376,97544,2,0,P|117:322|133:269,1,110,8|8,2:0|2:3,2:0:0:0:
295,74,97860,6,0,B|309:88|379:175|396:15|487:22|558:64|577:136|599:258|488:323|388:273|357:234|357:234|356:265|331:308|303:323|237:314|192:296|188:288|209:207|165:137|192:112|280:114|351:78|349:46|285:-42|235:-51|187:-38|155:15|162:50|162:50|141:37|103:40|77:59|60:97|80:145|122:160|134:156|145:122|189:136|200:184,1,1452,6|0,3:2|2:0,2:0:0:0:
