osu file format v14

[General]
AudioFilename: audio.mp3
AudioLeadIn: 0
PreviewTime: 210385
Countdown: 0
SampleSet: Soft
StackLeniency: 0.5
Mode: 0
LetterboxInBreaks: 0
WidescreenStoryboard: 0

[Editor]
DistanceSpacing: 1
BeatDivisor: 4
GridSize: 32
TimelineZoom: 2.799996

[Metadata]
Title:Trust in you
TitleUnicode:Trust in you
Artist:sweet ARMS
ArtistUnicode:sweet ARMS
Creator:Azrealy
Version:Tragic Love
Source:デート・ア・ライブⅡ
Tags:date a live 2 date-a-live opening full j-pop anime japanese kurumi tokisaki 時崎狂三 Cyndere Nagi Hisakawa jpop pop full version Nomizu Iori 野水伊織 Togashi Misuzu 富樫美鈴 Kaori Sadohara 佐土原かお Misato 味里
BeatmapID:3093758
BeatmapSetID:1510821

[Difficulty]
HPDrainRate:5.5
CircleSize:4
OverallDifficulty:9.2
ApproachRate:9.3
SliderMultiplier:1.82
SliderTickRate:1

[Events]
//Background and Video events
0,0,"bg.jpg",0,0
//Break Periods
//Storyboard Layer 0 (Background)
//Storyboard Layer 1 (Fail)
//Storyboard Layer 2 (Pass)
//Storyboard Layer 3 (Foreground)
//Storyboard Layer 4 (Overlay)
//Storyboard Sound Samples

[TimingPoints]
543,315.789473684211,4,2,1,50,1,0
543,-142.857142857143,4,2,1,50,0,0
13174,-166.666666666667,4,2,1,50,0,0
15700,-181.818181818181,4,2,1,70,0,0
16332,-133.333333333333,4,2,1,70,0,0
16806,-181.818181818181,4,2,1,70,0,0
17595,-133.333333333333,4,2,1,70,0,0
18227,-181.818181818181,4,2,1,70,0,0
18858,-133.333333333333,4,2,1,70,0,0
19490,-181.818181818181,4,2,1,70,0,0
19964,-133.333333333333,4,2,1,70,0,0
20753,-181.818181818181,4,2,1,70,0,0
21385,-133.333333333333,4,2,1,70,0,0
23279,-181.818181818181,4,2,1,70,0,0
24543,-133.333333333333,4,2,1,70,0,0
25806,-100,4,2,1,80,0,0
37253,-100,4,2,1,5,0,0
37332,-100,4,2,1,80,0,0
38437,-111.111111111111,4,2,1,60,0,0
48543,-100,4,2,1,70,0,0
58648,-153.846153846154,4,2,1,60,0,0
63700,-142.857142857143,4,2,1,70,0,0
66227,-142.857142857143,4,2,1,80,0,0
68595,-90.9090909090909,4,2,1,90,0,1
88964,-181.818181818181,4,2,1,90,0,0
90069,-181.818181818181,4,2,1,40,0,0
91490,-100,4,2,1,80,0,0
102937,-100,4,2,1,5,0,0
103016,-100,4,2,1,80,0,0
103964,-100,4,2,1,20,0,0
104121,-153.846153846153,4,2,1,60,0,0
106174,-181.818181818181,4,2,1,60,0,0
107279,-153.846153846153,4,2,1,60,0,0
108700,-181.818181818181,4,2,1,60,0,0
110437,-222.222222222221,4,2,1,60,0,0
111700,-153.846153846153,4,2,1,60,0,0
114227,-100,4,2,1,60,0,0
124332,-153.846153846153,4,2,1,60,0,0
128595,-153.846153846153,4,2,1,5,0,0
128753,-222.22222222222,4,2,1,30,0,0
129385,-142.857142857143,4,2,1,70,0,0
131911,-142.857142857143,4,2,1,80,0,0
134279,-90.9090909090909,4,2,1,90,0,1
154648,-181.818181818181,4,2,1,90,0,0
155753,-181.818181818181,4,2,1,40,0,0
155911,-153.846153846154,4,2,1,70,0,0
157016,-133.333333333333,4,2,1,70,0,0
160964,-117.647058823529,4,2,1,70,0,0
161200,-117.647058823529,4,2,1,5,0,0
161279,-133.333333333333,4,2,1,70,0,0
166016,-105.263157894737,4,2,1,70,0,0
166253,-105.263157894737,4,2,1,5,0,0
166332,-105.263157894737,4,2,1,70,0,0
167911,-222.222222222223,4,2,1,70,0,0
168385,-100,4,2,1,80,0,0
177464,-100,4,2,1,5,0,0
177543,-100,4,2,1,80,0,0
188753,-222.222222222222,4,2,1,40,0,0
206437,-100,4,2,1,80,0,1
210227,-181.818181818182,4,2,1,80,0,0
210858,-181.818181818182,4,2,1,40,0,0
211332,-181.818181818181,4,2,1,40,0,0
226648,-285.714285714284,4,2,1,50,0,0
229174,-100,4,2,1,80,0,0
231543,-222.222222222223,4,2,1,80,0,0
232806,-90.9090909090909,4,2,1,90,0,1
253174,-222.222222222221,4,2,1,90,0,0
254279,-181.818181818181,4,2,1,40,0,0
255700,-100,4,2,1,80,0,0
261858,-100,4,2,1,70,0,0
264543,-100,4,2,1,5,0,0

[Colours]
Combo1 : 251,137,121
Combo2 : 249,70,70
Combo3 : 247,179,134
Combo4 : 185,9,27

[HitObjects]
79,129,543,6,0,L|55:45,2,63.6999980560303,2|0|0,0:2|0:2|0:2,0:2:0:0:
112,215,1016,1,2,0:2:0:0:
169,142,1174,2,0,P|201:137|233:155,1,63.6999980560303,2|0,0:2|0:2,0:2:0:0:
273,227,1490,2,0,P|300:237|341:225,1,63.6999980560303,2|0,0:2|0:2,0:2:0:0:
406,179,1806,6,0,L|423:242,1,63.6999980560303,2|0,0:2|0:2,0:2:0:0:
303,145,2121,2,0,L|319:83,1,63.6999980560303,2|0,0:2|0:2,0:2:0:0:
384,17,2437,5,2,0:2:0:0:
461,48,2595,1,2,0:2:0:0:
472,132,2753,1,2,0:2:0:0:
406,179,2911,1,2,0:2:0:0:
326,140,3069,6,0,L|258:153,2,63.6999980560303,2|0|0,0:2|0:2|0:2,0:2:0:0:
395,97,3543,1,2,0:2:0:0:
302,63,3700,2,0,L|221:79,1,63.6999980560303,2|0,0:2|0:2,0:2:0:0:
146,125,4016,1,2,0:2:0:0:
146,125,4174,1,2,0:2:0:0:
236,221,4332,6,0,L|249:158,1,63.6999980560303,2|0,0:2|0:2,0:2:0:0:
159,40,4648,2,0,P|125:37|95:60,1,63.6999980560303,2|0,0:2|0:2,0:2:0:0:
25,169,4964,5,2,0:2:0:0:
149,195,5121,1,2,0:2:0:0:
11,165,5279,1,2,0:2:0:0:
162,198,5437,1,2,0:2:0:0:
40,313,5595,6,0,L|21:249,2,63.6999980560303,2|0|0,0:2|0:2|0:2,0:2:0:0:
114,369,6069,1,2,0:2:0:0:
169,299,6227,2,0,L|254:315,1,63.6999980560303,2|0,0:2|0:2,0:2:0:0:
300,371,6543,2,0,L|376:352,1,63.6999980560303,2|0,0:2|0:2,0:2:0:0:
489,221,6858,6,0,P|510:253|504:287,1,63.6999980560303,2|0,0:2|0:2,0:2:0:0:
419,299,7174,2,0,P|400:273|408:232,1,63.6999980560303,2|0,0:2|0:2,0:2:0:0:
493,65,7490,5,2,0:2:0:0:
463,142,7648,1,2,0:2:0:0:
383,164,7806,1,2,0:2:0:0:
315,116,7964,1,2,0:2:0:0:
317,33,8121,6,0,L|398:4,2,63.6999980560303,2|0|0,0:2|0:2|0:2,0:2:0:0:
193,1,8595,1,2,0:2:0:0:
223,145,8753,2,0,L|238:83,1,63.6999980560303,2|0,0:2|0:2,0:2:0:0:
106,12,9069,2,0,L|124:89,1,63.6999980560303,2|0,0:2|0:2,0:2:0:0:
230,234,9385,6,0,P|263:234|299:201,1,63.6999980560303,2|0,0:2|0:2,0:2:0:0:
143,153,9700,2,0,P|109:155|78:191,1,63.6999980560303,2|0,0:2|0:2,0:2:0:0:
46,270,10016,5,2,0:2:0:0:
6,139,10174,1,2,0:2:0:0:
52,287,10332,1,2,0:2:0:0:
0,126,10490,1,2,0:2:0:0:
146,283,10648,6,0,L|128:359,2,63.6999980560303,2|0|0,0:2|0:2|0:2,0:2:0:0:
172,191,11121,1,2,0:2:0:0:
241,282,11279,2,0,P|274:290|311:272,1,63.6999980560303,2|0,0:2|0:2,0:2:0:0:
413,218,11595,1,2,0:2:0:0:
413,218,11753,1,2,0:2:0:0:
304,142,11911,6,0,L|322:213,1,63.6999980560303,2|0,0:2|0:2,0:2:0:0:
419,296,12227,2,0,L|438:224,1,63.6999980560303,2|0,0:2|0:2,0:2:0:0:
296,56,12543,5,2,0:2:0:0:
221,98,12700,1,2,0:2:0:0:
224,182,12858,1,2,0:2:0:0:
299,229,13016,1,2,0:2:0:0:
376,182,13174,6,0,L|389:126,1,54.5999983337403,2|0,0:2|0:2,0:2:0:0:
406,50,13490,1,2,0:2:0:0:
474,116,13648,5,2,0:2:0:0:
497,191,13807,2,0,L|509:244,1,54.5999983337403,2|0,0:2|0:2,0:2:0:0:
360,195,14121,6,0,L|377:136,1,54.5999983337403,2|0,0:2|0:2,0:2:0:0:
406,50,14437,5,2,0:2:0:0:
295,97,14595,1,2,0:2:0:0:
400,157,14753,1,2,0:2:0:0:
320,18,14911,5,2,0:2:0:0:
319,171,15069,1,2,0:2:0:0:
423,38,15227,1,2,0:2:0:0:
265,100,15385,1,2,0:2:0:0:
415,173,15543,1,2,0:2:0:0:
229,18,15700,6,0,P|157:21|126:85,1,150.150004582214,6|0,1:2|0:0,0:0:0:0:
221,213,16332,2,0,B|229:181|250:159|250:159|206:97,1,136.500005207062,2|0,0:0|0:0,0:0:0:0:
69,263,16806,6,0,B|120:233|166:277|159:287|201:326|256:294,1,200.200006109619,6|0,1:2|0:0,0:0:0:0:
338,287,17595,6,0,P|335:254|311:228,1,68.250002603531,2|0,0:2|0:0,0:0:0:0:
264,158,17911,2,0,P|234:182|229:216,1,68.250002603531,2|0,0:2|0:0,0:0:0:0:
429,378,18227,6,0,B|463:210,1,150.150004582214,6|0,1:2|0:2,0:0:0:0:
510,152,18858,2,0,B|480:130|480:130|427:143,1,68.250002603531,2|0,0:2|0:0,0:0:0:0:
379,214,19174,2,0,B|348:221|348:221|319:193,1,68.250002603531,2|0,0:2|0:0,0:0:0:0:
488,42,19490,6,0,B|439:55|439:55|434:54|434:54|387:67,1,100.10000305481,6|0,1:2|0:0,0:0:0:0:
363,73,19964,1,8,0:2:0:0:
276,117,20121,5,10,0:2:0:0:
390,159,20332,5,0,1:2:0:0:
272,245,20543,5,0,1:2:0:0:
137,102,20753,6,0,B|152:176|152:176|155:177|155:177|168:252,1,150.150004582214,6|0,1:2|0:2,0:0:0:0:
264,324,21385,1,10,0:2:0:0:
140,376,21543,1,2,0:2:0:0:
69,255,21700,1,2,0:2:0:0:
224,132,21858,5,6,1:2:0:0:
230,137,22227,5,10,2:0:0:0:
230,137,22332,2,0,L|293:120,2,45.5000017356873,0|0|0,1:2|1:2|1:2,0:0:0:0:
153,206,22648,2,0,P|142:157|122:102,2,91.0000034713747,10|8|8,0:2|0:0|0:0,0:0:0:0:
158,297,23279,6,0,B|204:289|204:289|215:278|215:278|271:270,1,100.10000305481,6|0,1:2|0:0,0:0:0:0:
318,185,23753,1,0,1:2:0:0:
318,185,23911,2,0,L|335:244,1,50.0500015274048,14|0,0:2|0:0,0:0:0:0:
389,345,24227,2,0,L|404:281,1,50.0500015274048,2|0,0:2|0:0,0:0:0:0:
319,96,24543,6,0,P|277:100|245:133,1,68.250002603531,6|0,0:2|0:0,0:0:0:0:
413,210,24858,2,0,P|451:211|484:177,1,68.250002603531,6|0,0:2|0:0,0:0:0:0:
360,18,25174,1,6,0:2:0:0:
231,241,25332,5,2,1:2:0:0:
190,260,25411,1,2,1:2:0:0:
143,256,25490,1,2,1:2:0:0:
103,232,25569,1,2,1:2:0:0:
82,193,25648,1,2,1:2:0:0:
90,138,25726,1,2,1:2:0:0:
122,107,25806,6,0,B|169:72|216:103|202:121|252:163|306:122,1,182,6|8,1:2|0:2,0:0:0:0:
316,117,26437,2,0,B|340:155|340:155|316:208,1,91,2|0,1:2|1:2,0:0:0:0:
432,94,26753,1,8,0:2:0:0:
337,295,26911,2,0,P|286:295|246:255,1,91,6|0,1:2|0:0,0:0:0:0:
149,123,27227,5,0,1:2:0:0:
56,279,27385,2,0,L|78:385,1,91,8|0,0:2|0:2,0:0:0:0:
25,138,27700,1,0,1:2:0:0:
25,138,27858,1,0,1:2:0:0:
163,284,28016,2,0,P|207:292|241:262,1,91,10|0,1:2|0:0,0:0:0:0:
381,49,28332,6,0,P|363:131|344:239,1,182,6|8,1:2|0:2,0:0:0:0:
352,250,28964,2,0,B|388:277|388:277|437:263,1,91,2|0,1:2|1:2,0:0:0:0:
280,100,29279,2,0,B|233:87|233:87|184:124,1,91,10|0,1:2|1:2,0:0:0:0:
52,311,29595,6,0,P|128:312|124:207,1,182,6|8,1:2|0:2,0:0:0:0:
45,84,30069,1,2,0:2:0:0:
231,203,30227,1,2,1:2:0:0:
26,70,30385,1,0,1:2:0:0:
263,7,30543,1,10,0:2:0:0:
147,250,30700,5,2,1:2:0:0:
147,250,30779,1,2,1:2:0:0:
147,250,30858,6,0,B|135:180|135:180|159:146|159:146|144:70,1,182,6|8,1:2|0:2,0:0:0:0:
145,77,31490,2,0,B|186:101|186:101|241:75,1,91,2|0,1:2|1:2,0:0:0:0:
66,124,31806,1,8,0:2:0:0:
218,0,31964,2,0,P|284:10|298:117,1,182,6|0,1:2|0:0,0:0:0:0:
216,256,32437,5,8,0:2:0:0:
216,256,32753,2,0,B|318:236,1,91,2|0,1:2|1:2,0:0:0:0:
460,174,33069,2,0,B|341:151,1,91,10|0,0:2|1:2,0:0:0:0:
127,239,33385,6,0,P|139:319|232:342,1,182,6|8,1:2|0:2,0:0:0:0:
227,344,34016,2,0,P|256:304|235:256,1,91,2|0,1:2|1:2,0:0:0:0:
55,177,34332,2,0,P|25:210|28:254,1,91,10|0,0:2|0:2,0:0:0:0:
284,193,34648,5,14,0:2:0:0:
101,312,34806,1,2,1:2:0:0:
327,284,34964,1,0,1:0:0:0:
154,151,35121,5,14,0:2:0:0:
293,367,35279,1,2,1:2:0:0:
359,121,35437,1,2,1:2:0:0:
168,249,35595,1,14,1:2:0:0:
443,174,35753,1,2,1:2:0:0:
443,174,35832,1,10,1:2:0:0:
443,174,35911,5,14,1:2:0:0:
147,129,36069,1,14,0:2:0:0:
459,177,36227,5,14,0:2:0:0:
459,177,36543,5,14,0:2:0:0:
252,235,36700,1,10,0:2:0:0:
482,170,36858,1,2,1:2:0:0:
300,56,37016,6,0,B|313:122|313:122|317:126|317:126|333:202,1,136.5,6|0,1:2|0:0,0:0:0:0:
343,210,37332,5,8,0:2:0:0:
264,374,37490,1,6,1:2:0:0:
264,374,38437,6,0,P|229:341|230:286,1,81.8999975006104,6|0,1:2|0:2,0:0:0:0:
348,230,38753,2,0,P|341:274|300:295,1,81.8999975006104,10|0,0:2|0:2,0:0:0:0:
204,175,39069,1,2,1:2:0:0:
138,299,39227,1,2,0:2:0:0:
108,148,39385,1,10,0:2:0:0:
223,309,39543,1,2,0:2:0:0:
241,93,39700,6,0,P|284:103|321:109,1,81.8999975006104,2|0,1:2|0:0,0:0:0:0:
443,59,40016,1,8,0:2:0:0:
402,246,40174,2,0,L|382:166,1,81.8999975006104,2|0,0:2|1:2,0:0:0:0:
473,348,40490,2,0,L|497:269,1,81.8999975006104,2|8,0:2|0:0,0:0:0:0:
484,162,40806,1,2,1:2:0:0:
371,335,40964,6,0,P|326:335|294:301,1,81.8999975006104,0|0,1:2|0:0,0:0:0:0:
239,155,41279,2,0,P|282:176|293:233,1,81.8999975006104,8|0,0:2|0:0,0:0:0:0:
182,359,41595,5,2,1:2:0:0:
94,256,41753,1,2,0:2:0:0:
174,377,41911,1,10,0:2:0:0:
215,236,42069,1,2,0:2:0:0:
49,378,42227,6,0,B|22:291,1,81.8999975006104,2|0,1:2|0:0,0:0:0:0:
80,151,42543,1,10,0:2:0:0:
215,236,42700,2,0,B|242:149,1,81.8999975006104,2|0,1:2|0:0,0:0:0:0:
309,46,43016,1,0,1:2:0:0:
409,122,43174,1,8,0:0:0:0:
342,223,43332,1,0,0:0:0:0:
405,25,43490,6,0,P|478:31|508:109,1,163.799995001221,2|8,1:2|0:2,0:0:0:0:
360,303,43964,2,0,B|320:323|278:296|294:268|236:253|207:267,1,163.799995001221,2|0,0:2|0:2,0:0:0:0:
121,113,44437,2,0,P|160:121|180:168,1,81.8999975006104,10|0,0:2|0:2,0:0:0:0:
59,372,44753,6,0,L|98:208,1,163.799995001221,2|8,1:2|0:2,0:0:0:0:
209,297,45227,2,0,P|299:294|334:222,1,163.799995001221,2|0,0:2|1:2,0:0:0:0:
246,69,45700,2,0,B|204:116|204:116|242:210,1,163.799995001221,10|0,0:2|1:2,0:0:0:0:
333,373,46174,5,0,0:0:0:0:
333,373,46332,2,0,L|352:290,1,81.8999975006104,10|0,0:2|0:2,0:0:0:0:
302,130,46648,5,2,1:2:0:0:
251,283,46806,1,0,1:2:0:0:
419,234,46964,2,0,L|401:149,1,81.8999975006104,10|0,0:2|0:2,0:0:0:0:
216,102,47279,5,2,1:2:0:0:
330,250,47437,1,0,0:0:0:0:
431,73,47595,2,0,L|349:53,1,81.8999975006104,10|2,0:2|0:2,0:0:0:0:
90,257,47911,5,0,1:2:0:0:
340,146,48069,1,2,1:2:0:0:
94,49,48227,1,10,0:2:0:0:
236,273,48385,1,10,0:2:0:0:
228,98,48543,6,0,P|182:95|145:128,1,91,6|0,1:2|0:2,0:0:0:0:
328,260,48858,2,0,P|368:263|407:228,1,91,8|0,0:2|0:2,0:0:0:0:
439,73,49174,5,2,1:2:0:0:
483,185,49332,1,2,0:2:0:0:
376,21,49490,1,10,0:2:0:0:
329,176,49648,1,2,0:2:0:0:
266,37,49806,6,0,B|218:22|218:22|170:57,1,91,2|0,1:2|0:2,0:0:0:0:
111,186,50121,1,10,0:2:0:0:
6,82,50279,2,0,B|52:67|52:67|103:100,1,91,2|2,0:2|1:2,0:0:0:0:
284,246,50595,1,2,1:2:0:0:
81,311,50753,1,10,0:2:0:0:
166,121,50911,1,2,0:2:0:0:
294,337,51069,6,0,P|244:320|186:312,1,91,2|0,1:2|0:2,0:0:0:0:
16,230,51385,2,0,P|62:218|120:210,1,91,10|0,0:2|0:2,0:0:0:0:
275,60,51700,5,2,1:2:0:0:
217,246,51858,1,2,0:2:0:0:
375,92,52016,1,10,0:2:0:0:
318,288,52174,1,2,0:2:0:0:
162,105,52332,6,0,P|111:93|69:117,1,91,2|0,1:2|0:2,0:0:0:0:
182,318,52648,1,10,0:2:0:0:
322,121,52806,2,0,L|338:221,1,91,0|2,0:2|1:2,0:0:0:0:
429,316,53121,1,2,1:2:0:0:
217,246,53279,1,10,0:2:0:0:
416,147,53437,1,2,0:2:0:0:
307,365,53595,6,0,B|240:343|240:343|199:355|199:355|118:336,1,182,2|8,1:2|0:2,0:0:0:0:
39,172,54069,2,0,P|13:238|105:228,1,182,2|0,0:2|0:2,0:0:0:0:
217,72,54543,2,0,P|191:41|136:35,1,91,10|0,0:2|0:2,0:0:0:0:
257,242,54858,5,2,1:2:0:0:
133,140,55016,1,2,0:2:0:0:
320,63,55174,2,0,L|304:168,1,91,10|0,0:2|0:2,0:0:0:0:
120,357,55490,5,2,1:2:0:0:
241,247,55648,1,0,1:2:0:0:
56,177,55806,2,0,L|78:280,1,91,10|0,0:2|0:0,0:0:0:0:
255,377,56121,6,0,B|302:387|354:360|326:338|376:303|418:319,1,182,2|8,1:2|0:2,0:0:0:0:
257,242,56595,1,0,0:2:0:0:
439,119,56753,2,0,L|421:223,1,91,2|0,1:2|1:2,0:0:0:0:
251,133,57069,2,0,L|230:28,1,91,10|0,0:2|0:2,0:0:0:0:
445,298,57385,2,0,L|357:279,1,91,2|0,1:2|0:2,0:0:0:0:
165,122,57700,5,10,0:2:0:0:
278,346,57858,1,0,1:2:0:0:
307,67,58016,5,10,0:2:0:0:
176,308,58174,1,0,1:2:0:0:
95,43,58332,1,2,1:2:0:0:
244,192,58490,1,0,1:2:0:0:
56,163,58648,5,10,0:2:0:0:
327,53,58806,1,8,0:2:0:0:
349,43,59121,5,10,0:2:0:0:
281,322,59279,1,8,0:2:0:0:
292,337,59595,5,10,0:2:0:0:
173,161,59753,2,0,B|135:167|113:220|145:268|194:277|246:246|259:199|259:199|306:212|338:178|338:178|373:225|338:278,1,414.049981046296,12|0,0:2|0:2,0:0:0:0:
281,313,61174,5,10,0:2:0:0:
204,90,61332,1,8,0:2:0:0:
185,95,61648,5,10,0:2:0:0:
416,28,61806,1,8,0:2:0:0:
409,16,62121,5,8,0:2:0:0:
485,240,62279,2,0,B|491:313|420:347|420:347|313:282|362:199|410:230|428:150|378:89,1,414.049981046296,12|0,0:2|0:2,0:0:0:0:
322,155,63700,6,0,P|255:158|215:100,1,127.399996112061,6|0,1:2|0:2,0:0:0:0:
61,253,64332,2,0,P|119:204|181:233,1,127.399996112061,8|2,0:2|1:2,0:0:0:0:
259,341,64806,1,6,1:2:0:0:
259,341,65121,5,0,1:2:0:0:
135,292,65279,1,6,0:2:0:0:
135,292,65595,6,0,L|203:278,1,63.6999980560303,10|0,0:2|0:0,0:0:0:0:
299,187,65911,2,0,L|284:250,1,63.6999980560303,2|0,0:2|0:0,0:0:0:0:
259,341,66227,5,6,1:2:0:0:
276,349,66543,5,8,0:2:0:0:
55,265,66700,1,6,1:2:0:0:
42,277,67016,5,8,0:2:0:0:
244,115,67174,1,8,0:2:0:0:
120,354,67332,1,4,1:2:0:0:
128,370,67648,5,8,0:2:0:0:
32,105,67806,1,8,0:2:0:0:
42,277,68595,6,0,B|144:259|144:259|147:260|147:260|241:243,1,200.200006109619,6|0,1:2|1:2,0:0:0:0:
376,123,69069,1,10,0:2:0:0:
423,348,69227,1,2,0:2:0:0:
239,243,69385,1,2,1:2:0:0:
466,147,69543,2,0,L|445:245,1,100.10000305481,0|10,1:2|0:2,0:0:0:0:
174,373,69858,6,0,B|118:319|118:319|169:185,1,200.200006109619,6|0,1:2|1:2,0:0:0:0:
263,48,70332,1,10,0:2:0:0:
72,176,70490,1,0,0:2:0:0:
312,211,70648,1,2,1:2:0:0:
143,26,70806,2,0,L|173:145,1,100.10000305481,2|8,1:2|0:2,0:0:0:0:
287,297,71121,6,0,P|368:297|391:188,1,200.200006109619,6|0,1:2|1:2,0:0:0:0:
264,41,71595,1,10,0:2:0:0:
217,210,71753,1,2,0:2:0:0:
61,70,71911,1,2,1:2:0:0:
139,254,72069,1,2,0:2:0:0:
139,254,72227,1,8,0:2:0:0:
275,25,72385,6,0,P|324:19|366:48,1,100.10000305481,6|0,1:2|0:0,0:0:0:0:
154,111,72700,1,2,1:2:0:0:
329,223,72858,2,0,L|300:96,1,100.10000305481,10|0,0:2|0:2,0:0:0:0:
192,32,73174,1,2,1:2:0:0:
396,130,73332,1,2,1:2:0:0:
396,130,73411,1,2,1:2:0:0:
396,130,73490,1,10,0:2:0:0:
121,245,73648,6,0,B|88:205|88:205|110:149,1,100.10000305481,6|0,1:2|0:2,0:0:0:0:
329,223,73964,1,2,1:2:0:0:
161,353,74121,2,0,L|63:331,1,100.10000305481,10|0,0:2|0:0,0:0:0:0:
71,111,74437,1,2,1:2:0:0:
220,284,74595,1,2,1:2:0:0:
2,262,74753,1,10,0:2:0:0:
156,77,74911,6,0,B|178:128|164:186|125:170|104:219|123:280,1,200.200006109619,6|0,1:2|1:2,0:0:0:0:
49,344,75385,2,0,P|90:311|176:312,1,100.10000305481,10|0,0:2|0:2,0:0:0:0:
393,339,75700,5,2,1:2:0:0:
227,234,75858,1,2,1:2:0:0:
404,134,76016,2,0,P|391:186|382:248,1,100.10000305481,10|0,0:2|0:2,0:0:0:0:
115,286,76332,5,6,1:2:0:0:
293,164,76490,1,2,1:2:0:0:
97,80,76648,2,0,P|108:131|119:193,1,100.10000305481,10|0,0:2|0:2,0:0:0:0:
258,304,76964,1,2,1:2:0:0:
15,213,77121,1,0,1:2:0:0:
250,88,77279,1,8,0:2:0:0:
168,367,77437,6,0,B|123:248|123:248|162:179,1,200.200006109619,6|8,1:2|0:2,0:0:0:0:
177,172,77832,1,8,0:2:0:0:
177,172,77911,1,8,0:2:0:0:
323,350,78069,5,10,0:2:0:0:
362,357,78148,1,10,0:2:0:0:
401,349,78227,1,10,0:2:0:0:
434,327,78306,1,10,0:2:0:0:
456,294,78385,1,10,0:2:0:0:
464,255,78464,1,10,0:2:0:0:
457,214,78543,2,0,L|428:147,1,50.0500015274048,0|0,1:2|0:0,0:0:0:0:
314,25,78700,6,0,B|301:70|320:110|320:110|306:145|306:145|330:194|320:252,1,200.200006109619,6|0,1:2|1:2,0:0:0:0:
219,341,79174,5,8,0:2:0:0:
165,138,79332,1,2,1:2:0:0:
48,292,79490,1,2,1:2:0:0:
246,182,79648,2,0,P|290:177|347:224,1,100.10000305481,2|8,1:2|0:2,0:0:0:0:
442,348,79964,6,0,B|365:332|365:332|339:291|339:291|257:272,1,200.200006109619,6|0,1:2|1:2,0:0:0:0:
48,292,80437,2,0,B|31:245|31:245|61:200,1,100.10000305481,8|2,0:2|0:2,0:0:0:0:
213,46,80753,1,2,1:2:0:0:
141,255,80911,1,2,1:2:0:0:
17,73,81069,1,8,0:2:0:0:
234,217,81227,6,0,B|285:184|349:217|349:217|368:170|426:162,1,200.200006109619,6|0,1:2|1:2,0:0:0:0:
487,80,81700,1,10,0:2:0:0:
432,263,81858,1,2,0:2:0:0:
289,119,82016,2,0,P|236:116|192:147,1,100.10000305481,2|2,1:2|1:2,0:0:0:0:
119,297,82332,1,8,0:2:0:0:
3,112,82490,6,0,L|31:223,1,100.10000305481,6|0,1:2|0:0,0:0:0:0:
218,251,82806,1,0,1:2:0:0:
137,62,82964,2,0,L|118:160,1,100.10000305481,10|0,0:2|0:2,0:0:0:0:
285,321,83279,1,2,1:2:0:0:
353,83,83437,1,2,1:2:0:0:
126,181,83595,1,10,0:2:0:0:
413,287,83753,6,0,P|419:193|338:233,1,200.200006109619,6|0,1:2|1:2,0:0:0:0:
180,368,84227,2,0,L|193:255,1,100.10000305481,8|0,0:2|0:0,0:0:0:0:
77,109,84543,1,2,1:2:0:0:
329,186,84700,1,2,1:2:0:0:
92,299,84858,1,10,0:2:0:0:
280,80,85016,6,0,B|402:57|402:57|450:70|454:124,1,200.200006109619,6|0,1:2|1:2,0:0:0:0:
319,371,85490,2,0,P|262:364|227:322,1,100.10000305481,10|0,0:2|0:2,0:0:0:0:
176,134,85806,2,0,P|219:169|226:222,1,100.10000305481,2|0,1:2|1:2,0:0:0:0:
42,312,86121,2,0,P|81:272|138:274,1,100.10000305481,10|0,0:2|1:2,0:0:0:0:
337,321,86437,5,14,0:2:0:0:
279,88,86595,1,0,1:2:0:0:
342,342,86753,1,2,1:2:0:0:
409,108,86911,5,14,0:2:0:0:
209,288,87069,1,0,1:2:0:0:
425,95,87227,1,0,1:2:0:0:
171,197,87385,5,12,0:2:0:0:
411,294,87543,1,0,1:2:0:0:
347,48,87700,1,0,1:2:0:0:
119,274,87858,5,12,0:2:0:0:
395,191,88016,1,0,1:2:0:0:
159,48,88174,1,0,1:2:0:0:
334,349,88332,5,12,0:2:0:0:
267,71,88490,1,12,0:2:0:0:
140,353,88648,5,0,1:2:0:0:
201,120,88806,1,0,1:2:0:0:
413,313,88964,6,0,B|456:329|492:263|492:263|426:186|362:240|373:256|323:293|261:244,1,350.350010691834,12|0,0:2|0:2,0:0:0:0:
74,370,91490,6,0,B|20:278|20:278|56:201,1,182,6|8,1:2|0:2,0:0:0:0:
52,187,92121,2,0,B|94:193|94:193|96:196|96:196|140:203,1,91,2|0,1:2|0:2,0:0:0:0:
247,122,92437,1,8,0:2:0:0:
324,330,92595,2,0,L|346:228,1,91,6|0,1:2|0:0,0:0:0:0:
377,97,92911,5,0,1:2:0:0:
257,214,93069,2,0,P|211:215|173:169,1,91,8|0,0:2|0:0,0:0:0:0:
196,12,93385,2,0,P|222:51|213:93,1,91,2|0,1:2|0:0,0:0:0:0:
40,134,93700,2,0,P|72:103|117:103,1,91,10|0,0:2|0:2,0:0:0:0:
240,292,94016,6,0,B|291:319|329:281|322:272|362:229|423:266,1,182,6|8,1:2|0:2,0:0:0:0:
428,271,94648,1,2,1:2:0:0:
320,382,94806,1,0,1:2:0:0:
267,212,94964,2,0,L|243:121,1,91,10|0,0:2|0:2,0:0:0:0:
119,316,95279,6,0,P|38:330|6:247,1,182,6|8,1:2|0:2,0:0:0:0:
103,89,95753,1,2,1:2:0:0:
239,236,95911,2,0,P|283:246|325:206,1,91,6|0,1:2|1:2,0:0:0:0:
481,102,96227,2,0,B|390:88,1,91,8|0,0:2|0:0,0:0:0:0:
405,360,96543,6,0,P|480:333|467:242,1,182,6|8,1:2|0:2,0:0:0:0:
452,220,97174,2,0,L|334:240,1,91,2|0,1:2|0:2,0:0:0:0:
193,323,97490,1,10,0:2:0:0:
246,140,97648,2,0,L|283:254,1,91,6|0,1:2|0:0,0:0:0:0:
316,354,97964,5,0,1:2:0:0:
187,237,98121,2,0,P|141:235|110:268,1,91,10|0,0:2|0:2,0:0:0:0:
49,366,98437,2,0,L|21:269,1,91,2|0,1:2|0:0,0:0:0:0:
207,149,98753,2,0,L|188:237,1,91,10|0,0:2|0:0,0:0:0:0:
0,59,99069,6,0,B|41:26|83:63|73:77|126:114|171:73,1,182,6|8,1:2|0:2,0:0:0:0:
186,63,99700,1,2,1:2:0:0:
260,208,99858,1,0,1:2:0:0:
374,101,100016,2,0,B|365:63|365:63|365:58|365:58|355:11,1,91,10|0,0:2|0:2,0:0:0:0:
360,194,100332,6,0,P|407:201|447:165,1,91,2|0,1:2|0:2,0:0:0:0:
229,54,100648,2,0,P|184:62|155:103,1,91,10|0,0:2|0:2,0:0:0:0:
138,263,100964,5,2,1:2:0:0:
234,135,101121,1,0,1:2:0:0:
274,307,101279,1,14,0:2:0:0:
274,307,101595,5,14,0:2:0:0:
124,178,101753,1,12,0:2:0:0:
354,256,101911,1,12,0:2:0:0:
373,246,102227,5,12,0:2:0:0:
116,332,102385,1,10,0:2:0:0:
232,111,102543,1,0,1:2:0:0:
387,358,102700,6,0,B|241:334,1,136.5,4|0,1:2|0:0,0:0:0:0:
234,332,103016,5,8,0:2:0:0:
447,301,103174,1,4,1:2:0:0:
458,316,103490,5,10,0:2:0:0:
503,224,103648,2,0,B|478:218|478:218|470:219|470:219|439:212|439:212|402:231|402:231|360:224|360:224|354:220|354:220|321:214,1,182,0|0,1:2|0:2,0:2:0:0:
252,108,104121,6,0,P|340:80|379:157,1,177.449991876984,6|0,1:2|0:0,0:0:0:0:
329,215,104753,2,0,L|349:282,2,59.149997292328,2|0|0,0:2|0:0|0:0,0:0:0:0:
237,224,105227,1,2,1:2:0:0:
237,224,105385,6,0,L|258:155,1,59.149997292328,2|0,0:2|1:0,0:0:0:0:
311,78,105700,1,2,1:0:0:0:
311,78,105858,2,0,L|336:144,1,59.149997292328,2|0,0:2|0:0,0:0:0:0:
427,255,106174,6,0,B|359:211|306:278|319:289|255:348|186:291,1,250.250007637024,2|0,0:2|1:2,0:0:0:0:
214,176,107279,6,0,P|234:202|235:235,1,59.149997292328,2|0,0:2|0:0,0:0:0:0:
133,165,107595,2,0,P|138:138|160:113,2,59.149997292328,2|0|0,0:2|0:0|0:0,0:0:0:0:
38,249,108069,5,2,1:2:0:0:
38,249,108227,2,0,B|102:230|92:275|152:257,1,118.299994584656,2|0,1:2|0:0,0:0:0:0:
299,158,108700,2,0,P|243:149|208:188,1,100.10000305481,2|0,0:2|0:0,0:0:0:0:
256,335,109174,6,0,B|266:289|266:289|264:280|264:280|275:221,1,100.10000305481,2|0,0:2|0:0,0:0:0:0:
373,119,109648,2,0,B|383:165|383:165|381:174|381:174|389:217,1,100.10000305481,2|0,0:2|0:0,0:0:0:0:
335,355,110121,2,0,L|347:294,1,50.0500015274048,2|0,0:2|1:0,0:0:0:0:
497,270,110437,6,0,P|464:298|423:295,1,81.8999975006104,2|0,0:2|1:0,0:0:0:0:
206,233,110911,2,0,P|233:266|273:270,1,81.8999975006104,2|0,0:2|1:0,0:0:0:0:
372,189,111385,2,0,L|363:234,1,40.9499987503052,2|0,0:2|0:0,0:0:0:0:
339,362,111700,6,0,L|363:235,2,118.299994584656,2|0|0,0:2|0:0|0:0,0:0:0:0:
264,291,112648,1,2,0:2:0:0:
208,358,112964,5,2,0:2:0:0:
51,258,114227,6,0,P|98:267|141:220,1,91,6|0,1:2|0:2,0:0:0:0:
115,150,114543,2,0,P|73:141|28:171,1,91,10|0,0:2|0:2,0:0:0:0:
185,312,114858,1,2,1:2:0:0:
242,141,115016,1,2,0:2:0:0:
341,302,115174,2,0,L|365:396,2,60.6666666666667,8|2|2,0:2|0:2|0:2,0:2:0:0:
270,252,115490,6,0,P|300:218|367:224,1,91,2|0,1:2|0:0,0:0:0:0:
508,257,115806,1,10,0:2:0:0:
431,302,115964,2,0,P|415:257|429:215,1,91,2|0,0:2|1:2,0:0:0:0:
493,150,116279,1,0,1:2:0:0:
418,71,116437,6,0,L|399:135,2,60.6666666666667,10|2|2,0:2|0:2|0:2,0:2:0:0:
341,39,116753,2,0,L|318:110,1,60.6666666666667,2|0,1:2|0:0,0:0:0:0:
262,175,116964,5,2,0:2:0:0:
250,184,117069,2,0,P|218:162|219:105,2,60.6666666666667,10|2|2,0:2|0:2|0:2,0:0:0:0:
139,178,117385,5,2,1:2:0:0:
127,171,117490,2,0,P|120:135|152:96,1,60.6666666666667,2|2,0:2|0:2,0:0:0:0:
46,99,117700,5,10,0:2:0:0:
35,86,117806,2,0,P|52:53|91:39,1,60.6666666666667,2|2,0:2|0:2,0:0:0:0:
217,9,118016,6,0,L|252:133,1,91,2|0,1:2|0:2,0:0:0:0:
220,265,118332,1,10,0:2:0:0:
91,166,118490,2,0,P|50:167|9:219,1,91,2|0,1:2|0:2,0:0:0:0:
113,358,118806,1,0,1:2:0:0:
213,184,118964,1,10,0:2:0:0:
85,250,119121,1,0,0:2:0:0:
242,346,119279,6,0,B|277:317|333:342|314:376|369:397|410:370,1,182,2|8,1:2|0:2,0:0:0:0:
470,196,119753,2,0,P|387:194|390:290,1,182,2|0,0:2|0:2,0:0:0:0:
443,349,120227,2,0,P|468:326|463:279,2,60.6666666666667,10|2|2,0:2|0:2|0:2,0:0:0:0:
334,366,120543,6,0,P|295:365|262:307,1,91,2|0,1:2|0:2,0:0:0:0:
164,209,120858,5,10,1:2:0:0:
164,209,120937,1,2,1:2:0:0:
164,209,121016,2,0,L|186:288,1,45.5,2|2,1:2|1:2,0:0:0:0:
300,139,121174,5,2,1:2:0:0:
300,139,121253,1,2,1:2:0:0:
300,139,121332,2,0,L|282:210,1,45.5,2|2,1:2|1:2,0:0:0:0:
176,348,121490,5,10,1:2:0:0:
127,372,121569,1,2,1:2:0:0:
72,364,121648,1,2,1:2:0:0:
35,323,121727,1,2,1:2:0:0:
35,268,121806,6,0,B|111:251|111:251|131:261|131:261|243:235,1,182,2|8,1:2|0:2,0:0:0:0:
349,286,122279,1,0,0:2:0:0:
170,158,122437,5,0,1:2:0:0:
275,355,122595,1,0,1:2:0:0:
415,206,122753,2,0,L|326:186,1,91,8|0,0:2|1:2,0:0:0:0:
156,144,123069,6,0,L|247:128,1,91,2|0,1:2|0:2,0:0:0:0:
407,60,123385,5,10,0:2:0:0:
260,226,123543,1,0,1:2:0:0:
328,16,123700,5,10,0:2:0:0:
422,266,123858,1,0,1:2:0:0:
253,60,124016,5,2,1:2:0:0:
337,275,124174,1,0,1:2:0:0:
416,42,124332,5,10,0:2:0:0:
164,126,124490,1,8,0:2:0:0:
146,121,124806,5,10,0:2:0:0:
373,202,124964,1,8,0:2:0:0:
390,195,125279,5,10,0:2:0:0:
155,289,125437,2,0,B|97:325|80:285|44:272|44:272|51:260|51:260|46:234|-17:224|35:102|125:131|125:131|86:165|105:208,1,414.049981046296,12|0,0:2|0:2,0:0:0:0:
227,341,126858,5,10,0:2:0:0:
299,148,127016,1,8,0:2:0:0:
293,130,127332,5,10,0:2:0:0:
379,339,127490,1,8,0:2:0:0:
372,357,127806,5,10,0:2:0:0:
470,126,127964,2,0,B|454:80|401:82|401:82|357:153|427:225,1,236.599989169312,12|0,0:2|0:0,0:0:0:0:
499,312,128753,6,0,B|449:298|449:298|429:304|429:304|367:287,1,122.849996250916,2|0,0:0|0:0,0:0:0:0:
271,170,129385,6,0,B|323:382,1,191.099994168091,6|0,1:2|0:2,0:0:0:0:
115,322,130016,2,0,P|151:269|215:278,1,127.399996112061,8|2,0:2|1:2,0:0:0:0:
192,358,130490,1,6,1:2:0:0:
201,373,130806,5,0,1:2:0:0:
118,199,130964,1,2,1:2:0:0:
118,199,131279,6,0,P|153:198|185:162,1,63.6999980560303,10|0,0:2|0:0,0:0:0:0:
108,109,131595,2,0,P|72:112|51:133,1,63.6999980560303,2|0,0:2|0:0,0:0:0:0:
247,281,131911,6,0,L|259:217,1,63.6999980560303,6|0,1:2|0:0,0:0:0:0:
287,60,132227,1,8,0:2:0:0:
360,220,132385,2,0,P|390:225|419:213,1,63.6999980560303,6|0,1:2|0:0,0:0:0:0:
503,61,132700,5,8,0:2:0:0:
307,146,132858,1,8,0:2:0:0:
493,260,133016,2,0,L|510:180,1,63.6999980560303,6|0,1:2|0:0,0:0:0:0:
422,17,133332,5,8,0:2:0:0:
352,298,133490,1,10,0:2:0:0:
352,298,134279,6,0,B|273:278|273:278|234:311|234:311|130:286,1,200.200006109619,6|0,1:2|1:2,0:0:0:0:
24,256,134753,1,10,0:2:0:0:
234,186,134911,1,2,0:2:0:0:
0,138,135069,1,2,1:2:0:0:
180,52,135227,2,0,L|159:168,1,100.10000305481,0|10,1:2|0:2,0:0:0:0:
2,340,135543,6,0,B|60:370|98:324|86:306|137:257|201:299,1,200.200006109619,6|0,1:2|1:2,0:0:0:0:
327,368,136016,1,10,0:2:0:0:
228,174,136174,1,0,0:2:0:0:
159,370,136332,1,2,1:2:0:0:
316,193,136490,2,0,B|359:160|359:160|408:174,1,100.10000305481,2|8,1:2|0:2,0:0:0:0:
501,347,136806,6,0,P|476:272|371:306,1,200.200006109619,6|0,1:2|1:2,0:0:0:0:
254,375,137279,1,10,0:2:0:0:
360,204,137437,1,2,0:2:0:0:
162,271,137595,1,2,1:2:0:0:
377,196,137753,1,2,0:2:0:0:
131,142,137911,1,8,0:2:0:0:
455,167,138069,6,0,P|468:209|430:260,1,100.10000305481,6|0,1:2|0:0,0:0:0:0:
237,141,138385,1,2,1:2:0:0:
311,23,138543,2,0,L|343:117,1,100.10000305481,10|0,0:2|0:2,0:0:0:0:
406,290,138858,1,2,1:2:0:0:
182,197,139016,1,2,1:2:0:0:
414,74,139174,1,8,0:2:0:0:
287,306,139332,6,0,P|240:291|167:283,1,100.10000305481,6|0,1:2|0:0,0:0:0:0:
41,232,139648,1,0,1:2:0:0:
212,118,139806,2,0,P|255:147|257:213,1,100.10000305481,10|0,0:2|0:0,0:0:0:0:
153,364,140121,1,2,1:2:0:0:
92,117,140279,1,2,1:2:0:0:
300,250,140437,1,10,0:2:0:0:
61,367,140595,6,0,B|77:308|77:308|109:285|109:285|90:253|90:253|108:176,1,200.200006109619,6|0,1:2|1:2,0:0:0:0:
241,125,141069,2,0,P|235:177|192:201,1,100.10000305481,10|0,0:2|0:2,0:0:0:0:
7,131,141385,1,2,1:2:0:0:
180,58,141543,1,0,0:2:0:0:
106,272,141700,2,0,L|83:170,1,100.10000305481,10|0,0:2|0:2,0:0:0:0:
251,7,142016,5,6,1:2:0:0:
196,254,142174,1,0,0:0:0:0:
10,105,142332,2,0,P|43:71|108:77,1,100.10000305481,8|0,0:2|0:0,0:0:0:0:
303,293,142648,1,2,1:2:0:0:
370,51,142806,1,0,1:2:0:0:
138,146,142964,1,8,0:2:0:0:
375,352,143121,6,0,B|398:272|398:272|375:233|375:233|395:160,1,200.200006109619,6|8,1:2|0:2,0:0:0:0:
404,153,143516,1,8,0:2:0:0:
404,153,143595,1,8,0:2:0:0:
96,76,143753,5,10,0:2:0:0:
62,111,143832,1,10,0:2:0:0:
57,161,143911,1,10,0:2:0:0:
77,206,143990,1,10,0:2:0:0:
122,229,144069,1,10,0:2:0:0:
172,223,144148,1,10,0:2:0:0:
213,197,144227,2,0,P|236:186|262:177,1,50.0500015274048,0|0,1:2|0:0,0:0:0:0:
391,3,144385,6,0,B|333:58|333:58|389:196,1,200.200006109619,6|0,1:2|1:2,0:0:0:0:
430,313,144858,1,8,0:2:0:0:
461,73,145016,1,2,1:2:0:0:
284,221,145174,1,2,1:2:0:0:
489,161,145332,2,0,B|496:212|496:212|497:209|497:209|504:259,1,100.10000305481,2|8,1:2|0:2,0:0:0:0:
350,384,145648,6,0,P|285:314|154:352,1,200.200006109619,6|0,1:2|1:2,0:0:0:0:
29,246,146121,2,0,P|81:242|119:205,1,100.10000305481,8|2,0:2|0:2,0:0:0:0:
243,10,146437,5,2,1:2:0:0:
215,226,146595,1,2,1:2:0:0:
75,93,146753,1,8,0:2:0:0:
328,49,146911,6,0,B|401:48|421:128|421:128|383:149|372:211,1,200.200006109619,6|0,1:2|1:2,0:0:0:0:
310,350,147385,1,10,0:2:0:0:
237,140,147543,1,2,0:2:0:0:
134,340,147700,2,0,P|82:346|39:314,1,100.10000305481,2|2,1:2|1:2,0:0:0:0:
157,94,148016,1,8,0:2:0:0:
296,325,148174,6,0,B|310:223,1,100.10000305481,6|0,1:2|0:0,0:0:0:0:
243,29,148490,1,0,1:2:0:0:
143,206,148648,2,0,B|90:220|90:220|44:185,1,100.10000305481,10|0,0:2|0:2,0:0:0:0:
318,104,148964,1,2,1:2:0:0:
159,327,149121,1,2,1:2:0:0:
103,68,149279,1,10,0:2:0:0:
271,318,149437,6,0,B|314:335|374:294|344:272|386:231|442:243,1,200.200006109619,6|0,1:2|1:2,0:0:0:0:
253,137,149911,2,0,L|278:234,1,100.10000305481,8|0,0:2|0:0,0:0:0:0:
431,334,150227,1,2,1:2:0:0:
187,257,150385,1,2,1:2:0:0:
416,130,150543,1,10,0:2:0:0:
210,349,150700,6,0,P|117:344|97:245,1,200.200006109619,6|0,1:2|1:2,0:0:0:0:
285,58,151174,2,0,P|295:115|257:146,1,100.10000305481,10|0,0:2|0:2,0:0:0:0:
106,107,151490,2,0,P|144:71|201:81,1,100.10000305481,2|0,1:2|0:2,0:0:0:0:
244,231,151806,2,0,P|194:216|176:163,1,100.10000305481,10|0,0:2|0:2,0:0:0:0:
447,55,152121,5,14,0:2:0:0:
331,260,152279,1,0,1:2:0:0:
457,36,152437,1,2,1:2:0:0:
417,284,152595,5,14,0:2:0:0:
335,27,152753,1,0,1:2:0:0:
422,301,152911,1,0,1:2:0:0:
232,61,153069,5,12,0:2:0:0:
490,151,153227,1,0,1:2:0:0:
250,275,153385,1,0,1:2:0:0:
418,37,153543,5,12,0:2:0:0:
337,324,153700,1,0,1:2:0:0:
149,95,153858,1,0,1:2:0:0:
435,207,154016,5,12,0:2:0:0:
109,278,154174,1,12,0:2:0:0:
339,118,154332,1,0,1:2:0:0:
339,118,154411,1,0,1:2:0:0:
339,118,154490,1,0,1:2:0:0:
91,292,154648,6,0,B|93:335|145:344|145:344|196:316|194:219|117:188|117:188|82:227|29:210,1,350.350010691834,12|0,0:2|0:0,0:0:0:0:
56,129,155911,6,0,B|46:106|14:78|14:78|63:61|98:29|98:29|160:67,1,236.599989169312,6|10,1:2|0:2,0:0:0:0:
7,197,156858,1,6,1:2:0:0:
99,371,157016,6,0,B|42:319|42:319|101:187,1,204.750007810593,6|8,1:2|3:2,0:0:0:0:
116,177,157595,6,0,P|145:173|179:193,1,45.5000017356873,8|8,3:0|3:0,0:0:0:0:
230,239,157806,5,8,3:0:0:0:
239,246,157911,2,0,P|266:246|294:232,1,45.5000017356873,8|8,3:0|3:0,0:0:0:0:
350,155,158121,5,4,3:0:0:0:
384,136,158227,1,4,3:0:0:0:
427,149,158332,1,4,3:0:0:0:
451,179,158437,6,0,B|473:234|473:234|421:322,1,136.500005207062,6|2,1:2|0:2,0:0:0:0:
373,372,158911,1,2,0:0:0:0:
373,372,159069,2,0,P|328:325|262:361,1,136.500005207062,10|2,0:2|0:2,0:0:0:0:
268,348,159700,6,0,L|246:253,1,68.250002603531,2|0,1:2|1:2,0:0:0:0:
226,193,160016,1,2,1:2:0:0:
226,193,160332,5,10,0:2:0:0:
168,338,160490,1,2,1:2:0:0:
60,239,160648,2,0,P|96:214|143:230,1,68.250002603531,2|0,1:2|0:0,0:0:0:0:
383,327,160964,6,0,B|332:352|332:352|257:320,1,116.025002213001,12|0,0:2|0:0,0:0:0:0:
220,271,161279,1,8,3:0:0:0:
197,255,161358,1,8,3:0:0:0:
170,250,161437,1,8,3:0:0:0:
143,255,161516,1,8,3:0:0:0:
121,271,161595,5,0,1:0:0:0:
91,357,161753,1,0,1:0:0:0:
176,344,161911,1,6,1:2:0:0:
33,289,162069,6,0,B|-2:168|-2:168|56:84,1,204.750007810593,6|0,1:2|3:2,0:0:0:0:
65,82,162648,6,0,L|81:137,1,45.5000017356873,8|8,3:0|3:0,0:0:0:0:
158,153,162858,5,8,3:0:0:0:
165,161,162964,2,0,L|146:222,1,45.5000017356873,8|8,3:0|3:0,0:0:0:0:
72,252,163174,5,8,0:0:0:0:
98,299,163279,1,8,0:0:0:0:
150,312,163385,1,8,0:0:0:0:
197,279,163490,6,0,B|246:246|297:292|286:301|326:346|401:292,1,204.750007810593,6|2,0:2|1:2,0:0:0:0:
346,222,164121,2,0,L|373:65,2,136.500005207062,10|0|2,0:2|1:2|1:2,0:0:0:0:
319,328,164911,5,0,1:2:0:0:
237,224,165069,2,0,P|196:221|167:249,1,68.250002603531,2|0,1:2|0:2,0:0:0:0:
94,344,165385,1,10,0:2:0:0:
21,123,165543,2,0,P|72:98|95:181,1,136.500005207062,2|0,0:2|0:2,0:0:0:0:
0,213,166016,6,0,B|34:198|65:213|53:244|95:256|127:240,1,129.674996537304,6|0,1:2|0:0,0:0:0:0:
144,229,166332,1,8,0:2:0:0:
345,86,166490,2,0,L|327:202,1,86.449997691536,6|2,1:2|0:2,0:0:0:0:
376,276,166806,1,8,0:2:0:0:
155,135,166964,2,0,L|180:250,1,86.449997691536,6|0,1:2|0:2,0:0:0:0:
326,362,167279,5,12,3:0:0:0:
63,268,167437,1,12,3:0:0:0:
328,161,167595,1,12,3:0:0:0:
211,348,167911,6,0,P|182:312|190:266,1,81.8999975006104,4|8,3:0|0:2,0:0:0:0:
270,286,168385,6,0,B|316:267|364:303|339:329|394:352|436:331,1,182,6|0,1:2|1:2,0:0:0:0:
500,269,168858,2,0,L|487:164,1,91,8|0,0:2|0:2,0:0:0:0:
395,46,169174,5,0,1:2:0:0:
332,237,169332,1,0,1:2:0:0:
226,61,169490,2,0,P|188:51|141:80,1,91,8|0,0:2|0:2,0:0:0:0:
134,329,169806,5,0,1:2:0:0:
196,141,169964,1,0,1:2:0:0:
294,309,170121,2,0,P|336:323|385:302,1,91,8|0,0:2|0:2,0:0:0:0:
443,110,170437,1,2,1:2:0:0:
202,227,170595,1,2,1:2:0:0:
457,299,170753,1,10,0:2:0:0:
302,56,170911,6,0,P|319:133|327:244,1,182,6|2,1:2|1:2,0:0:0:0:
217,339,171385,2,0,P|178:339|140:304,1,91,10|0,0:2|0:2,0:0:0:0:
69,140,171700,5,0,1:2:0:0:
210,247,171858,1,0,1:2:0:0:
23,333,172016,2,0,L|45:218,1,91,10|0,0:2|0:2,0:2:0:0:
288,66,172332,5,0,1:2:0:0:
121,206,172490,1,0,1:2:0:0:
344,278,172648,2,0,L|324:163,1,91,10|0,0:2|0:2,0:2:0:0:
209,15,172964,1,2,1:2:0:0:
132,296,173121,1,2,1:2:0:0:
132,296,173200,1,2,1:2:0:0:
132,296,173279,1,10,0:2:0:0:
401,184,173437,6,0,B|323:171|323:171|291:191|291:191|219:181,1,182,6|0,1:2|1:2,0:0:0:0:
115,47,173911,2,0,L|156:155,1,91,8|0,0:2|0:2,0:0:0:0:
379,267,174227,1,0,1:2:0:0:
256,92,174385,1,0,1:2:0:0:
205,317,174543,1,8,0:2:0:0:
468,237,174700,6,0,P|415:166|329:188,1,182,6|0,1:2|1:2,0:0:0:0:
303,295,175174,2,0,P|347:298|378:267,1,91,10|0,0:2|0:2,0:0:0:0:
204,117,175490,2,0,P|159:115|122:159,1,91,2|0,1:2|1:2,0:0:0:0:
206,371,175806,2,0,L|227:268,1,91,10|0,0:2|0:2,0:0:0:0:
0,209,176121,6,0,B|47:175|85:217|79:223|124:267|181:212,1,182,6|8,1:2|0:2,0:0:0:0:
166,224,176753,1,2,1:2:0:0:
389,167,176911,1,0,1:2:0:0:
215,78,177069,1,8,0:2:0:0:
362,285,177227,6,0,B|305:271|305:271|282:283|282:283|213:269,1,136.5,6|0,1:2|0:0,0:0:0:0:
166,224,177543,2,0,B|136:263|136:263|153:305,1,91,2|10,1:2|0:2,0:0:0:0:
274,169,177858,1,8,0:2:0:0:
283,164,177937,1,10,0:2:0:0:
291,161,178016,2,0,L|282:90,1,45.5,10|0,0:2|0:0,0:0:0:0:
198,8,178174,5,8,3:0:0:0:
189,12,178253,1,8,3:0:0:0:
181,16,178332,2,0,L|175:61,1,45.5,8|8,3:0|3:0,0:0:0:0:
27,156,178490,6,0,B|96:138|96:138|131:157|131:157|215:135,1,182,6|0,1:2|1:2,0:0:0:0:
392,23,178964,2,0,B|417:65|417:65|383:122,1,91,8|0,0:2|0:2,0:0:0:0:
240,240,179279,5,0,1:2:0:0:
307,39,179437,1,0,1:2:0:0:
434,212,179595,2,0,P|391:223|344:179,1,91,8|2,0:2|0:2,0:0:0:0:
230,80,179911,5,0,1:2:0:0:
312,305,180069,1,0,1:2:0:0:
167,158,180227,2,0,P|117:156|75:197,1,91,10|0,0:2|0:2,0:0:0:0:
19,329,180543,1,2,1:2:0:0:
265,228,180700,1,2,1:2:0:0:
23,127,180858,1,8,0:2:0:0:
135,316,181016,6,0,B|176:287|224:320|213:336|253:366|304:332,1,182,6|0,1:2|1:2,0:0:0:0:
416,132,181490,2,0,P|377:164|382:222,1,91,8|0,0:2|0:2,0:0:0:0:
424,384,181806,5,0,1:2:0:0:
464,207,181964,1,0,1:2:0:0:
308,333,182121,2,0,P|263:331|231:293,1,91,10|0,0:2|0:0,0:0:0:0:
76,126,182437,5,0,1:2:0:0:
275,192,182595,1,0,1:2:0:0:
115,306,182753,2,0,L|140:200,1,91,10|0,0:2|0:0,0:0:0:0:
146,201,182990,1,2,1:2:0:0:
146,201,183069,1,2,1:2:0:0:
208,352,183227,1,2,1:2:0:0:
208,352,183306,1,2,1:2:0:0:
208,352,183385,1,10,0:2:0:0:
163,115,183543,6,0,B|115:89|76:129|88:147|37:184|-5:145,1,182,6|0,1:2|1:2,0:0:0:0:
227,9,184016,2,0,L|250:103,1,91,8|0,0:2|0:2,0:0:0:0:
433,271,184332,1,2,1:2:0:0:
216,188,184490,1,2,1:2:0:0:
425,78,184648,1,8,0:2:0:0:
332,224,184806,6,0,B|346:153|346:153|327:118|327:118|342:37,1,182,6|0,1:2|1:2,0:0:0:0:
503,141,185279,2,0,P|470:181|418:176,1,91,10|0,0:2|0:2,0:0:0:0:
254,13,185595,2,0,P|298:14|330:45,1,91,2|0,1:2|1:2,0:0:0:0:
240,260,185911,2,0,P|201:231|203:182,1,91,10|2,0:2|1:2,0:0:0:0:
323,128,186227,5,6,1:2:0:0:
80,212,186385,1,0,0:0:0:0:
137,21,186543,2,0,L|165:121,1,91,8|0,0:2|0:2,0:0:0:0:
185,356,186858,5,6,1:2:0:0:
244,128,187016,1,0,1:2:0:0:
368,341,187174,2,0,P|419:346|453:300,1,91,8|0,0:2|0:2,0:0:0:0:
457,115,187490,6,0,L|448:161,1,45.5,14|0,0:2|0:0,0:0:0:0:
279,276,187648,2,0,L|234:268,2,45.5,0|0|0,1:2|1:2|1:2,0:0:0:0:
474,136,187964,6,0,L|466:182,1,45.5,12|0,0:2|0:0,0:0:0:0:
293,308,188121,1,2,1:2:0:0:
293,308,188200,1,0,1:2:0:0:
293,308,188279,6,0,L|247:301,1,45.5,0|0,1:2|0:0,0:0:0:0:
67,137,188437,2,0,L|79:183,1,45.5,12|0,2:2|0:0,0:0:0:0:
121,378,188595,1,8,2:2:0:0:
326,118,188753,6,0,B|349:135|377:130|377:130|367:202|304:219|304:219|274:163|225:147|225:147|209:36|302:-1|366:45|366:45|406:31|437:46|437:46|469:32,1,614.249981254578,6|0,1:2|0:2,0:0:0:0:
461,140,191279,6,0,B|459:229|384:285|384:285|453:287|483:348,1,286.649991252136,2|0,0:2|0:2,0:0:0:0:
348,365,192543,6,0,B|282:331|282:331|229:352,1,122.849996250916,2|0,0:2|0:0,0:0:0:0:
142,382,193174,2,0,B|134:332|134:332|125:324|125:324|110:262,1,122.849996250916,2|0,0:2|0:0,0:0:0:0:
186,157,193806,6,0,B|248:135|271:206|271:206|289:270|346:235|375:292|375:292|382:231|485:211|411:69|411:69|358:117|303:79,1,614.249981254578,2|0,0:2|0:0,0:0:0:0:
217,26,196332,6,0,P|165:17|113:61,1,122.849996250916,2|0,0:2|0:0,0:0:0:0:
60,172,196964,2,0,B|140:149|140:149|173:178,1,122.849996250916,2|0,0:2|0:0,0:0:0:0:
255,264,197595,6,0,L|263:223,1,40.9499987503052,2|0,0:2|0:0,0:0:0:0:
331,134,197911,2,0,L|343:174,1,40.9499987503052,2|0,0:2|0:0,0:0:0:0:
463,284,198227,2,0,L|416:272,1,40.9499987503052,2|0,0:2|0:0,0:0:0:0:
303,338,198543,2,0,L|342:328,1,40.9499987503052,2|0,0:2|0:0,0:0:0:0:
195,365,198858,6,0,B|206:325|173:290|173:290|174:238|211:210|211:210|231:59|108:18|6:75|0:188|59:234|93:185|93:185|113:168|133:170,1,614.249981254578,2|0,0:2|0:0,0:0:0:0:
309,99,201385,6,0,P|435:125|412:252,1,286.649991252136,2|0,0:2|0:2,0:0:0:0:
341,186,202648,6,0,B|290:207|240:189|223:167|223:167|207:147|163:131|101:168|101:168|120:196,1,286.649991252136,2|0,0:2|0:0,0:0:0:0:
109,358,203911,6,0,B|108:331|133:305|133:305|127:300|127:300|133:305|133:305|155:283|193:276|193:276|210:366|286:369,1,286.649991252136,2|0,0:2|0:0,0:0:0:0:
288,274,205174,6,0,B|359:190|304:80|304:80|305:126|274:155,1,286.649991252136,2|0,0:2|0:0,0:0:0:0:
122,236,206437,6,0,B|159:219|215:234|192:277|252:296|299:270,1,182,8|0,0:2|1:2,0:0:0:0:
506,119,206911,5,8,0:2:0:0:
354,324,207069,1,0,1:2:0:0:
302,71,207227,1,0,1:2:0:0:
511,220,207385,5,8,0:2:0:0:
245,263,207543,1,0,1:2:0:0:
397,32,207700,1,0,1:2:0:0:
505,309,207858,2,0,P|459:311|424:278,1,91,12|0,0:0|0:0,0:0:0:0:
278,60,208174,5,8,0:2:0:0:
493,230,208332,1,8,0:2:0:0:
215,156,208490,5,8,0:2:0:0:
400,107,208648,1,0,1:2:0:0:
400,107,208806,1,0,1:2:0:0:
123,182,208964,5,12,1:2:0:0:
338,278,209121,1,8,3:0:0:0:
338,278,209200,1,8,3:0:0:0:
338,278,209279,1,8,3:0:0:0:
37,205,209437,5,12,1:2:0:0:
289,49,209595,1,8,3:0:0:0:
289,49,209674,1,8,3:0:0:0:
289,49,209753,2,0,L|273:121,1,45.5,0|0,3:2|3:0,3:0:0:0:
200,371,209911,5,12,1:2:0:0:
44,81,210069,1,8,3:0:0:0:
369,192,210227,6,0,B|324:160|266:198|279:222|234:265|174:216,1,200.200006109619,12|0,0:2|0:0,0:0:0:0:
21,166,211332,6,0,B|54:205|99:193|99:193|132:126|202:139,1,200.200006109619,2|0,0:0|0:0,0:0:0:0:
168,287,212121,2,0,L|180:238,2,50.0500015274048,2|0|0,0:0|0:0|0:0,0:0:0:0:
237,361,212595,6,0,L|271:215,1,150.150004582214,2|0,0:0|0:0,0:0:0:0:
341,163,213385,2,0,P|393:166|426:127,1,100.10000305481,2|0,0:0|0:0,0:0:0:0:
387,50,213858,2,0,P|342:47|299:92,1,100.10000305481,2|0,0:0|0:0,0:0:0:0:
250,160,214332,6,0,P|220:159|200:141,1,50.0500015274048,2|0,0:0|0:0,0:0:0:0:
142,92,214648,2,0,L|129:43,2,50.0500015274048,2|0|0,0:0|0:0|0:0,0:0:0:0:
56,99,215121,6,0,L|72:150,1,50.0500015274048,2|0,0:0|0:0,0:0:0:0:
150,202,215437,1,2,0:0:0:0:
150,202,215595,2,0,L|134:262,1,50.0500015274048,2|0,0:0|0:0,0:0:0:0:
72,306,215911,2,0,P|101:340|162:332,1,100.10000305481,2|0,0:0|0:0,0:0:0:0:
222,277,216385,6,0,B|274:250|317:287|306:310|361:343|415:299,1,200.200006109619,2|0,0:0|0:0,0:0:0:0:
481,245,217174,1,2,0:0:0:0:
376,215,217332,1,2,0:0:0:0:
491,263,217490,1,2,0:0:0:0:
357,226,217648,6,0,L|338:127,1,100.10000305481,2|0,0:0|0:0,0:0:0:0:
292,54,218121,2,0,P|264:58|243:78,1,50.0500015274048,2|0,0:0|0:0,0:0:0:0:
183,19,218437,2,0,P|166:41|162:69,1,50.0500015274048,2|0,0:0|0:0,0:0:0:0:
75,57,218753,2,0,P|75:85|91:109,1,50.0500015274048,2|0,0:0|0:0,0:0:0:0:
146,176,219069,6,0,B|225:151|225:151|251:187|300:182,1,150.150004582214,2|0,0:0|0:0,0:0:0:0:
375,134,219700,2,0,P|345:95|293:106,1,100.10000305481,2|0,0:0|0:0,0:0:0:0:
355,232,220174,6,0,P|424:235|466:167,1,150.150004582214,2|0,0:0|0:0,0:0:0:0:
375,134,220806,1,2,0:0:0:0:
296,170,220964,2,0,L|284:122,2,50.0500015274048,2|0|0,0:0|0:0|0:0,0:0:0:0:
271,263,221437,6,0,B|201:289|201:289|122:236,1,150.150004582214,2|0,0:0|0:0,0:0:0:0:
56,197,222069,1,2,0:0:0:0:
56,197,222227,2,0,P|89:153|139:149,1,100.10000305481
125,358,222700,6,0,B|81:344|77:300|77:300|52:336|6:329,1,150.150004582214,2|0,0:0|0:0,0:0:0:0:
170,278,223332,1,2,0:0:0:0:
170,278,223490,2,0,B|218:261|218:261|266:300,1,100.10000305481,2|0,0:0|0:0,0:0:0:0:
324,375,223964,6,0,L|361:264,1,100.10000305481,2|0,0:0|0:0,0:0:0:0:
291,218,224437,1,2,0:0:0:0:
291,218,224595,1,2,0:0:0:0:
356,135,224753,2,0,L|371:185,2,50.0500015274048,2|0|0,0:0|0:0|0:0,0:0:0:0:
462,186,225227,6,0,L|440:256,1,50.0500015274048,2|0,0:0|0:0,0:0:0:0:
375,284,225543,1,2,0:0:0:0:
375,284,225700,2,0,L|391:339,1,50.0500015274048,2|0,0:0|0:0,0:0:0:0:
298,345,226016,1,2,0:0:0:0:
298,345,226174,2,0,B|250:336|250:336|241:340|241:340|191:329,1,100.10000305481,2|0,0:0|0:0,0:0:0:0:
111,363,226648,6,0,B|119:301|87:279|87:279|74:279|74:279|11:228|52:153|52:153|125:148|160:192|155:239|155:239|180:203|218:202,1,477.749985420227,6|0,0:2|0:2,0:2:0:0:
308,304,229174,6,0,P|257:311|224:269,1,91,6|0,1:2|0:2,0:0:0:0:
339,106,229490,1,8,0:2:0:0:
447,266,229648,2,0,L|422:376,1,91,6|0,1:2|0:2,0:0:0:0:
187,202,229964,1,0,1:2:0:0:
423,139,230121,5,10,0:2:0:0:
216,336,230279,1,0,0:0:0:0:
185,67,230437,1,0,1:2:0:0:
358,308,230595,5,12,0:2:0:0:
67,191,230753,1,0,1:2:0:0:
333,50,230911,1,0,1:2:0:0:
121,337,231069,5,10,0:2:0:0:
250,2,231227,1,2,1:2:0:0:
445,289,231385,1,2,1:2:0:0:
96,110,231543,5,14,0:2:0:0:
420,143,232806,6,0,B|371:111|312:130|333:171|270:201|206:149,1,200.200006109619,6|0,1:2|1:2,0:0:0:0:
55,78,233279,1,10,0:2:0:0:
195,276,233437,1,2,0:2:0:0:
269,58,233595,1,2,1:2:0:0:
187,298,233753,2,0,B|141:314|141:314|92:279,1,100.10000305481,0|10,1:2|0:2,0:0:0:0:
284,38,234069,6,0,B|307:136|307:136|305:135|305:135|327:229,1,200.200006109619,6|0,1:2|1:2,0:0:0:0:
220,367,234543,1,10,0:2:0:0:
430,255,234700,1,0,0:2:0:0:
209,173,234858,1,2,1:2:0:0:
449,262,235016,2,0,L|425:367,1,100.10000305481,2|8,1:2|0:2,0:0:0:0:
126,360,235332,6,0,P|154:283|282:306,1,200.200006109619,6|0,1:2|1:2,0:0:0:0:
82,176,235806,1,10,0:2:0:0:
220,367,235964,1,2,0:2:0:0:
252,122,236121,1,2,1:2:0:0:
55,291,236279,1,2,0:2:0:0:
341,253,236437,1,8,0:2:0:0:
134,97,236595,6,0,P|83:74|28:102,1,100.10000305481,6|0,1:2|0:0,0:0:0:0:
229,0,236911,1,2,1:2:0:0:
273,144,237069,2,0,L|246:260,1,100.10000305481,10|0,0:2|0:0,0:0:0:0:
108,356,237385,1,2,1:2:0:0:
341,253,237543,1,2,1:2:0:0:
100,169,237700,1,8,0:2:0:0:
295,362,237858,6,0,P|342:371|385:347,1,100.10000305481,6|0,1:2|0:2,0:0:0:0:
244,273,238174,1,0,1:2:0:0:
439,166,238332,2,0,L|416:286,1,100.10000305481,10|0,0:2|0:2,0:0:0:0:
207,356,238648,1,2,1:2:0:0:
320,113,238806,1,2,1:2:0:0:
422,356,238964,1,10,0:2:0:0:
280,192,239121,6,0,B|240:164|176:190|196:221|136:258|78:222,1,200.200006109619,6|0,1:2|1:2,0:0:0:0:
78,54,239595,2,0,P|117:85|116:139,1,100.10000305481,10|0,0:2|0:2,0:0:0:0:
91,313,239911,5,2,1:2:0:0:
20,128,240069,1,0,0:2:0:0:
172,277,240227,2,0,P|224:287|266:259,1,100.10000305481,10|0,0:2|0:2,0:0:0:0:
208,43,240543,5,6,1:2:0:0:
96,223,240700,1,0,0:2:0:0:
298,130,240858,2,0,L|401:147,1,100.10000305481,10|0,0:2|0:2,0:0:0:0:
306,326,241174,1,2,1:2:0:0:
223,71,241332,1,0,1:2:0:0:
93,303,241490,1,8,0:2:0:0:
403,234,241648,6,0,B|300:217|300:217|302:220|302:220|198:203,1,200.200006109619,6|8,1:2|0:2,0:0:0:0:
190,202,242043,1,8,0:2:0:0:
190,202,242121,1,8,0:2:0:0:
322,61,242279,5,10,0:2:0:0:
350,101,242358,1,10,0:2:0:0:
349,150,242437,1,10,0:2:0:0:
321,189,242516,1,10,0:2:0:0:
305,235,242595,1,10,1:2:0:0:
317,282,242674,1,10,0:2:0:0:
347,315,242753,2,0,P|376:317|405:303,1,50.0500015274048,0|0,1:2|0:0,0:0:0:0:
256,121,242911,6,0,B|208:94|149:138|177:176|108:206|52:165,1,200.200006109619,6|0,1:2|1:2,0:0:0:0:
3,84,243385,5,8,0:2:0:0:
182,248,243543,1,2,1:2:0:0:
191,23,243700,1,2,1:2:0:0:
0,177,243858,2,0,P|14:229|26:283,1,100.10000305481,2|8,1:2|0:2,0:0:0:0:
243,336,244174,6,0,B|291:215|291:215|252:196|227:147,1,200.200006109619,6|0,1:2|1:2,0:0:0:0:
399,293,244648,2,0,P|447:293|479:256,1,100.10000305481,8|2,0:2|0:2,0:0:0:0:
292,39,244964,1,2,1:2:0:0:
175,250,245121,1,2,1:2:0:0:
404,208,245279,1,8,0:2:0:0:
197,31,245437,6,0,B|215:108|215:108|252:133|252:133|267:215,1,200.200006109619,6|0,1:2|1:2,0:0:0:0:
358,322,245911,1,10,0:2:0:0:
405,186,246069,1,2,0:2:0:0:
351,342,246227,2,0,L|245:321,1,100.10000305481,2|2,1:2|1:2,0:0:0:0:
72,237,246543,1,8,0:2:0:0:
210,127,246700,2,0,P|248:160|248:209,1,100.10000305481,6|0,1:2|0:0,0:0:0:0:
121,360,247016,5,0,1:2:0:0:
0,185,247174,2,0,P|46:143|97:149,1,100.10000305481,10|0,0:2|0:2,0:0:0:0:
217,291,247490,1,2,1:2:0:0:
139,62,247648,1,2,1:2:0:0:
139,62,247727,1,2,1:2:0:0:
139,62,247806,1,10,0:2:0:0:
280,225,247964,6,0,B|333:189|376:228|366:247|420:286|476:235,1,200.200006109619,6|0,1:2|1:2,0:0:0:0:
478,89,248437,2,0,P|438:107|424:165,1,100.10000305481,8|0,0:2|0:2,0:0:0:0:
455,344,248753,1,2,1:2:0:0:
507,161,248911,1,2,1:2:0:0:
318,303,249069,1,10,0:2:0:0:
260,66,249227,6,0,P|177:51|135:150,1,200.200006109619,6|0,1:2|1:2,0:0:0:0:
320,325,249700,2,0,B|371:337|371:337|425:290,1,100.10000305481,10|0,0:2|0:2,0:0:0:0:
223,153,250016,2,0,B|210:203|210:203|250:252,1,100.10000305481,2|0,1:2|1:2,0:0:0:0:
456,189,250332,2,0,B|464:136|464:136|425:103,1,100.10000305481,10|0,0:2|0:2,0:0:0:0:
132,47,250648,5,14,0:2:0:0:
182,314,250806,1,0,1:2:0:0:
340,91,250964,1,2,1:2:0:0:
62,225,251121,5,14,0:2:0:0:
332,301,251279,1,0,1:2:0:0:
250,36,251437,1,0,1:2:0:0:
89,326,251595,5,12,0:2:0:0:
384,233,251753,1,0,1:2:0:0:
112,97,251911,1,0,1:2:0:0:
347,322,252069,5,12,0:2:0:0:
206,110,252227,1,0,1:2:0:0:
179,350,252385,1,0,1:2:0:0:
417,145,252543,5,12,0:2:0:0:
129,223,252700,1,12,0:2:0:0:
430,303,252858,5,0,1:2:0:0:
54,208,253016,1,0,1:2:0:0:
282,26,253174,6,0,B|322:14|371:35|377:92|340:130|299:135|261:109|261:109|242:138|201:141,1,286.649991252136,12|0,0:2|0:0,0:0:0:0:
205,146,255700,6,0,B|179:186|186:245|222:224|227:284|202:326,1,182,6|8,1:2|0:2,0:0:0:0:
195,342,256332,2,0,P|154:347|111:316,1,91,2|0,1:2|0:2,0:0:0:0:
54,160,256648,1,10,0:2:0:0:
177,252,256806,2,0,B|260:237|260:237|268:228|268:228|363:211,1,182,6|0,1:2|1:2,0:0:0:0:
413,149,257279,6,0,P|446:185|439:236,1,91,10|0,0:2|0:0,0:0:0:0:
307,124,257595,2,0,P|324:76|366:62,1,91,2|0,1:2|0:2,0:0:0:0:
462,321,257911,2,0,P|410:325|375:291,1,91,10|0,0:2|0:2,0:0:0:0:
162,187,258227,6,0,B|204:162|260:187|239:214|291:241|333:215,1,182,6|8,1:2|0:2,0:0:0:0:
328,217,258858,5,2,1:2:0:0:
473,141,259016,1,0,1:2:0:0:
313,45,259174,2,0,L|336:136,1,91,10|0,0:2|0:2,0:0:0:0:
471,273,259490,6,0,L|501:180,1,91,2|2,1:2|1:2,0:0:0:0:
416,56,259806,5,8,0:0:0:0:
315,301,259964,1,0,1:2:0:0:
300,24,260121,5,12,0:2:0:0:
401,252,260279,1,8,0:2:0:0:
231,145,260437,1,0,1:2:0:0:
443,68,260595,1,2,1:2:0:0:
264,227,260753,6,0,B|217:259|169:223|181:207|130:170|80:208,1,182,6|0,1:2|0:0,0:0:0:0:
14,279,261227,1,0,1:2:0:0:
141,373,261385,2,0,L|124:283,1,91,6|0,1:2|0:2,0:0:0:0:
90,111,261700,1,0,1:2:0:0:
3,300,261858,5,6,1:2:0:0:
256,192,261937,12,0,264543,0:2:0:0:
