osu file format v14

[General]
AudioFilename: audio.mp3
AudioLeadIn: 0
PreviewTime: 210385
Countdown: 0
SampleSet: Soft
StackLeniency: 0.7
Mode: 0
LetterboxInBreaks: 0
WidescreenStoryboard: 1

[Editor]
Bookmarks: 38435
DistanceSpacing: 0.6
BeatDivisor: 3
GridSize: 32
TimelineZoom: 2.399998

[Metadata]
Title:Trust in you
TitleUnicode:Trust in you
Artist:sweet ARMS
ArtistUnicode:sweet ARMS
Creator:Azrealy
Version:Nagi's Insane
Source:デート・ア・ライブⅡ
Tags:date a live 2 date-a-live opening full j-pop anime japanese kurumi tokisaki 時崎狂三 Cyndere Nagi Hisakawa jpop pop full version Nomizu Iori 野水伊織 Togashi Misuzu 富樫美鈴 Kaori Sadohara 佐土原かお Misato 味里
BeatmapID:3109561
BeatmapSetID:1510821

[Difficulty]
HPDrainRate:4.8
CircleSize:3.8
OverallDifficulty:8.2
ApproachRate:9
SliderMultiplier:1.6
SliderTickRate:1

[Events]
//Background and Video events
0,0,"bg.jpg",0,0
//Break Periods
2,104321,112964
2,211532,226016
//Storyboard Layer 0 (Background)
//Storyboard Layer 1 (Fail)
//Storyboard Layer 2 (Pass)
//Storyboard Layer 3 (Foreground)
//Storyboard Layer 4 (Overlay)
//Storyboard Sound Samples

[TimingPoints]
543,315.789473684211,4,2,1,50,1,0
15069,-100,4,2,1,50,0,0
15700,-125,4,2,1,70,0,0
16806,-166.666666666667,4,2,1,70,0,0
17595,-142.857142857143,4,2,1,70,0,0
20753,-166.666666666667,4,2,1,70,0,0
21385,-142.857142857143,4,2,1,70,0,0
25806,-90.9090909090909,4,2,1,80,0,0
27937,-90.9090909090909,4,2,1,80,0,0
28016,-90.9090909090909,4,2,1,80,0,0
33621,-90.9090909090909,4,2,1,80,0,0
33700,-90.9090909090909,4,2,1,80,0,0
37253,-90.9090909090909,4,2,1,5,0,0
37332,-90.9090909090909,4,2,1,80,0,0
38437,-111.111111111111,4,2,1,60,0,0
48541,-100,4,2,1,70,0,0
58648,-166.666666666667,4,2,1,60,0,0
63700,-142.857142857143,4,2,1,70,0,0
66227,-100,4,2,1,80,0,0
68595,-83.3333333333333,4,2,1,90,0,1
88964,-166.666666666667,4,2,1,90,0,0
90069,-166.666666666667,4,2,1,40,0,0
91490,-90.9090909090909,4,2,1,80,0,0
93621,-90.9090909090909,4,2,1,80,0,0
93700,-90.9090909090909,4,2,1,80,0,0
102937,-90.9090909090909,4,2,1,5,0,0
103016,-90.9090909090909,4,2,1,80,0,0
103964,-90.9090909090909,4,2,1,20,0,0
104121,-166.666666666667,4,2,1,60,0,0
112964,-200,4,2,1,40,0,0
113911,-166.666666666667,4,2,1,40,0,0
114227,-100,4,2,1,60,0,0
124332,-166.666666666667,4,2,1,60,0,0
128595,-166.666666666667,4,2,1,5,0,0
128753,-166.666666666667,4,2,1,60,0,0
129385,-142.857142857143,4,2,1,70,0,0
131911,-100,4,2,1,80,0,0
134279,-83.3333333333333,4,2,1,90,0,1
154648,-166.666666666667,4,2,1,80,0,0
155595,-166.666666666667,4,2,1,60,0,0
155753,-166.666666666667,4,2,1,40,0,0
155911,-166.666666666667,4,2,1,70,0,0
156858,-125,4,2,1,70,0,0
157016,-142.857142857143,4,2,1,70,0,0
158437,-125,4,2,1,70,0,0
159700,-142.857142857143,4,2,1,70,0,0
160964,-99.9999999999999,4,2,1,70,0,0
161200,-99.9999999999999,4,2,1,5,0,0
161279,-99.9999999999999,4,2,1,70,0,0
162069,-125,4,2,1,70,0,0
162543,-99.9999999999999,4,2,1,70,0,0
166016,-100,4,2,1,70,0,0
166253,-100,4,2,1,5,0,0
166332,-100,4,2,1,70,0,0
167911,-200,4,2,1,70,0,0
168385,-100,4,2,1,80,0,0
176358,-100,4,2,1,80,0,0
176437,-100,4,2,1,80,0,0
177464,-100,4,2,1,5,0,0
177543,-100,4,2,1,80,0,0
188753,-200,4,2,1,40,0,0
206437,-83.3333333333333,4,2,1,80,0,1
210227,-200,4,2,1,80,0,0
210858,-200,4,2,1,40,0,0
211332,-166.666666666667,4,2,1,40,0,0
226648,-250,4,2,1,50,0,0
229174,-90.9090909090909,4,2,1,80,0,0
231543,-1000,4,2,1,80,0,0
232332,-1000,4,2,1,80,0,0
232806,-83.3333333333333,4,2,1,90,0,1
253174,-166.666666666667,4,2,1,90,0,0
254279,-166.666666666667,4,2,1,40,0,0
255543,-166.666666666667,4,2,1,40,0,0
255700,-90.9090909090909,4,2,1,80,0,0
257832,-90.9090909090909,4,2,1,80,0,0
257911,-90.9090909090909,4,2,1,80,0,0
261858,-200,4,2,1,70,0,0
264543,-200,4,2,1,5,0,0

[Colours]
Combo1 : 251,137,121
Combo2 : 249,70,70
Combo3 : 247,179,134
Combo4 : 185,9,27

[HitObjects]
256,192,8121,12,2,15069,0:2:0:0:
53,316,15700,6,0,B|106:340|170:315|140:279|217:232|289:276,1,256,6|2,1:2|0:0,0:0:0:0:
470,350,16806,2,0,P|414:297|422:218,1,143.999995605469,6|0,1:2|0:0,0:0:0:0:
360,115,17595,2,0,P|354:159|302:205,1,111.999996582031,2|2,0:2|0:2,0:0:0:0:
182,110,18227,6,0,B|171:81|204:51|204:51|263:61|276:115,1,167.999994873047,6|0,1:2|0:2,0:0:0:0:
288,283,18858,2,0,P|238:259|169:276,1,111.999996582031,2|2,0:2|0:2,0:0:0:0:
97,324,19490,6,0,B|88:261|88:261|101:221|101:221|88:158,1,167.999994873047,6|8,1:2|0:2,0:0:0:0:
18,57,20121,5,10,0:2:0:0:
188,170,20332,5,0,1:2:0:0:
203,1,20543,5,0,1:2:0:0:
52,158,20753,6,0,B|44:233|44:233|94:300,1,143.999995605469,6|0,1:2|0:2,0:0:0:0:
242,365,21385,1,10,0:2:0:0:
173,286,21543,1,2,0:2:0:0:
232,201,21700,1,2,0:2:0:0:
320,301,21858,5,6,1:2:0:0:
320,301,22227,5,10,2:0:0:0:
320,301,22332,2,0,L|334:244,2,37.3333321940105,0|0|0,1:2|1:2|1:2,1:2:0:0:
459,247,22648,5,10,0:2:0:0:
257,210,22858,5,8,0:2:0:0:
388,364,23069,5,8,0:2:0:0:
481,151,23279,6,0,P|407:157|369:258,1,167.999994873047,6|0,1:2|1:2,0:0:0:0:
241,312,23911,2,0,P|266:267|246:194,1,111.999996582031,14|2,0:2|0:2,0:0:0:0:
82,86,24543,5,6,0:2:0:0:
36,194,24700,1,0,0:0:0:0:
190,67,24858,1,6,0:2:0:0:
146,174,25016,1,0,0:0:0:0:
300,45,25174,1,6,0:2:0:0:
261,156,25332,1,2,1:2:0:0:
422,27,25490,5,2,1:2:0:0:
408,63,25569,1,2,1:2:0:0:
394,100,25648,1,2,1:2:0:0:
381,137,25727,1,2,1:2:0:0:
364,178,25806,6,0,P|411:235|509:242,2,176.000005371094,6|8|2,1:2|0:2|1:2,0:0:0:0:
223,75,26595,1,0,1:2:0:0:
90,166,26753,1,8,0:2:0:0:
234,248,26911,2,0,P|271:170|241:83,1,176.000005371094,6|0,1:2|1:2,0:0:0:0:
126,4,27385,6,0,P|102:42|103:83,1,88.000002685547,8|0,0:2|0:2,0:0:0:0:
227,266,27700,2,0,B|303:232|303:232|386:239,1,132.00000402832,2|0,1:2|0:2,0:0:0:0:
383,311,28016,2,0,B|331:336|331:336|287:335,1,88.000002685547,10|0,0:2|0:2,0:0:0:0:
105,365,28332,6,0,B|69:320|69:320|96:173,1,176.000005371094,6|8,1:2|0:2,0:0:0:0:
197,89,28806,1,0,0:2:0:0:
281,232,28964,2,0,P|228:223|189:204,1,88.000002685547,2|0,1:2|1:2,0:0:0:0:
113,67,29279,2,0,P|175:77|223:109,1,88.000002685547,10|0,0:2|0:2,0:0:0:0:
350,274,29595,6,0,P|459:257|527:196,1,176.000005371094,6|8,1:2|0:2,0:0:0:0:
512,91,30069,1,2,0:2:0:0:
377,48,30227,2,0,P|382:91|399:132,1,88.000002685547,2|0,1:2|1:2,0:0:0:0:
329,310,30543,5,10,0:2:0:0:
294,302,30621,1,2,1:2:0:0:
259,296,30700,1,2,1:2:0:0:
223,289,30779,1,2,1:2:0:0:
178,282,30858,6,0,P|71:285|10:335,2,176.000005371094,6|8|2,1:2|0:2|1:2,0:0:0:0:
313,161,31648,1,0,1:2:0:0:
135,187,31806,1,8,0:2:0:0:
310,266,31964,2,0,P|402:230|371:84,1,264.000008056641,6|8,1:2|0:2,0:0:0:0:
76,229,32753,6,0,L|178:207,1,88.000002685547,2|0,1:2|1:2,0:0:0:0:
313,161,33069,2,0,L|223:133,1,88.000002685547,10|0,0:2|0:2,0:0:0:0:
38,22,33385,6,0,B|6:87|6:87|37:175,1,132.00000402832,6|0,1:2|0:2,0:0:0:0:
93,208,33700,2,0,B|120:168|120:168|114:106,1,88.000002685547,8|0,0:2|0:2,0:0:0:0:
202,19,34016,1,2,1:2:0:0:
309,123,34174,1,0,1:2:0:0:
224,252,34332,2,0,P|198:214|200:158,1,88.000002685547,10|0,0:2|0:2,0:0:0:0:
395,299,34648,5,14,0:2:0:0:
467,250,34806,2,0,P|480:165|439:88,1,176.000005371094,0|8,1:2|0:2,0:0:0:0:
244,13,35279,5,6,1:2:0:0:
244,13,35358,1,2,1:2:0:0:
244,13,35437,2,0,L|236:94,1,44.0000013427735,2|2,1:2|1:2,0:0:0:0:
267,154,35595,1,10,1:2:0:0:
267,154,35674,1,2,1:2:0:0:
267,154,35753,2,0,L|266:230,1,44.0000013427735,2|2,1:2|1:2,1:2:0:0:
215,288,35911,5,14,1:2:0:0:
115,246,36069,1,14,0:2:0:0:
26,208,36227,1,14,0:2:0:0:
26,208,36543,1,14,0:2:0:0:
203,128,36700,1,10,0:2:0:0:
114,169,36858,1,2,1:2:0:0:
292,85,37016,2,0,P|248:46|122:29,1,176.000005371094,6|8,1:2|0:2,0:0:0:0:
287,178,37490,5,6,1:2:0:0:
277,332,38437,6,0,L|271:244,1,71.9999978027344,6|0,1:2|0:2,0:0:0:0:
162,157,38753,2,0,L|152:238,1,71.9999978027344,8|0,0:2|0:2,0:0:0:0:
69,320,39069,1,2,1:2:0:0:
69,320,39227,1,2,0:2:0:0:
11,189,39385,1,10,0:2:0:0:
11,189,39543,1,2,0:2:0:0:
103,71,39700,6,0,P|157:59|253:97,1,143.999995605469,2|8,1:2|0:2,0:0:0:0:
169,239,40174,2,0,P|167:197|189:147,1,71.9999978027344,2|0,0:2|1:2,0:0:0:0:
326,118,40490,1,2,1:2:0:0:
344,278,40648,2,0,P|302:280|252:258,1,71.9999978027344,8|0,0:2|0:2,0:0:0:0:
146,231,40964,5,0,1:2:0:0:
289,48,41279,1,8,0:2:0:0:
512,193,41595,5,2,1:2:0:0:
512,193,41753,1,2,0:2:0:0:
388,235,41911,1,10,0:2:0:0:
388,235,42069,1,2,0:2:0:0:
249,212,42227,6,0,B|175:199|175:199|102:136,1,143.999995605469,2|8,1:2|0:2,0:0:0:0:
44,17,42700,2,0,B|64:89|64:89|32:173,1,143.999995605469,2|0,0:2|1:2,0:0:0:0:
0,292,43174,1,8,0:2:0:0:
0,292,43490,6,0,L|96:278,1,71.9999978027344,2|0,1:2|0:0,0:0:0:0:
184,314,43806,1,8,0:2:0:0:
116,183,43964,2,0,L|212:196,1,71.9999978027344,2|0,0:2|0:0,0:0:0:0:
289,206,44280,1,0,0:2:0:0:
278,330,44437,2,0,L|357:320,1,71.9999978027344,10|0,0:2|0:2,0:0:0:0:
467,298,44753,6,0,P|481:213|426:150,1,143.999995605469,2|8,1:2|0:2,0:0:0:0:
388,63,45227,2,0,P|356:88|341:131,1,71.9999978027344,2|0,0:2|0:0,0:0:0:0:
365,214,45543,1,0,1:2:0:0:
230,102,45700,2,0,P|230:167|245:193,1,71.9999978027344,10|0,0:2|0:0,0:0:0:0:
273,279,46016,5,0,1:2:0:0:
32,52,46332,2,0,L|120:44,1,71.9999978027344,10|0,0:2|0:2,0:0:0:0:
199,139,46648,1,2,1:2:0:0:
199,139,46806,1,0,1:2:0:0:
82,221,46964,2,0,L|68:125,1,71.9999978027344,10|0,0:2|0:2,0:0:0:0:
187,33,47279,6,0,B|242:37|242:37|270:57|270:57|338:62,1,143.999995605469,2|10,1:2|0:2,0:0:0:0:
458,142,47753,2,0,L|366:132,1,71.9999978027344,2|0,0:2|1:2,0:0:0:0:
287,149,48069,1,2,1:2:0:0:
241,247,48227,1,10,0:2:0:0:
300,332,48385,1,10,0:2:0:0:
505,287,48543,6,0,P|509:224|483:186,1,80,6|0,1:2|0:2,0:0:0:0:
354,213,48858,2,0,P|382:252|444:259,1,80,8|0,0:2|0:2,0:0:0:0:
496,121,49174,2,0,P|452:135|426:168,1,80,2|2,1:2|0:2,0:0:0:0:
300,241,49490,1,10,0:2:0:0:
305,100,49648,1,2,0:2:0:0:
300,241,49806,6,0,P|261:247|222:239,1,80,2|0,1:2|0:2,0:0:0:0:
74,264,50121,1,10,0:2:0:0:
74,264,50279,2,0,P|70:213|83:176,1,80,2|2,0:2|1:2,0:0:0:0:
270,95,50595,1,2,1:2:0:0:
110,191,50753,1,10,0:2:0:0:
148,60,50911,1,2,0:2:0:0:
260,213,51069,6,0,L|248:308,1,80,2|0,1:2|0:2,0:0:0:0:
406,113,51385,2,0,L|426:203,1,80,10|0,0:2|0:2,0:0:0:0:
389,358,51700,1,2,1:2:0:0:
354,258,51858,1,2,0:2:0:0:
480,347,52016,1,10,0:2:0:0:
502,239,52174,1,2,0:2:0:0:
363,364,52332,6,0,L|283:353,1,80,2|0,1:2|0:2,0:0:0:0:
105,289,52648,1,10,0:2:0:0:
105,289,52806,2,0,L|202:270,1,80,0|2,0:2|1:2,0:0:0:0:
334,167,53121,2,0,L|316:263,1,80,2|10,1:2|0:2,0:0:0:0:
240,343,53437,1,2,0:2:0:0:
240,343,53595,6,0,P|266:264|212:186,1,160,2|8,1:2|0:2,0:0:0:0:
157,130,54069,2,0,P|128:185|158:274,1,160,2|0,0:2|0:2,0:0:0:0:
319,357,54543,2,0,L|412:348,1,80,10|0,0:2|0:2,0:0:0:0:
498,270,54858,5,2,1:2:0:0:
498,270,55016,1,2,0:2:0:0:
428,182,55174,2,0,P|384:169|337:186,1,80,10|0,0:2|0:2,0:0:0:0:
259,278,55490,2,0,P|213:280|168:247,1,80,2|0,1:2|1:2,0:0:0:0:
35,163,55806,1,10,0:2:0:0:
35,163,56121,6,0,B|120:135|99:205|216:159,1,160,2|8,1:2|0:2,0:0:0:0:
273,123,56595,1,0,0:2:0:0:
171,20,56753,2,0,P|146:53|145:99,1,80,2|0,1:2|1:2,0:0:0:0:
261,233,57069,2,0,P|284:194|276:145,1,80,10|0,0:2|0:2,0:0:0:0:
52,72,57385,6,0,P|46:115|92:167,1,80,2|0,1:2|0:2,0:0:0:0:
374,163,57700,2,0,P|367:119|330:81,1,80,10|0,0:2|1:2,0:0:0:0:
148,280,58016,5,10,0:2:0:0:
328,323,58174,1,0,1:2:0:0:
221,343,58332,1,2,1:2:0:0:
429,280,58490,1,0,1:2:0:0:
301,232,58648,5,10,0:2:0:0:
479,363,58806,1,8,0:2:0:0:
350,156,59121,5,10,0:2:0:0:
492,350,59278,1,8,0:2:0:0:
434,121,59595,5,10,0:2:0:0:
505,336,59753,2,0,B|452:360|390:340|379:282|379:282|335:243|291:253|291:253|293:296|252:329,1,335.999989746094,12|0,0:2|0:2,0:0:0:0:
39,275,61174,5,10,0:2:0:0:
227,182,61332,1,8,0:2:0:0:
100,330,61648,5,10,0:2:0:0:
191,107,61806,1,8,0:2:0:0:
185,341,62121,5,8,0:2:0:0:
118,84,62279,2,0,B|65:112|51:147|51:147|88:191|67:247,1,191.999994140625,12|0,0:2|0:0,0:0:0:0:
42,359,63069,5,2,0:0:0:0:
0,277,63227,1,2,0:0:0:0:
31,195,63385,1,2,0:0:0:0:
109,161,63543,1,2,0:0:0:0:
214,296,63700,6,0,P|154:308|100:273,1,111.999996582031,6|0,1:2|0:2,0:0:0:0:
408,203,64332,1,8,0:2:0:0:
408,203,64648,1,2,1:2:0:0:
347,126,64806,2,0,P|287:107|227:137,1,111.999996582031,6|0,1:2|1:2,0:0:0:0:
175,197,65279,5,6,0:2:0:0:
391,345,65595,2,0,L|408:216,1,111.999996582031,10|2,0:2|0:2,0:0:0:0:
329,25,66227,6,0,B|235:0|262:63|156:36,1,160,6|8,1:2|0:2,0:0:0:0:
2,166,66700,2,0,P|93:174|159:227,1,160,6|8,1:2|0:2,0:0:0:0:
176,298,67174,1,8,0:2:0:0:
416,373,67332,2,0,P|414:288|420:195,1,160,4|8,1:2|0:2,0:0:0:0:
464,43,67806,1,8,0:2:0:0:
464,43,68595,6,0,P|415:113|292:96,1,191.999994140625,6|0,1:2|1:2,0:0:0:0:
100,63,69069,1,10,0:2:0:0:
207,178,69227,1,2,0:2:0:0:
285,12,69385,2,0,L|181:3,1,95.9999970703126,2|0,1:2|1:2,0:0:0:0:
88,185,69700,1,10,0:2:0:0:
237,275,69858,6,0,B|279:267|300:232|300:232|422:262,1,191.999994140625,6|0,1:2|1:2,0:0:0:0:
135,355,70332,2,0,P|116:302|129:258,1,95.9999970703126,10|0,0:2|0:2,0:0:0:0:
226,81,70648,1,2,1:2:0:0:
293,218,70806,1,2,1:2:0:0:
135,72,70964,1,8,0:2:0:0:
31,243,71121,6,0,B|142:281|142:281|226:255,1,191.999994140625,6|0,1:2|1:2,0:0:0:0:
379,165,71595,1,10,0:2:0:0:
244,144,71753,1,2,0:2:0:0:
327,308,71911,1,2,1:2:0:0:
475,221,72069,2,0,L|485:123,1,95.9999970703126,2|8,0:2|0:2,0:0:0:0:
366,22,72385,6,0,B|326:111|414:118|362:221,1,191.999994140625,6|2,1:2|1:2,0:0:0:0:
223,303,72858,2,0,P|211:244|220:201,1,95.9999970703126,10|0,0:2|0:2,0:0:0:0:
308,86,73174,1,2,1:2:0:0:
150,59,73332,1,2,1:2:0:0:
150,59,73411,1,2,1:2:0:0:
150,59,73490,1,10,0:2:0:0:
375,165,73648,6,0,P|397:253|382:354,1,191.999994140625,6|2,1:2|1:2,0:0:0:0:
225,156,74121,1,10,0:2:0:0:
225,156,74437,2,0,L|235:46,2,95.9999970703126,2|2|10,1:2|1:2|0:2,0:0:0:0:
176,239,74911,6,0,P|91:193|131:120,1,191.999994140625,6|0,1:2|1:2,0:0:0:0:
294,248,75385,2,0,P|295:309|272:335,1,95.9999970703126,10|0,0:2|0:2,0:0:0:0:
106,290,75700,2,0,P|88:247|127:171,1,95.9999970703126,2|2,1:2|1:2,0:0:0:0:
279,50,76016,1,10,0:2:0:0:
220,175,76174,1,0,0:2:0:0:
54,17,76332,6,0,P|36:109|57:216,1,191.999994140625,6|10,1:2|0:2,0:0:0:0:
53,205,76964,1,2,1:2:0:0:
234,303,77121,1,0,1:2:0:0:
46,370,77279,1,8,0:2:0:0:
176,208,77437,6,0,B|248:175|248:175|286:205|361:214,1,191.999994140625,6|8,1:2|0:2,0:0:0:0:
369,204,77832,1,8,0:2:0:0:
387,194,77911,1,8,0:2:0:0:
443,18,78069,5,10,0:2:0:0:
429,30,78148,1,10,0:2:0:0:
416,44,78227,2,0,L|405:106,1,47.9999985351563,10|10,0:2|0:2,0:0:0:0:
504,194,78385,2,0,L|490:90,1,95.9999970703126,10|0,0:2|1:2,0:0:0:0:
293,78,78700,6,0,B|265:191|265:191|290:292,1,191.999994140625,6|0,1:2|1:2,0:0:0:0:
456,331,79174,1,8,0:2:0:0:
362,223,79332,1,2,1:2:0:0:
236,357,79490,2,0,L|120:371,1,95.9999970703126,2|2,1:2|1:2,0:0:0:0:
29,261,79806,1,8,0:2:0:0:
322,307,79964,6,0,B|287:252|237:247|239:266|181:278|142:208,1,191.999994140625,6|0,1:2|1:2,0:0:0:0:
156,76,80437,2,0,P|205:97|226:148,1,95.9999970703126,8|2,0:2|0:2,0:0:0:0:
0,170,80753,1,2,1:2:0:0:
63,58,80911,1,2,1:2:0:0:
194,245,81069,1,8,0:2:0:0:
55,278,81227,6,0,P|74:214|201:157,1,191.999994140625,6|0,1:2|1:2,0:0:0:0:
369,304,81700,1,10,0:2:0:0:
256,338,81858,1,2,0:2:0:0:
339,179,82016,1,2,1:2:0:0:
470,274,82174,2,0,L|485:376,1,95.9999970703126,2|8,1:2|0:2,0:0:0:0:
248,204,82490,6,0,B|256:155|256:155|304:71|304:71|306:23,1,191.999994140625,6|0,1:2|1:2,0:0:0:0:
116,1,82964,2,0,P|102:56|137:108,1,95.9999970703126,10|0,0:2|0:2,0:0:0:0:
212,165,83279,1,2,1:2:0:0:
421,130,83437,5,2,1:2:0:0:
445,100,83516,1,0,1:0:0:0:
450,63,83595,1,10,0:2:0:0:
431,29,83674,1,0,1:0:0:0:
396,11,83753,6,0,P|319:102|341:172,1,191.999994140625,6|0,1:2|1:2,0:0:0:0:
468,304,84227,1,8,0:2:0:0:
468,304,84543,2,0,L|362:327,2,95.9999970703126,2|2|10,1:2|1:2|0:2,0:0:0:0:
253,380,85016,6,0,B|145:361|145:361|127:317|63:288,1,191.999994140625,6|0,1:2|1:2,0:0:0:0:
13,200,85490,2,0,P|63:192|101:161,1,95.9999970703126,10|0,0:2|0:2,0:0:0:0:
176,16,85806,2,0,P|168:64|188:113,1,95.9999970703126,2|0,1:2|1:2,0:0:0:0:
355,123,86121,2,0,P|298:135|267:168,1,95.9999970703126,10|0,0:2|1:2,0:0:0:0:
255,264,86437,5,14,0:2:0:0:
93,140,86595,1,0,1:2:0:0:
284,57,86753,1,2,1:2:0:0:
156,229,86911,5,14,0:2:0:0:
181,62,87069,1,0,1:2:0:0:
310,177,87227,1,0,1:2:0:0:
170,144,87385,5,12,0:2:0:0:
247,119,87543,1,0,1:2:0:0:
232,201,87700,1,0,1:2:0:0:
181,62,87858,5,12,0:2:0:0:
313,182,88016,1,0,1:2:0:0:
156,229,88174,1,0,1:2:0:0:
284,57,88332,5,12,0:2:0:0:
256,268,88490,1,12,0:2:0:0:
96,139,88648,2,0,L|165:131,1,47.9999985351563,0|0,1:2|0:0,0:0:0:0:
305,79,88806,2,0,L|229:71,1,47.9999985351563,0|0,1:2|0:0,0:0:0:0:
153,14,88964,6,0,P|199:72|116:291,1,335.999989746094,12|0,0:2|0:2,0:0:0:0:
345,3,91490,6,0,P|306:109|326:193,1,176.000005371094,6|8,1:2|0:2,0:0:0:0:
430,342,92121,1,2,1:2:0:0:
297,183,92279,1,0,0:2:0:0:
439,211,92437,1,8,0:2:0:0:
257,343,92595,2,0,P|165:287|124:209,1,176.000005371094,6|0,1:2|1:2,0:0:0:0:
116,129,93069,1,8,0:2:0:0:
367,115,93385,6,0,B|388:166|388:166|356:261,1,132.00000402832,2|0,1:2|0:0,0:0:0:0:
301,296,93700,2,0,B|280:266|280:266|277:207,1,88.000002685547,10|0,0:2|0:2,0:0:0:0:
174,52,94016,2,0,P|81:41|1:72,2,176.000005371094,6|8|2,1:2|0:2|1:2,0:0:0:0:
244,130,94805,1,0,1:2:0:0:
330,68,94964,2,0,L|420:56,1,88.000002685547,10|0,0:2|0:2,0:0:0:0:
512,8,95279,6,0,B|482:124|482:124|512:211,1,176.000005371094,6|8,1:2|0:2,0:0:0:0:
476,348,95753,1,2,1:2:0:0:
476,348,95832,1,2,1:2:0:0:
476,348,95911,2,0,P|441:306|386:288,1,88.000002685547,6|0,1:2|1:2,0:0:0:0:
210,186,96227,1,8,0:2:0:0:
210,186,96543,6,0,P|296:205|395:159,1,176.000005371094,6|8,1:2|0:2,0:0:0:0:
182,305,97174,2,0,P|128:325|62:316,1,88.000002685547,2|0,1:2|0:2,0:0:0:0:
18,253,97490,1,10,0:2:0:0:
176,69,97648,2,0,P|167:156|118:229,1,176.000005371094,6|0,1:2|1:2,0:0:0:0:
2,337,98121,2,0,P|8:274|28:241,1,88.000002685547,10|0,0:2|0:2,0:0:0:0:
185,306,98437,2,0,P|145:224|150:130,1,176.000005371094,2|10,1:2|0:2,0:0:0:0:
429,259,99069,6,0,B|345:292|334:220|238:248,2,176.000005371094,6|8|2,1:2|0:2|1:2,0:0:0:0:
500,176,99858,1,0,1:2:0:0:
400,89,100016,2,0,P|378:150|378:192,1,88.000002685547,10|0,0:2|0:2,0:0:0:0:
282,368,100332,6,0,P|288:309|274:262,1,88.000002685547,2|0,1:2|0:2,0:0:0:0:
214,74,100648,2,0,P|173:89|139:116,1,88.000002685547,10|0,0:2|0:2,0:0:0:0:
347,200,100964,2,0,P|315:170|272:157,1,88.000002685547,2|0,1:2|1:2,0:0:0:0:
39,140,101279,2,0,P|33:198|47:246,1,88.000002685547,14|0,0:2|0:0,0:0:0:0:
119,329,101595,5,14,0:2:0:0:
272,244,101753,1,12,0:2:0:0:
130,155,101911,1,12,0:2:0:0:
130,155,102227,5,12,0:2:0:0:
170,236,102385,1,10,0:2:0:0:
213,325,102543,1,0,1:2:0:0:
87,67,102700,6,0,L|273:78,1,176.000005371094,4|8,1:2|0:2,0:0:0:0:
284,82,103095,1,0,1:0:0:0:
302,90,103174,1,4,1:2:0:0:
412,344,103490,2,0,B|388:297|388:259|388:259|415:241|437:210|437:210|406:188|414:149|414:149|422:122|399:99|399:99|367:72|395:17,1,352.000010742188,10|6,0:2|1:2,0:0:0:0:
441,34,114227,6,0,P|458:76|448:120,1,80,6|0,1:2|0:2,0:0:0:0:
349,189,114543,2,0,P|338:143|351:103,1,80,10|0,0:2|0:2,0:0:0:0:
428,229,114858,1,2,1:2:0:0:
259,190,115016,1,2,0:2:0:0:
355,76,115174,6,0,L|454:80,2,53.3333333333333,8|2|2,0:2|0:2|0:2,0:0:0:0:
246,26,115490,2,0,L|263:115,1,80,2|0,1:2|0:0,0:0:0:0:
200,255,115806,1,10,0:2:0:0:
67,159,115964,2,0,P|36:244|50:310,1,160,2|0,0:2|0:2,0:0:0:0:
180,348,116437,6,0,L|246:351,2,53.3333333333333,10|2|2,0:2|0:2|0:2,0:0:0:0:
128,253,116753,2,0,L|13:237,1,80,2|0,1:2|0:0,0:0:0:0:
28,125,117069,5,10,0:2:0:0:
28,125,117174,2,0,P|58:120|95:130,1,53.3333333333333,2|0,0:2|0:0,0:0:0:0:
163,93,117385,1,2,1:2:0:0:
163,93,117490,2,0,P|203:108|227:125,1,53.3333333333333,2|2,0:2|0:2,0:0:0:0:
299,111,117700,1,10,0:2:0:0:
299,111,117806,2,0,P|325:134|344:162,1,53.3333333333333,2|2,0:2|0:2,0:0:0:0:
391,227,118016,6,0,P|429:205|476:158,1,80,2|0,1:2|0:2,0:0:0:0:
403,93,118332,1,10,0:2:0:0:
474,283,118490,2,0,P|493:201|473:101,1,160,2|0,1:2|1:2,0:0:0:0:
315,31,118964,2,0,P|304:70|303:119,1,80,10|0,0:2|0:2,0:0:0:0:
328,277,119279,6,0,P|245:279|134:284,1,160,2|8,1:2|0:2,0:0:0:0:
15,248,119753,2,0,P|89:246|190:240,1,160,2|0,0:2|0:2,0:0:0:0:
348,175,120227,6,0,L|337:107,2,53.3333333333333,10|2|2,0:2|0:2|0:2,0:0:0:0:
290,257,120543,2,0,L|271:353,1,80,2|0,1:2|0:2,0:0:0:0:
421,268,120858,5,10,1:2:0:0:
421,268,120937,1,2,1:2:0:0:
421,268,121016,2,0,L|367:259,1,40,2|2,1:2|1:2,0:0:0:0:
294,347,121174,1,2,1:2:0:0:
294,347,121253,1,2,1:2:0:0:
294,347,121332,2,0,L|368:335,1,40,2|2,1:2|1:2,0:0:0:0:
438,249,121490,2,0,L|448:204,3,40,10|2|2|2,1:2|1:2|1:2|1:2,0:0:0:0:
450,170,121806,6,0,P|363:173|294:118,1,160,2|8,1:2|0:2,0:0:0:0:
233,26,122279,1,0,0:2:0:0:
233,26,122437,2,0,P|231:79|212:122,1,80,0|0,1:2|1:2,0:0:0:0:
136,212,122753,2,0,P|112:172|107:136,1,80,8|0,0:2|1:2,0:0:0:0:
12,33,123069,6,0,L|112:16,1,80,2|0,1:2|0:2,0:0:0:0:
18,151,123385,1,10,0:2:0:0:
155,77,123543,1,0,1:2:0:0:
303,190,123700,2,0,L|219:174,1,80,10|0,0:2|1:2,0:0:0:0:
364,262,124016,1,2,1:2:0:0:
166,240,124174,1,0,1:2:0:0:
255,344,124332,5,10,0:2:0:0:
97,192,124490,1,8,0:2:0:0:
309,275,124806,5,10,0:2:0:0:
83,211,124964,1,8,0:2:0:0:
320,190,125279,5,10,0:2:0:0:
65,241,125437,2,0,B|67:318|138:319|138:319|164:259|205:245|205:245|235:269|274:279|311:275,1,335.999989746094,12|0,0:2|0:2,0:0:0:0:
412,78,126858,5,10,0:2:0:0:
306,271,127016,1,8,0:2:0:0:
468,145,127332,5,10,0:2:0:0:
243,210,127490,1,8,0:2:0:0:
471,232,127806,5,10,0:2:0:0:
211,130,127964,2,0,B|201:77|281:30|281:30|267:64|280:94,1,191.999994140625,12|0,0:2|0:0,0:0:0:0:
199,283,128753,5,2,0:0:0:0:
112,266,128911,1,2,0:0:0:0:
65,189,129069,1,2,0:0:0:0:
97,102,129227,1,2,0:0:0:0:
310,157,129385,6,0,P|265:194|200:202,1,111.999996582031,6|0,1:2|0:0,0:0:0:0:
385,1,130016,1,8,0:2:0:0:
385,1,130332,1,2,1:2:0:0:
358,79,130490,2,0,P|381:127|441:172,1,111.999996582031,6|0,1:2|1:2,0:0:0:0:
509,168,130964,1,2,1:2:0:0:
381,309,131279,2,0,L|259:301,1,111.999996582031,10|2,0:2|0:2,0:0:0:0:
32,343,131911,6,0,B|4:273|78:277|52:184,1,160,6|8,1:2|0:2,0:0:0:0:
213,15,132385,2,0,P|171:79|164:169,1,160,6|8,1:2|0:2,0:0:0:0:
201,256,132858,1,8,0:2:0:0:
402,342,133016,2,0,P|404:261|398:161,1,160,6|8,1:2|0:2,0:0:0:0:
326,36,133490,1,10,0:2:0:0:
326,36,134279,6,0,P|413:29|519:95,1,191.999994140625,6|0,1:2|1:2,0:0:0:0:
297,227,134753,1,10,0:2:0:0:
247,122,134911,1,2,0:2:0:0:
398,64,135069,2,0,L|389:180,1,95.9999970703126,2|0,1:2|1:2,0:0:0:0:
372,317,135385,1,10,0:2:0:0:
192,300,135543,6,0,B|116:300|69:237|69:237|-9:246,1,191.999994140625,6|0,1:2|1:2,0:0:0:0:
227,382,136016,1,10,0:2:0:0:
299,241,136174,1,0,0:2:0:0:
154,98,136332,2,0,P|139:149|146:210,1,95.9999970703126,2|2,1:2|1:2,0:0:0:0:
209,289,136648,1,8,0:2:0:0:
397,238,136806,6,0,B|440:160|394:87|394:87|360:69,1,191.999994140625,6|0,1:2|1:2,0:0:0:0:
230,165,137279,1,10,0:2:0:0:
86,95,137437,1,2,0:2:0:0:
216,30,137595,1,2,1:2:0:0:
8,150,137753,2,0,P|-3:90|11:32,1,95.9999970703126,2|8,0:2|0:2,0:0:0:0:
181,12,138069,6,0,P|202:82|188:205,1,191.999994140625,6|2,1:2|1:2,0:0:0:0:
34,295,138543,2,0,P|80:269|132:255,1,95.9999970703126,10|0,0:2|0:2,0:0:0:0:
307,369,138858,1,2,1:2:0:0:
180,329,139016,1,2,1:2:0:0:
267,164,139174,1,8,0:2:0:0:
365,263,139332,6,0,P|272:276|184:203,1,191.999994140625,6|0,1:2|1:2,0:0:0:0:
187,88,139806,1,10,0:2:0:0:
187,88,140121,2,0,L|53:94,2,95.9999970703126,2|2|10,1:2|1:2|0:2,0:0:0:0:
302,24,140595,2,0,B|421:32|421:32|490:85,1,191.999994140625,6|0,1:2|1:2,0:0:0:0:
393,224,141069,6,0,P|373:174|380:126,1,95.9999970703126,10|0,0:2|0:2,0:0:0:0:
471,270,141385,1,2,1:2:0:0:
355,313,141543,1,0,0:2:0:0:
313,154,141700,1,10,0:2:0:0:
457,162,141858,1,0,0:2:0:0:
277,255,142016,6,0,B|149:220|149:220|72:235,2,191.999994140625,6|8|2,1:2|0:2|1:2,0:0:0:0:
338,355,142806,1,0,1:2:0:0:
131,315,142964,1,8,0:2:0:0:
257,158,143121,2,0,B|306:156|345:181|363:221|363:221|390:200|454:205,1,191.999994140625,6|8,1:2|0:2,0:0:0:0:
441,200,143516,1,8,0:2:0:0:
459,202,143595,1,8,0:2:0:0:
459,357,143753,5,10,0:2:0:0:
446,345,143832,1,10,0:2:0:0:
433,331,143911,2,0,P|425:298|426:269,1,47.9999985351563,10|10,0:2|0:2,0:0:0:0:
359,155,144069,2,0,P|347:219|330:258,1,95.9999970703126,10|0,0:2|1:2,0:0:0:0:
166,326,144385,6,0,B|59:315|126:217|-5:217,1,191.999994140625,6|0,1:2|1:2,0:0:0:0:
2,341,144858,2,0,P|73:316|108:289,1,95.9999970703126,8|2,0:2|1:2,0:0:0:0:
179,159,145174,1,2,1:2:0:0:
25,97,145332,1,2,1:2:0:0:
140,239,145490,1,8,0:2:0:0:
251,38,145648,6,0,P|181:40|100:154,1,191.999994140625,6|0,1:2|1:2,0:0:0:0:
219,267,146121,2,0,P|272:244|297:205,1,95.9999970703126,8|2,0:2|0:2,0:0:0:0:
332,27,146437,1,2,1:2:0:0:
206,168,146595,1,2,1:2:0:0:
402,153,146753,1,8,0:2:0:0:
301,115,146911,6,0,B|265:216|328:210|308:301,1,191.999994140625,6|0,1:2|1:2,0:0:0:0:
119,358,147385,1,10,0:2:0:0:
57,213,147543,1,2,0:2:0:0:
193,171,147700,1,2,1:2:0:0:
240,266,147858,2,0,P|193:277|128:273,1,95.9999970703126,2|8,1:2|0:2,0:0:0:0:
83,84,148174,6,0,B|159:40|235:53|235:53|271:85,1,191.999994140625,6|0,1:2|1:2,0:0:0:0:
405,212,148648,2,0,P|410:156|409:95,1,95.9999970703126,10|0,0:2|0:2,0:0:0:0:
266,163,148964,1,2,1:2:0:0:
485,92,149121,1,2,1:2:0:0:
471,66,149200,1,0,1:0:0:0:
446,47,149279,1,10,0:2:0:0:
312,280,149437,6,0,B|379:323|459:311|459:311|486:285,1,191.999994140625,6|0,1:2|1:2,0:0:0:0:
246,347,149911,1,8,0:2:0:0:
246,347,150227,2,0,P|264:304|268:251,2,95.9999970703126,2|2|10,1:2|1:2|0:2,0:0:0:0:
372,262,150700,6,0,B|383:200|354:154|354:154|307:136|280:72,1,191.999994140625,6|0,1:2|1:2,0:0:0:0:
193,22,151174,2,0,P|185:73|154:110,1,95.9999970703126,10|0,0:2|0:2,0:0:0:0:
9,186,151490,2,0,P|57:178|106:197,1,95.9999970703126,2|0,1:2|0:2,0:0:0:0:
116,364,151806,2,0,P|128:307|161:277,1,95.9999970703126,10|0,0:2|0:2,0:0:0:0:
257,264,152121,5,14,0:2:0:0:
133,102,152279,1,0,1:2:0:0:
50,294,152437,1,2,1:2:0:0:
214,167,152595,5,14,0:2:0:0:
59,191,152753,1,0,1:2:0:0:
169,319,152911,1,0,1:2:0:0:
140,183,153069,5,12,0:2:0:0:
115,255,153227,1,0,1:2:0:0:
189,242,153385,1,0,1:2:0:0:
59,191,153543,5,12,0:2:0:0:
169,319,153700,1,0,1:2:0:0:
214,167,153858,1,0,1:2:0:0:
50,294,154016,5,12,0:2:0:0:
257,264,154174,1,12,0:2:0:0:
129,103,154332,2,0,L|134:172,1,47.9999985351563,0|0,1:2|0:0,0:0:0:0:
76,307,154490,2,0,L|72:227,1,47.9999985351563,0|0,1:2|0:0,0:0:0:0:
18,187,154648,6,0,B|158:242|142:91|286:132,1,287.999991210938,12|0,0:2|0:0,0:0:0:0:
416,104,155911,6,0,P|428:153|410:193,1,95.9999970703126,6|0,1:2|0:2,0:0:0:0:
323,274,156543,1,10,0:2:0:0:
323,274,156858,2,0,L|358:267,1,32,6|0,1:2|0:0,0:0:0:0:
445,381,157016,2,0,L|440:265,1,111.999996582031,6|0,1:2|0:0,0:0:0:0:
471,174,157490,6,0,P|495:178|525:201,2,37.3333321940105,8|8|8,3:2|3:0|3:0,0:0:0:0:
376,190,157806,2,0,P|356:189|329:170,2,37.3333321940105,8|8|8,3:0|3:0|3:0,0:0:0:0:
444,290,158121,5,4,3:0:0:0:
444,290,158227,1,4,3:0:0:0:
444,290,158332,1,4,3:0:0:0:
444,290,158437,6,0,P|386:266|315:277,1,128,6|2,1:2|0:2,0:0:0:0:
165,381,159069,2,0,P|188:322|174:262,1,128,10|2,0:2|0:2,0:0:0:0:
154,241,159700,6,0,L|146:310,1,55.9999982910157,2|0,1:2|1:2,0:0:0:0:
38,174,160016,2,0,L|46:243,1,55.9999982910157,2|0,1:2|0:0,0:0:0:0:
180,64,160332,1,10,0:2:0:0:
166,162,160490,1,2,1:2:0:0:
36,58,160648,2,0,P|68:88|100:96,1,55.9999982910157,2|0,1:2|0:0,0:0:0:0:
261,26,160964,6,0,B|300:10|331:21|320:48|356:57|396:38,1,120,12|0,0:2|0:0,0:0:0:0:
462,27,161279,1,8,3:0:0:0:
462,27,161358,1,8,3:0:0:0:
462,27,161437,1,8,3:0:0:0:
462,27,161516,1,8,3:0:0:0:
462,27,161595,2,0,L|440:136,1,80,0|0,1:0|1:0,0:0:0:0:
428,287,161911,5,6,0:2:0:0:
315,358,162069,2,0,P|219:367|178:344,1,128,6|0,0:2|0:2,0:0:0:0:
145,270,162542,5,8,3:0:0:0:
145,270,162648,2,0,P|169:257|196:255,1,53.3333333333333,8|8,3:0|3:0,3:0:0:0:
273,283,162858,5,8,3:0:0:0:
273,283,162964,2,0,P|284:258|303:240,1,53.3333333333333,8|8,3:0|3:0,3:0:0:0:
339,164,163174,5,8,3:0:0:0:
305,163,163279,5,8,3:0:0:0:
273,142,163385,5,8,3:0:0:0:
262,111,163490,6,0,P|295:50|373:2,1,160,6|0,0:2|1:2,0:0:0:0:
454,163,164121,2,0,P|424:243|369:302,1,160,10|0,0:2|1:2,0:0:0:0:
194,240,164753,5,2,1:2:0:0:
136,169,164911,1,0,1:2:0:0:
189,92,165069,2,0,P|230:94|269:127,1,80,2|0,1:2|0:2,0:0:0:0:
271,293,165385,1,10,0:2:0:0:
193,330,165543,2,0,P|117:328|51:276,1,160,2|0,0:2|0:2,0:0:0:0:
165,169,166016,38,0,L|257:177,1,80,6|0,1:2|0:0,0:0:0:0:
307,238,166332,1,8,0:2:0:0:
273,87,166490,38,0,L|362:74,1,80,6|2,1:2|0:2,0:0:0:0:
418,13,166806,1,8,0:2:0:0:
395,227,166964,38,0,L|484:236,1,80,6|0,1:2|0:2,0:0:0:0:
507,146,167279,1,12,3:0:0:0:
337,152,167437,1,12,3:0:0:0:
175,160,167595,1,12,3:0:0:0:
175,160,167911,6,0,P|137:191|129:237,1,80,4|8,3:0|0:2,0:0:0:0:
311,337,168385,6,0,P|296:267|210:239,1,160,6|0,1:2|1:2,0:0:0:0:
136,342,168858,2,0,P|100:356|52:337,1,80,8|0,0:2|0:2,0:0:0:0:
1,268,169174,1,0,1:2:0:0:
49,182,169332,1,0,1:2:0:0:
147,182,169490,2,0,L|145:280,1,80,8|0,0:2|0:2,0:0:0:0:
52,92,169806,5,0,1:2:0:0:
121,23,169964,1,0,1:2:0:0:
213,37,170121,2,0,L|217:129,1,80,8|0,0:2|0:2,0:0:0:0:
217,293,170437,1,2,1:2:0:0:
300,359,170595,2,0,P|334:353|391:315,1,80,2|10,1:2|0:2,0:0:0:0:
334,111,170911,6,0,P|299:198|314:289,1,160,6|2,1:2|1:2,0:0:0:0:
473,252,171385,2,0,P|441:230|402:220,1,80,10|0,0:2|0:2,0:0:0:0:
309,195,171700,1,0,1:2:0:0:
387,132,171858,1,0,1:2:0:0:
367,33,172016,2,0,L|286:4,1,80,10|0,0:2|0:2,0:0:0:0:
157,114,172332,5,0,1:2:0:0:
209,192,172490,1,0,1:2:0:0:
309,195,172648,2,0,L|313:87,1,80,10|0,0:2|0:2,0:0:0:0:
60,43,172964,5,2,1:2:0:0:
97,216,173121,1,2,1:2:0:0:
97,216,173200,1,2,1:2:0:0:
97,216,173279,1,10,0:2:0:0:
192,60,173437,6,0,B|278:34|261:99|369:69,1,160,6|0,1:2|1:2,0:0:0:0:
484,196,173911,2,0,P|443:204|380:241,1,80,8|0,0:2|0:2,0:0:0:0:
276,349,174227,1,0,1:2:0:0:
363,193,174385,1,0,1:2:0:0:
417,335,174543,1,8,0:2:0:0:
265,211,174700,6,0,P|212:249|114:263,1,160,6|0,1:2|1:2,0:0:0:0:
17,177,175174,2,0,L|35:91,1,80,10|0,0:2|0:2,0:0:0:0:
143,241,175490,2,0,L|157:329,1,80,2|0,1:2|1:2,0:0:0:0:
263,168,175806,1,10,0:2:0:0:
263,168,175964,1,0,0:2:0:0:
386,301,176121,6,0,B|472:321|472:321|525:305,1,120,6|0,1:2|0:2,0:0:0:0:
508,228,176437,2,0,B|454:208|454:208|412:214,1,80,8|0,0:2|0:2,0:0:0:0:
274,300,176753,1,2,1:2:0:0:
199,133,176911,1,0,1:2:0:0:
360,161,177069,1,8,0:2:0:0:
91,261,177227,6,0,P|64:172|70:96,1,160,6|0,1:2|1:2,0:0:0:0:
177,23,177700,1,10,0:2:0:0:
194,171,177858,2,0,L|145:180,2,40,8|10|10,0:2|0:2|0:2,0:0:0:0:
298,153,178174,1,8,3:0:0:0:
298,153,178253,1,8,3:0:0:0:
298,153,178332,1,8,3:0:0:0:
298,153,178411,1,8,3:0:0:0:
298,153,178490,6,0,B|292:218|292:218|265:249|265:249|260:314,1,160,6|0,1:2|1:2,0:0:0:0:
408,376,178964,2,0,P|426:340|430:300,1,80,8|0,0:2|0:2,0:0:0:0:
349,163,179279,1,0,1:2:0:0:
449,190,179437,1,0,1:2:0:0:
512,107,179595,2,0,L|419:64,1,80,8|2,0:2|0:2,0:0:0:0:
273,108,179911,5,0,1:2:0:0:
182,155,180069,1,0,1:2:0:0:
99,90,180227,2,0,L|192:48,1,80,10|0,0:2|0:2,0:0:0:0:
299,0,180543,5,2,1:2:0:0:
447,84,180701,2,0,P|463:140|455:182,1,80,2|8,1:2|0:2,0:0:0:0:
334,207,181017,6,0,P|310:132|332:32,1,160,6|0,1:2|1:2,2:2:0:0:
229,161,181491,2,0,P|188:186|134:198,1,80,8|0,0:2|0:2,0:0:0:0:
9,64,181807,1,0,1:2:0:0:
98,11,181964,1,0,1:2:0:0:
194,39,182122,2,0,P|183:77|161:111,1,80,8|0,0:2|0:2,0:0:0:0:
87,276,182438,5,0,1:2:0:0:
176,329,182595,1,0,1:2:0:0:
272,301,182754,2,0,P|261:263|240:228,1,80,8|0,0:2|0:2,0:0:0:0:
115,118,183069,1,2,1:2:0:0:
2,240,183227,1,2,1:2:0:0:
2,240,183306,1,2,1:2:0:0:
2,240,183385,1,10,0:2:0:0:
126,346,183543,6,0,L|150:189,1,160,6|0,1:2|1:2,0:0:0:0:
233,58,184016,2,0,L|247:173,1,80,8|0,0:2|0:2,0:0:0:0:
429,207,184332,1,2,1:2:0:0:
239,249,184490,1,2,1:2:0:0:
327,128,184648,1,8,0:2:0:0:
398,352,184806,6,0,P|333:360|238:328,1,160,6|0,1:2|1:2,0:0:0:0:
277,123,185279,1,10,0:2:0:0:
331,240,185437,1,0,0:2:0:0:
140,266,185595,1,2,1:2:0:0:
152,142,185753,1,0,1:2:0:0:
230,215,185911,1,10,0:2:0:0:
59,142,186069,5,2,1:2:0:0:
59,142,186148,1,0,1:0:0:0:
59,142,186227,2,0,B|32:245|32:245|55:320,1,160,6|8,1:2|0:2,0:0:0:0:
175,370,186700,1,0,0:2:0:0:
304,256,186858,2,0,P|270:232|208:231,1,80,6|0,1:2|1:2,0:0:0:0:
106,342,187174,2,0,P|140:368|201:361,1,80,8|0,0:2|0:2,0:0:0:0:
253,149,187490,5,14,0:2:0:0:
174,288,187648,1,0,1:2:0:0:
174,288,187727,1,0,1:2:0:0:
174,288,187806,1,0,1:2:0:0:
156,118,187964,5,12,0:2:0:0:
250,243,188121,1,2,1:2:0:0:
250,243,188200,1,0,1:2:0:0:
250,243,188279,1,0,1:2:0:0:
314,85,188437,2,0,P|281:62|230:69,1,80,12|8,2:2|2:2,0:0:0:0:
106,268,188753,6,0,B|154:211|232:198|281:223|281:223|333:299|401:299|445:260|445:260|426:174|367:158|367:158|368:202|347:231,1,600,6|0,1:2|0:2,0:0:0:0:
346,313,191279,6,0,P|395:180|310:85,1,280,2|0,0:2|0:2,0:0:0:0:
229,121,192543,6,0,B|188:132|170:172|170:172|167:128|134:95,1,160,2|2,0:2|0:2,0:0:0:0:
41,206,193806,6,0,B|4:315|98:349|98:349|151:273|232:264|303:281|303:281|298:331|248:373|189:371,1,560,2|0,0:2|0:0,0:0:0:0:
125,215,196332,6,0,P|197:184|293:190,1,160,2|2,0:2|0:2,0:0:0:0:
355,264,197279,1,0,0:0:0:0:
469,185,197595,6,0,L|478:94,1,80,2|2,0:2|0:2,0:0:0:0:
352,17,198227,2,0,L|362:104,1,80,2|2,0:2|0:2,0:0:0:0:
394,269,198858,6,0,B|348:302|293:327|194:311|194:311|162:210|255:169|273:119|273:119|237:196|275:243,1,560,2|0,0:2|0:0,0:0:0:0:
423,248,201385,6,0,B|455:212|478:118|421:57|421:57|398:100|359:107,1,280,2|0,0:2|0:2,0:0:0:0:
247,96,202648,6,0,B|234:68|188:67|188:67|222:17|292:-4|354:24,1,240,2|0,0:2|0:0,0:0:0:0:
358,219,203911,6,0,B|252:284|242:141|104:207|104:207|135:229|166:228,1,320,2|0,0:2|0:2,0:0:0:0:
308,146,205806,6,0,P|321:92|315:60,1,80
56,122,206437,6,0,L|167:112,1,95.9999970703126,8|0,0:2|0:0,0:0:0:0:
223,53,206753,1,0,1:2:0:0:
176,205,206911,6,0,L|295:175,1,95.9999970703126,8|0,0:2|1:2,0:0:0:0:
338,117,207227,1,0,1:2:0:0:
330,265,207385,6,0,L|413:206,1,95.9999970703126,8|0,0:2|1:2,0:0:0:0:
464,131,207700,1,0,1:2:0:0:
322,13,207858,6,0,L|322:119,1,95.9999970703126,12|0,0:0|0:0,0:0:0:0:
439,265,208174,1,8,0:2:0:0:
269,178,208332,5,8,0:2:0:0:
383,174,208490,1,8,0:2:0:0:
226,281,208648,1,0,1:2:0:0:
388,365,208806,1,0,1:2:0:0:
277,371,208964,5,12,1:2:0:0:
439,265,209121,2,0,L|495:263,2,47.9999985351563,8|8|8,3:0|3:0|3:0,0:0:0:0:
331,268,209437,5,12,1:2:0:0:
386,149,209595,2,0,L|395:94,2,47.9999985351563,8|8|0,3:0|3:0|3:2,0:0:0:0:
331,268,209911,5,12,1:2:0:0:
294,87,210069,1,8,3:0:0:0:
294,87,210148,1,0,1:0:0:0:
294,87,210227,6,0,B|241:82|241:82|198:106|198:106|136:101,1,160,12|0,0:2|0:0,0:0:0:0:
113,84,211332,1,2,0:0:0:0:
0,83,226648,6,0,B|66:196|211:162|232:121|227:84|227:84|181:79|143:107|135:197,1,448,6|0,0:2|0:0,0:0:0:0:
77,353,229174,6,0,P|129:344|174:302,1,88.000002685547,6|0,1:2|0:2,0:0:0:0:
223,249,229490,1,8,0:2:0:0:
136,149,229648,6,0,P|117:197|131:258,1,88.000002685547,6|0,1:2|0:2,0:0:0:0:
251,341,229964,1,0,1:2:0:0:
384,269,230121,6,0,P|391:193|353:100,1,176.000005371094,10|0,0:2|1:2,0:0:0:0:
250,60,230595,2,0,P|246:109|275:168,1,88.000002685547,14|0,0:2|1:2,0:0:0:0:
345,210,230911,1,0,1:2:0:0:
382,13,231069,5,10,0:2:0:0:
240,162,231227,1,2,1:2:0:0:
440,127,231385,1,2,1:2:0:0:
254,29,231543,6,0,L|252:69,1,40,14|0,0:2|0:0,0:0:0:0:
174,264,232806,6,0,P|100:272|33:179,1,191.999994140625,6|0,1:2|1:2,0:0:0:0:
153,52,233279,1,10,0:2:0:0:
237,162,233437,1,2,0:2:0:0:
98,296,233595,2,0,L|2:283,1,95.9999970703126,2|0,1:2|1:2,0:0:0:0:
132,155,233911,1,10,0:2:0:0:
224,364,234069,6,0,B|351:346|351:346|409:299,1,191.999994140625,6|0,1:2|1:2,0:0:0:0:
362,115,234543,2,0,P|334:163|322:214,1,95.9999970703126,10|0,0:2|0:2,0:0:0:0:
471,122,234858,1,2,1:2:0:0:
337,32,235016,1,2,1:2:0:0:
242,161,235174,1,8,0:2:0:0:
396,234,235332,6,0,P|396:171|372:19,1,191.999994140625,6|0,1:2|1:2,0:0:0:0:
155,137,235806,1,10,0:2:0:0:
304,76,235964,1,2,0:2:0:0:
179,20,236121,1,2,1:2:0:0:
337,175,236279,2,0,P|296:202|239:193,1,95.9999970703126,2|8,0:2|0:2,0:0:0:0:
43,96,236595,6,0,B|139:62|128:156|264:111,1,191.999994140625,6|2,1:2|1:2,0:0:0:0:
412,6,237069,2,0,P|386:49|388:127,1,95.9999970703126,10|0,0:2|0:0,0:0:0:0:
453,268,237385,1,2,1:2:0:0:
358,114,237543,1,2,1:2:0:0:
503,153,237700,1,8,0:2:0:0:
294,246,237858,6,0,P|257:178|289:44,1,191.999994140625,6|0,1:2|1:2,0:0:0:0:
163,11,238332,1,10,0:2:0:0:
163,11,238648,2,0,L|61:33,2,95.9999970703126,2|2|10,1:2|1:2|0:2,0:0:0:0:
242,159,239121,6,0,B|100:142|100:142|49:160,1,191.999994140625,6|0,1:2|1:2,0:0:0:0:
131,338,239595,2,0,B|161:287|161:287|171:245,1,95.9999970703126,10|0,0:2|0:2,0:0:0:0:
47,307,239911,5,2,1:2:0:0:
224,351,240069,1,0,0:2:0:0:
192,175,240227,1,10,0:2:0:0:
113,252,240385,1,0,0:2:0:0:
343,316,240543,6,0,L|330:112,1,191.999994140625,6|10,1:2|0:2,0:0:0:0:
147,36,241174,5,2,1:2:0:0:
346,119,241332,1,0,1:2:0:0:
198,192,241490,1,8,0:2:0:0:
340,20,241648,2,0,P|422:60|450:159,1,191.999994140625,6|8,1:2|0:2,0:0:0:0:
446,168,242043,1,8,0:2:0:0:
429,181,242121,1,8,0:2:0:0:
254,257,242279,5,10,0:2:0:0:
266,243,242358,1,10,0:2:0:0:
284,237,242437,2,0,P|318:246|352:263,1,47.9999985351563,10|10,0:2|0:2,0:0:0:0:
373,355,242595,2,0,P|318:347|272:331,1,95.9999970703126,10|0,1:2|1:2,0:0:0:0:
125,352,242911,6,0,B|163:296|163:296|133:155,1,191.999994140625,6|0,1:2|1:2,0:0:0:0:
33,55,243385,2,0,P|18:104|14:170,1,95.9999970703126,8|2,0:2|1:2,0:0:0:0:
133,239,243700,1,2,1:2:0:0:
279,121,243858,1,2,1:2:0:0:
160,29,244016,1,8,0:2:0:0:
245,247,244174,6,0,B|341:275|322:192|466:237,1,191.999994140625,6|0,1:2|1:2,0:0:0:0:
261,346,244648,2,0,P|197:332|141:330,1,95.9999970703126,8|2,0:2|0:2,0:0:0:0:
31,355,244964,1,2,1:2:0:0:
112,234,245121,1,2,1:2:0:0:
19,101,245279,1,8,0:2:0:0:
165,148,245437,6,0,P|214:93|130:27,1,191.999994140625,6|0,1:2|1:2,0:0:0:0:
314,176,245911,1,10,0:2:0:0:
275,21,246069,1,2,0:2:0:0:
396,111,246227,1,2,1:2:0:0:
198,160,246385,2,0,L|213:270,1,95.9999970703126,2|8,1:2|0:2,0:0:0:0:
350,366,246700,6,0,P|293:297|359:228,1,191.999994140625,6|0,1:2|1:2,0:0:0:0:
501,232,247174,2,0,P|488:272|435:287,1,95.9999970703126,10|0,0:2|0:2,0:0:0:0:
343,201,247490,1,2,1:2:0:0:
472,77,247648,1,2,1:2:0:0:
472,77,247727,1,2,1:2:0:0:
472,77,247806,2,0,L|467:132,1,47.9999985351563,10|0,0:2|0:0,0:0:0:0:
420,202,247964,6,0,B|342:195|342:195|307:165|307:165|211:156,1,191.999994140625,6|0,1:2|1:2,0:0:0:0:
41,282,248437,2,0,L|170:273,1,95.9999970703126,8|0,0:2|0:2,0:0:0:0:
257,202,248753,1,2,1:2:0:0:
139,68,248911,1,2,1:2:0:0:
38,171,249069,1,10,0:2:0:0:
136,275,249227,6,0,B|161:219|155:167|155:167|198:149|228:85,1,191.999994140625,6|0,1:2|1:2,0:0:0:0:
320,37,249700,2,0,P|328:88|360:125,1,95.9999970703126,10|0,0:2|0:2,0:0:0:0:
504,200,250016,2,0,P|457:192|407:212,1,95.9999970703126,2|0,1:2|1:2,0:0:0:0:
397,379,250332,2,0,P|385:322|353:291,1,95.9999970703126,10|0,0:2|0:2,0:0:0:0:
257,279,250648,5,14,0:2:0:0:
379,117,250806,1,0,1:2:0:0:
461,306,250964,1,2,1:2:0:0:
299,182,251121,5,14,0:2:0:0:
455,205,251279,1,0,1:2:0:0:
344,334,251437,1,0,1:2:0:0:
373,197,251595,5,12,0:2:0:0:
398,269,251753,1,0,1:2:0:0:
324,257,251911,1,0,1:2:0:0:
455,205,252069,5,12,0:2:0:0:
344,334,252227,1,0,1:2:0:0:
297,168,252385,1,0,1:2:0:0:
463,308,252543,5,12,0:2:0:0:
257,279,252700,1,12,0:2:0:0:
379,117,252858,2,0,L|381:189,1,47.9999985351563,0|0,1:2|0:0,0:0:0:0:
443,320,253016,2,0,L|447:240,1,47.9999985351563,0|0,1:2|0:0,0:0:0:0:
492,180,253174,6,0,P|435:225|204:151,1,335.999989746094,12|0,0:2|0:0,0:0:0:0:
256,192,254358,12,0,255542,0:0:0:0:
88,9,255700,6,0,B|84:81|84:81|98:114|98:114|95:182,1,176.000005371094,6|8,1:2|0:2,0:0:0:0:
37,346,256331,2,0,P|76:362|137:345,1,88.000002685547,2|0,1:2|0:2,0:0:0:0:
237,298,256647,1,8,0:2:0:0:
262,154,256805,2,0,B|199:135|199:135|65:174,1,176.000005371094,6|0,1:2|1:2,0:0:0:0:
349,241,257279,5,8,0:2:0:0:
349,241,257594,2,0,P|386:177|387:109,1,132.00000402832,2|0,1:2|0:2,0:0:0:0:
324,47,257910,2,0,P|296:114|310:154,1,88.000002685547,10|0,0:2|0:2,0:0:0:0:
475,232,258226,6,0,P|479:157|481:27,1,176.000005371094,6|8,1:2|0:2,0:0:0:0:
307,204,258858,1,2,1:2:0:0:
405,240,259016,1,0,1:2:0:0:
362,31,259174,1,10,0:2:0:0:
291,107,259332,1,0,0:2:0:0:
476,138,259490,6,0,L|358:116,1,88.000002685547,2|2,1:2|1:2,0:0:0:0:
184,28,259805,2,0,L|284:18,1,88.000002685547,8|2,0:2|1:2,0:0:0:0:
160,205,260121,1,6,1:2:0:0:
68,169,260278,1,0,1:2:0:0:
75,70,260436,1,8,0:2:0:0:
173,40,260594,1,0,0:2:0:0:
227,128,260752,5,6,1:2:0:0:
334,141,260910,1,0,0:2:0:0:
445,167,261068,1,8,0:2:0:0:
445,167,261384,5,6,1:2:0:0:
234,221,261542,1,0,0:2:0:0:
339,194,261700,1,8,0:2:0:0:
136,247,261857,1,6,1:2:0:0:
256,192,261937,12,0,264543,0:2:0:0:
