osu file format v14

[General]
AudioFilename: audio.mp3
AudioLeadIn: 0
PreviewTime: 52310
Countdown: 0
SampleSet: Soft
StackLeniency: 0.7
Mode: 0
LetterboxInBreaks: 0
WidescreenStoryboard: 0

[Editor]
DistanceSpacing: 0.4
BeatDivisor: 4
GridSize: 4
TimelineZoom: 2.2

[Metadata]
Title:Key of Truth
TitleUnicode:Key of Truth
Artist:sweet ARMS
ArtistUnicode:sweet ARMS
Creator:sahuang
Version:wkyik's Extra
Source:デート・ア・ライブTwin Edition凜緒リンカーネイション
Tags:DATE A LIVE Twin Edition Rio Reincarnation game opening theme song ps vita kawaiwkyik rizia wkyik gaia my angel azusa Celsiuslk
BeatmapID:1407819
BeatmapSetID:665179

[Difficulty]
HPDrainRate:7
CircleSize:4
OverallDifficulty:8
ApproachRate:9
SliderMultiplier:1.8
SliderTickRate:1

[Events]
//Background and Video events
0,0,"bg.jpg",0,0
//Break Periods
2,23360,31310
2,78160,87560
2,143785,151935
2,188628,195528
//Storyboard Layer 0 (Background)
//Storyboard Layer 1 (Fail)
//Storyboard Layer 2 (Pass)
//Storyboard Layer 3 (Foreground)
//Storyboard Sound Samples

[TimingPoints]
660,312.5,4,2,1,40,1,0
2378,-133.333333333333,4,2,1,40,0,0
12535,-133.333333333333,4,2,1,60,0,0
13003,-100,4,2,1,70,0,0
33472,-125,4,2,1,70,0,0
43160,-133.333333333333,4,2,1,70,0,0
50503,-100,4,2,1,70,0,0
51910,-125,4,2,1,70,0,0
53003,-100,4,2,1,70,0,1
61753,-83.3333333333333,4,2,1,70,0,1
62925,-83.3333333333333,4,2,1,70,0,0
63003,-83.3333333333333,4,2,1,70,0,1
63472,-100,4,2,1,70,0,1
73003,-133.333333333333,4,2,1,50,0,0
88160,-166.666666666667,4,2,1,50,0,0
95972,-142.857142857143,4,2,1,50,0,0
96285,-125,4,2,1,50,0,0
96597,-111.111111111111,4,2,1,50,0,0
96910,-100,4,2,1,70,0,0
98003,-100,4,2,1,70,0,0
98472,-125,4,2,1,60,0,0
106753,-100,4,2,1,50,0,0
108160,-133.333333333333,4,2,1,50,0,0
114253,-100,4,2,1,60,0,0
115503,-83.3333333333333,4,2,1,70,0,0
116910,-125,4,2,1,50,0,0
117691,-166.666666666667,4,2,1,50,0,0
118003,-100,4,2,1,70,0,1
126753,-83.3333333333333,4,2,1,70,0,1
128472,-100,4,2,1,70,0,1
138003,-133.333333333333,4,2,1,70,0,0
143785,312.5,4,2,1,70,1,0
173628,-133.333333333333,4,2,1,70,0,0
178628,-100,4,2,1,70,0,0
196128,-133.333333333333,4,2,1,70,0,0
197378,-66.6666666666667,4,2,1,70,0,0
198628,-83.3333333333333,4,2,1,70,0,1
199097,-100,4,2,1,70,0,1
208628,-133.333333333333,4,2,1,70,0,0
213628,-100,4,2,1,70,0,0

[Colours]
Combo1 : 255,196,255
Combo2 : 0,128,128
Combo3 : 255,128,128
Combo4 : 0,64,128

[HitObjects]
196,116,2378,6,0,P|156:120|104:128,2,67.5000025749208,0|0|0,0:0|0:0|0:0,0:0:0:0:
268,64,2847,1,0,0:0:0:0:
308,184,3003,2,0,P|364:216|452:200,1,135.000005149842,2|0,0:0|0:0,0:0:0:0:
440,80,3472,1,2,0:0:0:0:
360,112,3628,1,0,0:0:0:0:
464,188,3785,2,0,B|488:236|488:236|472:344,1,135.000005149842,2|0,0:0|0:0,0:0:0:0:
392,360,4253,6,0,P|352:312|204:340,1,202.500007724762,2|0,0:0|0:0,0:0:0:0:
32,172,5035,1,0,0:0:0:0:
48,260,5191,1,0,0:0:0:0:
64,348,5347,1,0,0:0:0:0:
160,276,5503,6,0,L|324:292,1,135.000005149842,2|0,0:0|0:0,0:0:0:0:
226,125,5972,2,0,L|240:192,1,67.5000025749208,2|2,0:0|0:0,0:0:0:0:
294,289,6285,2,0,P|336:248|348:168,1,135.000005149842,2|0,0:0|0:0,0:0:0:0:
319,50,6753,2,0,P|235:96|240:192,1,202.500007724762,2|0,0:0|0:0,0:0:0:0:
468,288,7535,2,0,P|380:300|332:308,1,135.000005149842,2|2,0:0|0:0,0:0:0:0:
256,360,8003,6,0,P|200:296|72:320,1,202.500007724762,2|0,0:0|0:0,0:0:0:0:
72,48,8785,2,0,P|116:84|108:176,1,135.000005149842,2|0,0:0|0:0,0:0:0:0:
60,220,9253,6,0,P|126:209|193:200,1,135.000005149842,2|0,0:0|0:0,0:0:0:0:
288,208,9722,1,2,0:0:0:0:
420,72,10035,1,2,0:0:0:0:
240,16,10347,1,2,0:0:0:0:
240,16,10503,1,2,0:0:0:0:
256,192,10660,12,2,12378,0:0:0:0:
188,176,12535,5,8,0:0:0:0:
324,208,12691,1,8,0:0:0:0:
80,348,13003,6,0,P|44:300|80:192,1,180,6|0,0:0|0:0,0:0:0:0:
148,68,13472,2,0,P|160:120|168:180,1,90,8|0,0:0|0:0,0:0:0:0:
128,268,13785,1,4,0:3:0:0:
240,192,13941,1,4,0:3:0:0:
64,112,14097,1,8,0:0:0:0:
236,320,14253,6,0,P|244:248|260:132,1,180,4|4,0:3|0:3,0:0:0:0:
320,60,14722,1,8,0:0:0:0:
356,180,14878,1,2,0:0:0:0:
356,180,14956,1,0,0:0:0:0:
356,180,15035,2,0,P|404:172|484:164,1,90,4|4,0:3|0:3,0:0:0:0:
300,336,15347,2,0,P|236:328|148:320,1,135,8|0,0:0|0:0,0:0:0:0:
72,336,15660,6,0,P|52:276|40:216,1,90,6|0,0:0|0:0,0:0:0:0:
172,72,15972,1,8,0:0:0:0:
108,156,16128,1,2,0:0:0:0:
108,156,16206,1,8,0:3:0:0:
108,156,16285,2,0,P|56:144|0:136,1,90,4|4,0:3|0:3,0:0:0:0:
176,296,16597,2,0,P|220:288|264:278,1,90,8|2,0:0|0:0,0:0:0:0:
328,72,16910,5,12,0:0:0:0:
280,284,17066,1,4,0:3:0:0:
184,108,17222,1,12,0:0:0:0:
368,256,17378,1,4,0:3:0:0:
368,256,17456,1,0,0:0:0:0:
368,256,17535,1,12,0:0:0:0:
216,328,17691,1,8,0:0:0:0:
340,184,17847,1,8,0:3:0:0:
108,112,18003,6,0,P|124:204|136:304,1,180,6|2,0:0|0:0,0:0:0:0:
220,200,18472,1,8,0:0:0:0:
32,160,18628,1,2,0:0:0:0:
100,308,18785,1,4,0:3:0:0:
144,152,18941,1,4,0:3:0:0:
116,332,19097,1,8,0:0:0:0:
252,236,19253,6,0,P|288:200|416:228,1,180,4|4,0:3|0:3,0:0:0:0:
496,324,19722,2,0,P|432:320|376:312,1,90,8|2,0:0|0:0,0:0:0:0:
406,316,19956,1,0,0:0:0:0:
406,316,20035,1,4,0:3:0:0:
268,208,20191,1,2,0:0:0:0:
304,340,20347,1,8,0:0:0:0:
360,160,20503,1,0,0:0:0:0:
160,200,20660,6,0,P|168:260|180:308,1,90,6|0,0:0|0:0,0:0:0:0:
232,100,20972,1,8,0:0:0:0:
232,100,21128,1,8,0:0:0:0:
256,232,21285,1,4,0:3:0:0:
40,176,21441,1,4,0:3:0:0:
168,368,21597,2,0,P|173:323|182:279,1,90,8|0,0:0|0:0,0:0:0:0:
192,252,21831,1,8,0:3:0:0:
204,228,21910,1,4,0:3:0:0:
336,356,22066,6,0,P|328:308|324:276,1,45,0|0,0:0|0:0,0:0:0:0:
396,156,22222,2,0,P|392:178|388:200,1,45,8|0,0:0|0:0,0:0:0:0:
304,292,22378,1,4,0:3:0:0:
304,108,22535,1,8,0:0:0:0:
492,196,22691,1,4,0:3:0:0:
412,320,22847,2,0,P|356:328|312:336,1,90,12|0,0:0|0:0,0:0:0:0:
152,308,23160,5,4,0:0:0:0:
112,128,31910,5,12,0:0:0:0:
400,256,32222,1,12,0:0:0:0:
120,336,32535,1,12,0:0:0:0:
120,336,32691,2,0,P|136:304|236:312,1,135,12|0,0:0|0:0,0:0:0:0:
236,316,33003,6,0,L|48:304,1,180,14|0,0:0|0:0,0:0:0:0:
120,72,33472,1,8,0:0:0:0:
120,72,33628,1,2,0:0:0:0:
96,188,33785,1,2,0:0:0:0:
224,108,33941,6,0,P|239:145|247:185,1,72,4|2,0:3|0:0,0:0:0:0:
300,324,34253,2,0,P|308:284|323:246,1,72,8|4,0:2|0:3,0:0:0:0:
356,172,34566,1,0,0:0:0:0:
224,264,34722,1,8,0:0:0:0:
392,320,34878,2,0,P|440:312|484:304,1,72,0|4,0:0|0:3,0:0:0:0:
312,240,35191,1,4,0:3:0:0:
408,340,35347,1,8,0:0:0:0:
228,368,35503,6,0,P|200:332|224:232,1,144,2|2,0:0|0:0,0:0:0:0:
264,68,35972,1,8,0:0:0:0:
284,160,36128,1,0,0:0:0:0:
284,160,36206,1,0,0:0:0:0:
284,160,36285,1,4,0:3:0:0:
196,128,36441,1,0,0:0:0:0:
344,64,36597,1,0,0:0:0:0:
356,224,36753,6,0,P|304:216|192:204,1,144,6|4,0:0|0:3,0:0:0:0:
32,160,37222,1,8,0:0:0:0:
68,320,37378,1,8,0:0:0:0:
213,205,37535,1,4,0:3:0:0:
220,232,37613,1,4,0:3:0:0:
224,261,37691,1,4,0:3:0:0:
226,290,37769,1,4,0:3:0:0:
228,320,37847,1,8,0:0:0:0:
452,272,38003,1,8,0:0:0:0:
452,272,38081,1,8,0:0:0:0:
452,272,38160,6,0,P|420:232|316:256,2,144,6|8|4,0:0|0:0|0:3,0:0:0:0:
376,304,38941,1,4,0:3:0:0:
448,152,39097,1,2,0:0:0:0:
284,244,39253,1,8,0:0:0:0:
324,28,39566,5,4,0:3:0:0:
284,220,39722,2,0,P|276:168|272:120,1,72,8|0,0:0|0:0,0:0:0:0:
200,312,40035,2,0,P|195:347|190:383,2,72,4|2|8,0:3|0:0|0:0,0:0:0:0:
140,236,40503,1,2,0:0:0:0:
140,236,40581,1,0,0:0:0:0:
140,236,40660,6,0,P|88:216|0:276,1,144,6|8,0:0|0:0,0:0:0:0:
12,252,41128,1,2,0:0:0:0:
176,148,41285,1,4,0:3:0:0:
84,296,41441,2,0,P|88:348|88:388,1,72,0|8,0:0|0:0,0:0:0:0:
200,184,41753,6,0,P|208:128|228:36,1,144,4|4,0:2|0:3,0:0:0:0:
328,260,42222,1,8,0:0:0:0:
312,128,42378,1,4,0:3:0:0:
216,284,42535,5,8,0:0:0:0:
396,212,42691,1,8,0:3:0:0:
276,184,42847,1,8,0:3:0:0:
408,328,43003,1,0,0:0:0:0:
296,376,43160,6,0,P|260:372|220:368,1,67.5000025749208,6|0,0:0|0:0,0:0:0:0:
100,372,43472,2,0,P|104:336|108:296,1,67.5000025749208,4|0,0:3|0:0,0:0:0:0:
160,156,43785,1,4,0:3:0:0:
160,156,43941,2,0,P|163:189|167:223,1,67.5000025749208,0|4,0:0|0:3,0:0:0:0:
84,128,44253,6,0,P|112:88|204:88,1,135.000005149842,0|0,0:0|0:0,0:0:0:0:
312,44,44722,2,0,P|302:99|282:120,1,67.5000025749208,4|2,0:3|0:0,0:0:0:0:
388,152,45035,2,0,P|352:194|324:202,1,67.5000025749208,4|2,0:3|0:0,0:0:0:0:
332,304,45347,1,4,0:3:0:0:
256,188,45503,1,6,0:0:0:0:
236,372,45660,6,0,P|180:364|76:352,1,135.000005149842,4|4,0:3|0:3,0:0:0:0:
102,354,46128,1,2,0:0:0:0:
12,240,46285,2,0,P|20:288|24:328,2,67.5000025749208,4|0|4,0:3|0:0|0:3,0:0:0:0:
112,80,46753,6,0,P|136:124|128:224,1,135.000005149842,12|2,0:0|0:0,0:0:0:0:
276,316,47222,1,4,0:3:0:0:
120,296,47378,2,0,P|160:288|200:280,2,67.5000025749208,2|4|8,0:0|0:3|0:3,0:0:0:0:
260,216,47847,1,8,0:3:0:0:
108,120,48003,1,8,0:3:0:0:
108,120,48081,1,8,0:3:0:0:
108,120,48160,6,0,P|132:96|232:104,1,135.000005149842,6|4,0:0|0:3,0:0:0:0:
464,124,48628,1,2,0:0:0:0:
312,192,48785,2,0,P|320:240|328:284,1,67.5000025749208,4|0,0:3|0:0,0:0:0:0:
440,288,49097,1,4,0:3:0:0:
328,88,49253,1,12,0:0:0:0:
328,88,49566,5,4,0:3:0:0:
168,216,49722,1,8,0:0:0:0:
300,176,49878,1,4,0:3:0:0:
188,96,50035,1,4,0:3:0:0:
236,280,50191,1,8,0:0:0:0:
208,64,50347,1,8,0:0:0:0:
80,144,50503,6,0,B|124:152|140:188|140:188|188:200|188:200|248:176,1,180,6|4,0:0|0:3,0:0:0:0:
188,96,50972,1,8,0:0:0:0:
136,316,51128,1,8,0:0:0:0:
280,148,51285,1,8,0:0:0:0:
284,328,51441,1,8,0:0:0:0:
392,172,51597,1,8,0:3:0:0:
432,296,51753,1,8,0:3:0:0:
472,96,51910,6,0,P|492:56|396:80,1,216,6|0,0:0|0:0,0:0:0:0:
336,172,52535,2,0,P|384:164|420:160,2,72,2|0|8,0:0|0:0|0:0,0:0:0:0:
212,60,53003,6,0,P|164:40|52:108,1,180,6|4,0:0|0:3,0:0:0:0:
76,312,53472,2,0,L|104:196,1,90,8|2,0:0|0:0,0:0:0:0:
320,100,53785,1,4,0:3:0:0:
188,200,53941,1,4,0:3:0:0:
188,200,54019,1,0,0:0:0:0:
188,200,54097,1,8,0:0:0:0:
312,312,54253,6,0,P|376:304|504:292,1,180,4|4,0:3|0:3,0:0:0:0:
384,164,54722,1,8,0:0:0:0:
321,305,54878,1,0,0:0:0:0:
240,112,55035,2,0,P|248:164|260:224,1,90,4|0,0:3|0:0,0:0:0:0:
182,29,55347,1,8,0:0:0:0:
332,72,55503,6,0,P|292:24|164:48,1,180,4|4,0:3|0:3,0:0:0:0:
80,176,55972,1,8,0:0:0:0:
262,120,56128,1,2,0:0:0:0:
356,316,56285,2,0,P|292:312|232:304,1,90,4|0,0:3|0:0,0:0:0:0:
232,304,56519,1,0,0:0:0:0:
196,292,56597,1,8,0:0:0:0:
112,160,56753,6,0,B|160:120|226:139|226:139|228:104|255:77,1,180,4|4,0:3|0:3,0:0:0:0:
452,220,57222,1,8,0:0:0:0:
312,144,57378,2,0,L|336:204,1,45,0|0,0:0|0:0,0:0:0:0:
354,359,57535,2,0,L|376:272,1,90,4|4,0:3|0:3,0:0:0:0:
416,112,57847,1,8,0:0:0:0:
184,220,58003,6,0,P|164:272|256:348,1,180,2|2,0:2|0:0,0:0:0:0:
248,268,58472,1,8,0:0:0:0:
64,332,58628,1,2,0:0:0:0:
76,168,58785,1,4,0:3:0:0:
168,308,58941,1,4,0:3:0:0:
16,232,59097,1,8,0:0:0:0:
136,24,59253,6,0,P|176:76|168:196,1,180,4|4,0:3|0:3,0:0:0:0:
388,184,59722,2,0,P|356:228|344:288,1,90,8|0,0:2|0:0,0:0:0:0:
296,348,60035,1,4,0:3:0:0:
440,264,60191,1,4,0:3:0:0:
280,100,60347,1,8,0:0:0:0:
345,261,60503,1,2,0:0:0:0:
345,261,60581,1,0,0:0:0:0:
345,261,60660,6,0,L|237:253,1,90,4|2,0:3|0:0,0:0:0:0:
76,336,60972,1,8,0:0:0:0:
124,180,61128,1,0,0:0:0:0:
172,24,61285,1,4,0:3:0:0:
212,240,61441,1,4,0:3:0:0:
40,192,61597,1,8,0:0:0:0:
244,92,61753,6,0,B|288:52|360:64|360:64|340:120,1,161.999995056153,12|0,0:0|0:0,0:0:0:0:
388,192,62066,2,0,P|432:152|444:88,1,107.999996704102,12|0,0:0|0:0,0:0:0:0:
288,184,62378,1,12,0:0:0:0:
416,368,62535,6,0,L|428:308,1,53.9999983520508,0|0,0:0|0:0,0:0:0:0:
260,168,62691,1,8,0:0:0:0:
268,212,62769,1,8,0:0:0:0:
276,256,62847,1,8,0:0:0:0:
284,300,62925,1,8,0:0:0:0:
292,344,63003,6,0,B|216:336|216:336|168:352|168:352|40:328,1,215.999993408203,6|4,0:0|0:3,0:0:0:0:
108,52,63472,2,0,B|128:88|128:88|116:152,1,90,8|2,0:0|0:0,0:0:0:0:
36,244,63785,1,4,0:3:0:0:
224,116,63941,2,0,L|320:100,1,90,4|8,0:3|0:2,0:0:0:0:
416,280,64253,6,0,P|376:296|252:236,1,180,4|4,0:3|0:3,0:0:0:0:
392,48,64722,1,8,0:0:0:0:
356,180,64878,1,2,0:0:0:0:
264,80,65035,1,4,0:3:0:0:
480,144,65191,1,0,0:0:0:0:
264,80,65347,1,8,0:0:0:0:
260,272,65503,6,0,B|288:228|348:220|348:220|432:236,1,180,2|2,0:0|0:0,0:0:0:0:
416,364,65972,2,0,P|384:328|324:324,1,90,8|2,0:2|0:0,0:0:0:0:
172,336,66285,2,0,P|154:291|158:243,1,90,4|0,0:3|0:0,0:0:0:0:
240,68,66597,1,8,0:0:0:0:
392,160,66753,6,0,B|296:144|316:212|216:192,1,180,4|4,0:3|0:3,0:0:0:0:
48,68,67222,2,0,P|88:28|180:40,1,135,8|0,0:0|0:0,0:0:0:0:
240,68,67535,1,4,0:3:0:0:
176,280,67691,1,4,0:3:0:0:
32,220,67847,1,8,0:0:0:0:
224,184,68003,6,0,P|264:216|260:344,1,180,6|4,0:0|0:3,0:0:0:0:
104,160,68472,2,0,P|112:104|120:24,1,135,8|0,0:0|0:0,0:0:0:0:
70,200,68785,2,0,P|63:156|55:112,1,90,4|4,0:3|0:3,0:0:0:0:
44,340,69097,1,8,0:0:0:0:
208,152,69253,6,0,P|188:232|168:344,1,180,6|4,0:0|0:3,0:0:0:0:
464,304,69722,2,0,P|420:276|360:256,1,90,8|2,0:0|0:0,0:0:0:0:
208,356,70035,2,0,P|254:331|301:289,1,90,4|8,0:3|0:0,0:0:0:0:
348,32,70347,1,8,0:0:0:0:
348,32,70425,1,0,0:0:0:0:
348,32,70503,6,0,P|308:84|300:224,1,180,6|4,0:0|0:3,0:0:0:0:
200,316,70972,2,0,P|144:308|88:300,1,90,8|2,0:0|0:2,0:0:0:0:
36,136,71285,1,4,0:3:0:0:
172,232,71441,1,4,0:3:0:0:
304,104,71597,1,8,0:0:0:0:
476,248,71753,6,0,P|440:304|324:300,1,180,6|4,0:0|0:3,0:0:0:0:
196,112,72222,1,8,0:3:0:0:
383,224,72378,2,0,P|419:142|405:55,1,180,6|4,0:0|0:3,0:0:0:0:
144,24,72847,1,8,0:0:0:0:
312,128,73003,6,0,P|272:164|116:164,1,202.500007724762,6|0,0:0|0:0,0:0:0:0:
8,44,73785,1,2,0:0:0:0:
52,120,73941,1,2,0:0:0:0:
52,208,74097,1,4,0:3:0:0:
20,288,74253,6,0,B|92:304|92:304|116:348|116:348|148:320|212:328,1,202.500007724762,6|0,0:0|0:0,0:0:0:0:
400,364,75035,2,0,L|416:224,1,135.000005149842,2|0,0:0|0:0,0:0:0:0:
432,100,75503,1,2,0:0:0:0:
432,100,75581,1,2,0:0:0:0:
432,100,75660,1,2,0:0:0:0:
168,128,88160,5,6,0:0:0:0:
168,128,88472,1,4,0:3:0:0:
344,256,88785,1,2,0:0:0:0:
344,256,89097,1,8,0:3:0:0:
256,192,89253,1,0,0:0:0:0:
320,104,89410,5,2,0:0:0:0:
192,280,89722,1,8,0:3:0:0:
120,56,90035,1,2,0:0:0:0:
176,188,90347,2,0,L|168:128,1,53.9999983520508,8|0,0:3|0:0,0:0:0:0:
120,56,90660,5,2,0:0:0:0:
56,272,90972,1,8,0:3:0:0:
264,156,91285,1,2,0:0:0:0:
176,368,91597,2,0,L|236:356,1,53.9999983520508,8|4,0:3|0:3,0:0:0:0:
312,340,91910,5,2,0:0:0:0:
176,168,92222,2,0,L|184:104,2,53.9999983520508,8|0|2,0:3|0:0|0:0,0:0:0:0:
196,264,92691,1,0,0:0:0:0:
196,264,92769,1,0,0:0:0:0:
196,264,92847,2,0,L|256:252,1,53.9999983520508,8|2,0:3|0:0,0:0:0:0:
400,184,93160,6,0,P|424:232|416:304,1,107.999996704102,4|8,0:0|0:3,0:0:0:0:
168,372,93785,2,0,P|144:324|152:252,1,107.999996704102,2|2,0:0|0:0,0:0:0:0:
180,188,94253,1,8,0:3:0:0:
220,68,94410,6,0,L|112:84,1,107.999996704102,8|2,0:3|0:0,0:0:0:0:
292,160,95035,2,0,L|398:144,1,107.999996704102,2|8,0:0|0:3,0:0:0:0:
398,144,95503,1,8,0:3:0:0:
473,301,95660,6,0,L|480:248,1,53.9999983520508,6|0,0:0|0:0,0:0:0:0:
398,144,95972,6,0,L|404:206,1,62.9999980773926,8|0,0:3|0:0,0:0:0:0:
360,372,96285,6,0,P|341:341|308:296,1,72,4|0,0:3|0:0,0:0:0:0:
124,272,96597,6,0,P|160:274|208:280,1,80.9999975280763,8|0,0:3|0:0,0:0:0:0:
264,84,96910,5,12,0:0:0:0:
32,204,97222,1,12,0:0:0:0:
392,288,97535,1,12,0:0:0:0:
392,288,97691,2,0,P|328:296|288:304,1,90,12|0,0:0|0:0,0:0:0:0:
144,352,98003,6,0,P|196:364|280:256,1,180,14|0,0:0|0:0,0:0:0:0:
208,96,98472,2,0,P|168:140|180:208,1,108,8|0,0:0|0:0,0:0:0:0:
176,212,98785,2,0,P|216:204|248:200,2,72,0|4|2,0:0|0:3|0:0,0:0:0:0:
84,268,99253,6,0,P|72:228|76:188,1,72,8|0,0:2|0:0,0:0:0:0:
48,68,99566,1,0,0:0:0:0:
48,68,99722,2,0,L|128:76,1,72,8|2,0:0|0:0,0:0:0:0:
292,168,100035,1,2,0:0:0:0:
168,136,100191,1,4,0:3:0:0:
312,64,100347,1,8,0:0:0:0:
420,204,100503,5,2,0:0:0:0:
420,204,100581,1,0,0:0:0:0:
420,204,100660,2,0,L|428:128,1,72,4|0,0:3|0:0,0:0:0:0:
472,268,100972,2,0,P|420:252|356:316,1,144,8|2,0:0|0:2,0:0:0:0:
357,306,101441,1,4,0:3:0:0:
288,232,101597,1,4,0:3:0:0:
240,380,101753,6,0,P|236:320|232:232,1,144,8|0,0:0|0:0,0:0:0:0:
244,60,102222,1,8,0:0:0:0:
244,60,102378,1,8,0:0:0:0:
232,236,102535,1,12,0:3:0:0:
292,156,102691,1,4,0:3:0:0:
248,372,102847,1,8,0:0:0:0:
156,200,103003,1,2,0:0:0:0:
112,340,103160,5,6,0:0:0:0:
200,288,103316,1,0,0:0:0:0:
296,320,103472,2,0,P|368:340|424:292,1,144,8|4,0:0|0:3,0:0:0:0:
372,112,103941,1,4,0:3:0:0:
352,268,104097,1,2,0:0:0:0:
464,204,104253,6,0,B|408:188|408:188|380:200|380:200|320:184,1,144,8|4,0:0|0:3,0:0:0:0:
236,68,104722,2,0,P|244:116|260:164,1,72,8|0,0:0|0:0,0:0:0:0:
220,296,105035,2,0,P|231:261|246:229,1,72,4|4,0:3|0:3,0:0:0:0:
144,192,105347,2,0,P|88:204|48:212,1,72,8|2,0:0|0:0,0:0:0:0:
128,332,105660,5,6,0:2:0:0:
312,360,105816,1,4,0:3:0:0:
196,268,105972,1,8,0:0:0:0:
320,156,106128,1,0,0:0:0:0:
220,352,106285,2,0,P|216:304|208:248,1,72,4|0,0:3|0:0,0:0:0:0:
184,84,106597,1,8,0:0:0:0:
152,184,106753,6,0,B|220:200|260:152|260:152|348:176,1,180,6|4,0:0|0:3,0:0:0:0:
504,188,107222,1,8,0:0:0:0:
328,252,107378,1,4,0:3:0:0:
508,308,107535,1,8,0:0:0:0:
352,176,107691,1,4,0:3:0:0:
496,88,107847,1,4,0:3:0:0:
432,264,108003,1,0,0:0:0:0:
248,160,108160,5,6,0:0:0:0:
44,296,108472,2,0,L|56:376,1,67.5000025749208,4|2,0:3|0:0,0:0:0:0:
128,236,108785,2,0,L|149:300,1,67.5000025749208,4|0,0:3|0:0,0:0:0:0:
200,148,109097,2,0,L|232:207,1,67.5000025749208,4|0,0:3|0:0,0:0:0:0:
240,24,109410,5,4,0:3:0:0:
272,360,109722,1,4,0:3:0:0:
184,288,109878,1,2,0:0:0:0:
316,228,110035,1,4,0:3:0:0:
264,316,110191,1,2,0:0:0:0:
176,204,110347,1,4,0:3:0:0:
304,252,110503,1,6,0:0:0:0:
236,136,110660,6,0,P|228:84|220:-12,1,135.000005149842,4|4,0:3|0:3,0:0:0:0:
220,1,111128,1,2,0:0:0:0:
328,192,111285,2,0,P|323:223|318:280,1,67.5000025749208,4|8,0:3|0:3,0:0:0:0:
416,72,111597,1,8,0:3:0:0:
220,32,111753,6,0,P|184:56|180:164,1,135.000005149842,6|0,0:0|0:0,0:0:0:0:
167,141,112222,1,4,0:3:0:0:
228,280,112378,1,2,0:0:0:0:
248,112,112535,1,4,0:3:0:0:
48,200,112691,2,0,L|136:208,1,67.5000025749208,4|4,0:3|0:3,0:0:0:0:
228,280,113003,1,4,0:3:0:0:
228,280,113081,1,4,0:3:0:0:
228,280,113160,6,0,L|295:273,1,67.5000025749208,6|0,0:0|0:0,0:0:0:0:
448,224,113472,1,8,0:0:0:0:
448,224,113628,1,8,0:0:0:0:
304,176,113785,1,8,0:2:0:0:
268,360,113941,1,8,0:2:0:0:
160,232,114097,1,8,0:0:0:0:
376,288,114253,6,0,P|420:236|396:96,1,180,14|8,0:0|0:0,0:0:0:0:
208,48,114722,1,8,0:0:0:0:
304,208,114878,1,8,0:0:0:0:
132,280,115035,1,8,0:0:0:0:
172,116,115191,1,8,0:0:0:0:
264,328,115347,1,8,0:0:0:0:
36,272,115503,6,0,P|64:216|220:240,1,215.999993408203,14|4,0:0|0:3,0:0:0:0:
256,352,115972,1,8,0:0:0:0:
132,280,116128,1,4,0:3:0:0:
132,280,116206,1,0,0:0:0:0:
132,280,116285,2,0,P|116:256|132:192,1,53.9999983520508,8|8,0:0|0:0,0:0:0:0:
200,140,116441,2,0,L|254:150,1,53.9999983520508,8|8,0:0|0:0,0:0:0:0:
364,72,116597,5,8,0:0:0:0:
345,22,116675,1,8,0:0:0:0:
301,0,116753,1,8,0:0:0:0:
248,0,116831,1,8,0:0:0:0:
206,27,116910,6,0,P|192:92|64:64,1,216,6|4,0:0|0:3,0:0:0:0:
136,44,117456,1,0,0:0:0:0:
136,44,117535,1,8,0:0:0:0:
184,200,117691,6,0,L|248:192,1,53.9999983520508,4|0,0:3|0:0,0:0:0:0:
504,188,118003,6,0,B|452:220|392:184|392:184|320:224,1,180,6|4,0:0|0:3,0:0:0:0:
96,128,118472,2,0,P|112:184|144:236,1,90,8|2,0:0|0:0,0:0:0:0:
248,372,118785,2,0,P|267:331|278:288,1,90,4|4,0:3|0:3,0:0:0:0:
280,252,119019,1,0,0:0:0:0:
272,216,119097,1,8,0:0:0:0:
72,296,119253,6,0,P|40:264|68:128,1,180,4|4,0:3|0:3,0:0:0:0:
360,68,119722,2,0,L|252:88,1,90,8|2,0:0|0:0,0:0:0:0:
126,211,120035,1,4,0:3:0:0:
320,264,120191,1,4,0:3:0:0:
260,52,120347,1,8,0:0:0:0:
232,352,120503,6,0,P|216:288|220:168,1,180,4|4,0:3|0:3,0:0:0:0:
412,100,120972,1,8,0:0:0:0:
344,220,121128,1,2,0:0:0:0:
296,120,121285,1,4,0:3:0:0:
436,216,121441,1,0,0:0:0:0:
264,284,121597,1,8,0:0:0:0:
416,360,121753,6,0,B|384:316|384:316|312:288|256:332,1,180,4|4,0:3|0:3,0:0:0:0:
112,368,122222,2,0,P|100:304|88:256,1,90,8|2,0:0|0:0,0:0:0:0:
196,72,122535,2,0,P|203:116|213:160,1,90,4|0,0:3|0:0,0:0:0:0:
72,44,122847,1,8,0:0:0:0:
228,176,123003,6,0,P|280:180|272:76,1,180,2|2,0:0|0:0,0:0:0:0:
120,168,123472,1,8,0:0:0:0:
284,264,123628,1,2,0:0:0:0:
152,376,123785,2,0,P|155:331|160:286,1,90,4|4,0:3|0:3,0:0:0:0:
200,124,124097,1,8,0:0:0:0:
60,272,124253,6,0,P|12:228|28:112,1,180,4|4,0:3|0:3,0:0:0:0:
220,8,124722,1,8,0:2:0:0:
240,172,124878,1,0,0:0:0:0:
112,120,125035,2,0,L|16:104,2,90,4|0|8,0:3|0:0|0:0,0:0:0:0:
240,172,125503,1,2,0:0:0:0:
216,40,125660,5,4,0:3:0:0:
416,144,125816,2,0,L|400:268,1,90,2|8,0:0|0:0,0:0:0:0:
344,40,126128,1,0,0:0:0:0:
288,168,126285,1,4,0:3:0:0:
436,116,126441,1,4,0:3:0:0:
392,312,126597,1,8,0:0:0:0:
180,248,126753,6,0,P|208:204|312:200,1,161.999995056153,12|0,0:0|0:0,0:0:0:0:
264,276,127066,2,0,L|140:268,1,107.999996704102,12|0,0:0|0:0,0:0:0:0:
120,104,127378,1,12,0:0:0:0:
368,280,127535,2,0,L|352:348,1,53.9999983520508,8|8,0:0|0:0,0:0:0:0:
309,198,127691,5,8,0:0:0:0:
305,154,127769,1,8,0:0:0:0:
301,110,127847,1,8,0:0:0:0:
297,66,127925,1,8,0:0:0:0:
293,22,128003,6,0,P|244:-12|184:96,1,215.999993408203,6|4,0:0|0:3,0:0:0:0:
133,294,128472,1,8,0:0:0:0:
181,91,128628,1,2,0:2:0:0:
77,210,128785,1,4,0:3:0:0:
277,154,128941,1,4,0:3:0:0:
105,34,129097,1,8,0:0:0:0:
221,230,129253,6,0,P|277:250|373:174,1,180,4|4,0:3|0:3,0:0:0:0:
312,12,129722,2,0,P|324:68|336:116,1,90,8|0,0:0|0:0,0:0:0:0:
344,212,130035,1,4,0:3:0:0:
444,48,130191,1,4,0:3:0:0:
252,180,130347,1,8,0:0:0:0:
488,280,130503,6,0,P|432:272|296:256,1,180,4|4,0:3|0:3,0:0:0:0:
88,164,130972,1,8,0:0:0:0:
136,328,131128,1,2,0:0:0:0:
264,212,131285,1,4,0:3:0:0:
60,256,131441,1,0,0:0:0:0:
188,136,131597,1,8,0:0:0:0:
236,308,131753,6,0,P|296:320|396:236,1,180,4|4,0:3|0:3,0:0:0:0:
432,32,132222,2,0,L|296:60,1,135,8|0,0:0|0:0,0:0:0:0:
208,36,132535,2,0,P|232:92|228:188,1,135,4|0,0:3|0:0,0:0:0:0:
200,248,132847,1,8,0:0:0:0:
16,176,133003,6,0,P|20:116|136:136,1,180,6|4,0:0|0:3,0:0:0:0:
149,277,133472,2,0,P|154:232|160:188,1,90,8|2,0:0|0:0,0:0:0:0:
92,360,133785,1,4,0:3:0:0:
276,248,133941,1,4,0:3:0:0:
76,152,134097,1,8,0:2:0:0:
232,352,134253,6,0,B|300:336|300:336|332:352|332:352|428:328,1,180,6|4,0:0|0:3,0:0:0:0:
408,44,134722,1,8,0:0:0:0:
356,252,134878,1,2,0:2:0:0:
248,112,135035,1,4,0:3:0:0:
472,176,135191,1,8,0:2:0:0:
268,244,135347,1,8,0:0:0:0:
348,12,135503,6,0,P|384:76|372:188,1,180,6|4,0:0|0:3,0:0:0:0:
304,256,135972,2,0,L|200:248,1,90,8|4,0:0|0:3,0:0:0:0:
52,128,136285,2,0,L|140:112,1,90,2|4,0:0|0:3,0:0:0:0:
252,88,136597,1,8,0:0:0:0:
76,32,136753,6,0,P|104:120|124:224,1,180,6|4,0:0|0:3,0:0:0:0:
304,264,137222,1,8,0:3:0:0:
52,300,137378,2,0,P|84:244|212:232,1,180,6|4,0:0|0:3,0:0:0:0:
296,352,137847,1,8,0:0:0:0:
480,252,138003,6,0,B|500:220|500:220|464:224|464:224|412:184|332:204,1,202.500007724762,6|0,0:0|0:0,0:0:0:0:
116,88,138785,5,2,0:0:0:0:
180,32,138941,1,2,0:0:0:0:
264,64,139097,1,8,0:3:0:0:
196,120,139253,6,0,P|168:176|232:312,1,202.500007724762,6|0,0:0|0:0,0:0:0:0:
376,372,140035,1,2,0:0:0:0:
456,216,140386,2,0,L|464:120,1,84.3750032186509,0|0,0:0|0:0,0:0:0:0:
88,80,140972,5,2,0:0:0:0:
344,336,141441,1,2,0:0:0:0:
168,336,141910,1,8,0:0:0:0:
424,80,142222,5,2,0:0:0:0:
424,80,142379,1,8,0:3:0:0:
88,80,142691,1,4,0:3:0:0:
88,80,142848,1,6,0:0:0:0:
88,156,152535,6,0,P|84:128|72:56,2,60,8|8|8,0:0|0:0|0:0,0:0:0:0:
172,264,152847,2,0,P|167:293|163:323,2,60,8|8|8,0:0|0:0|0:0,0:0:0:0:
256,120,153160,2,0,P|268:72|284:32,2,60,8|8|8,0:0|0:0|0:0,0:0:0:0:
392,216,153472,2,0,P|398:245|407:273,2,60,8|8|8,0:0|0:0|0:0,0:0:0:0:
472,92,153785,6,0,P|416:68|352:160,1,180,14|4,0:0|0:3,0:0:0:0:
416,284,154253,2,0,P|344:280|224:268,1,180,8|4,0:0|0:3,0:0:0:0:
112,248,154722,1,8,0:0:0:0:
164,40,155035,5,4,0:3:0:0:
164,40,155191,2,0,P|176:112|180:148,2,90,8|0|4,0:0|0:0|0:3,0:0:0:0:
144,244,155660,2,0,P|150:199|158:155,1,90,8|4,0:0|0:3,0:0:0:0:
352,172,155972,2,0,P|345:127|337:83,1,90,8|0,0:0|0:0,0:0:0:0:
292,284,156285,6,0,P|352:308|452:240,1,180,14|4,0:0|0:3,0:0:0:0:
360,44,156753,2,0,B|324:100|324:100|355:208,1,180,8|4,0:0|0:3,0:0:0:0:
464,348,157222,2,0,L|472:256,1,90,8|0,0:0|0:0,0:0:0:0:
480,160,157535,5,4,0:3:0:0:
348,300,157691,2,0,B|252:324|264:252|144:292,1,180,8|4,0:0|0:3,0:0:0:0:
44,300,158160,5,8,0:0:0:0:
240,184,158316,1,4,0:3:0:0:
32,164,158472,5,8,0:0:0:0:
212,292,158628,1,0,0:0:0:0:
268,48,158785,6,0,B|212:28|212:28|236:184,1,180,12|4,0:0|0:3,0:0:0:0:
352,312,159253,2,0,L|368:120,1,180,8|4,0:0|0:3,0:0:0:0:
366,132,159722,1,8,0:0:0:0:
240,232,159878,1,0,0:0:0:0:
212,88,160035,5,4,0:3:0:0:
248,256,160191,2,0,P|184:244|28:228,1,180,8|4,0:0|0:3,0:0:0:0:
40,344,160660,2,0,P|84:344|140:320,1,90,8|4,0:0|0:3,0:0:0:0:
220,156,160972,2,0,P|264:156|320:180,1,90,8|0,0:0|0:0,0:0:0:0:
424,336,161285,6,0,P|464:312|448:192,1,180,12|4,0:0|0:3,0:0:0:0:
352,252,161753,2,0,P|284:244|164:236,1,180,8|4,0:0|0:3,0:0:0:0:
236,52,162222,2,0,P|248:100|244:160,1,90,8|0,0:0|0:0,0:0:0:0:
72,284,162535,5,4,0:3:0:0:
152,144,162691,1,8,0:0:0:0:
288,240,162847,1,8,0:0:0:0:
124,224,163003,1,8,0:3:0:0:
304,88,163160,5,8,0:3:0:0:
200,260,163316,1,8,0:3:0:0:
392,212,163472,1,12,0:0:0:0:
200,80,163628,1,0,0:0:0:0:
256,352,163785,6,0,P|244:304|284:172,1,180,12|4,0:0|0:3,0:0:0:0:
388,88,164253,2,0,P|432:104|404:224,1,180,8|4,0:0|0:3,0:0:0:0:
344,268,164722,2,0,L|232:260,1,90,8|0,0:0|0:0,0:0:0:0:
96,148,165035,5,4,0:3:0:0:
96,148,165191,2,0,P|104:208|116:328,1,180,8|4,0:0|0:3,0:0:0:0:
16,291,165660,2,0,P|10:247|6:202,1,90,8|4,0:0|0:3,0:0:0:0:
192,176,165972,2,0,P|197:220|201:265,1,90,12|0,0:0|0:0,0:0:0:0:
120,348,166285,6,0,P|92:312|116:176,1,180,12|4,0:0|0:3,0:0:0:0:
328,168,166753,2,0,P|310:210|181:257,1,180,8|4,0:0|0:3,0:0:0:0:
72,72,167222,2,0,P|117:65|222:154,1,180,8|4,0:0|0:3,0:0:0:0:
93,274,167691,2,0,P|94:229|106:186,2,90,8|0|4,0:0|0:0|0:3,0:0:0:0:
312,348,168160,5,8,0:2:0:0:
328,240,168316,1,4,0:3:0:0:
220,224,168472,1,8,0:3:0:0:
204,332,168628,1,8,0:3:0:0:
312,348,168785,6,0,L|428:336,1,90,12|4,0:0|0:3,0:0:0:0:
401,338,169097,1,4,0:3:0:0:
456,108,169253,6,0,L|340:96,1,90,12|4,0:0|0:3,0:0:0:0:
367,98,169565,1,4,0:3:0:0:
224,204,169722,5,12,0:0:0:0:
352,276,169878,1,4,0:3:0:0:
348,132,170035,1,4,0:3:0:0:
212,100,170191,5,12,0:0:0:0:
272,288,170347,1,4,0:3:0:0:
88,236,170503,1,4,0:3:0:0:
320,176,170660,5,12,0:2:0:0:
168,304,170816,1,4,0:3:0:0:
380,348,170972,1,12,0:2:0:0:
200,208,171128,1,4,0:3:0:0:
296,80,171285,5,12,0:2:0:0:
292,188,171441,2,0,P|236:184|188:176,1,90,4|4,0:3|0:3,0:0:0:0:
56,76,171753,2,0,P|100:69|145:66,1,90,8|4,0:0|0:3,0:0:0:0:
136,280,172066,1,4,0:3:0:0:
28,204,172222,1,8,0:0:0:0:
224,136,172378,1,4,0:3:0:0:
200,364,172535,5,4,0:3:0:0:
140,192,172691,1,8,0:0:0:0:
208,352,172847,1,4,0:3:0:0:
248,112,173003,1,4,0:3:0:0:
248,112,173081,1,0,0:0:0:0:
248,112,173160,1,8,0:0:0:0:
224,328,173316,1,8,0:0:0:0:
360,188,173472,1,0,0:0:0:0:
172,44,173628,5,12,0:0:0:0:
172,44,174097,2,0,P|216:80|296:76,1,135.000005149842,0|0,0:0|0:0,0:0:0:0:
408,40,174722,1,0,0:0:0:0:
408,40,174878,2,0,L|392:188,1,135.000005149842,0|0,0:0|0:0,0:0:0:0:
380,256,175347,1,0,0:0:0:0:
416,328,175503,1,4,0:3:0:0:
348,372,175660,2,0,L|272:360,1,67.5000025749208,8|4,0:0|0:3,0:0:0:0:
281,361,176128,6,0,P|232:376|120:272,1,202.500007724762,12|0,0:0|0:0,0:0:0:0:
172,56,176910,1,0,0:0:0:0:
172,56,177066,1,0,0:0:0:0:
20,172,177378,5,4,0:3:0:0:
20,172,177456,1,0,0:0:0:0:
20,172,177535,2,0,L|96:184,1,67.5000025749208,8|4,0:2|0:3,0:0:0:0:
188,281,177847,2,0,L|112:293,1,67.5000025749208,0|12,0:0|0:0,0:0:0:0:
264,204,178160,1,0,0:0:0:0:
224,372,178316,1,4,0:3:0:0:
244,192,178472,1,4,0:3:0:0:
344,304,178628,6,0,P|400:324|504:240,1,180,6|4,0:0|0:3,0:0:0:0:
416,104,179097,2,0,P|396:144|408:208,1,90,8|0,0:0|0:0,0:0:0:0:
416,300,179410,2,0,L|324:288,1,90,2|4,0:2|0:3,0:0:0:0:
172,188,179722,1,8,0:0:0:0:
200,320,179878,1,2,0:0:0:0:
296,132,180035,5,4,0:3:0:0:
280,228,180191,1,2,0:0:0:0:
156,56,180347,1,8,0:0:0:0:
180,224,180503,1,0,0:0:0:0:
320,144,180660,2,0,P|368:136|420:128,2,90,4|4|8,0:3|0:3|0:0,0:0:0:0:
96,224,181128,6,0,P|160:236|280:268,1,180,4|4,0:3|0:3,0:0:0:0:
464,276,181597,1,8,0:0:0:0:
368,308,181753,1,2,0:0:0:0:
284,360,181910,1,2,0:0:0:0:
336,116,182066,1,4,0:3:0:0:
368,308,182222,1,2,0:0:0:0:
184,236,182378,1,8,0:0:0:0:
184,236,182535,6,0,L|288:220,1,90,4|2,0:3|0:0,0:0:0:0:
372,184,182847,2,0,L|283:197,1,90,8|8,0:0|0:0,0:0:0:0:
212,72,183160,1,4,0:3:0:0:
272,222,183316,1,4,0:3:0:0:
332,372,183472,1,8,0:0:0:0:
124,232,183628,6,0,B|92:284|108:352|108:352|176:328,1,180,6|4,0:2|0:3,0:0:0:0:
324,292,184097,1,8,0:0:0:0:
220,224,184253,1,2,0:0:0:0:
236,328,184410,1,4,0:3:0:0:
280,164,184566,1,4,0:3:0:0:
124,224,184722,1,8,0:0:0:0:
304,276,184878,1,2,0:0:0:0:
164,120,185035,5,2,0:0:0:0:
166,136,185113,1,2,0:0:0:0:
172,152,185191,2,0,P|208:156|272:124,1,90,12|2,0:0|0:0,0:0:0:0:
344,64,185503,1,8,0:0:0:0:
284,288,185660,1,8,0:3:0:0:
488,164,185816,2,0,P|428:180|372:200,1,90,8|4,0:0|0:3,0:0:0:0:
192,352,186128,1,14,0:0:0:0:
256,192,186285,12,8,187378,0:0:0:0:
256,192,187535,5,12,0:2:0:0:
184,176,196128,5,4,0:3:0:0:
184,176,196206,1,4,0:3:0:0:
184,176,196285,1,12,0:2:0:0:
328,208,196441,1,4,0:3:0:0:
164,220,196597,1,8,0:2:0:0:
348,164,196753,1,4,0:3:0:0:
120,128,196910,1,8,0:0:0:0:
392,256,197066,1,8,0:0:0:0:
92,284,197222,1,8,0:0:0:0:
420,100,197378,6,0,P|484:152|456:284,1,202.500007724762,12|0,0:0|0:0,0:0:0:0:
416,356,197691,2,0,B|344:340|344:340|296:356|296:356|200:332,1,202.500007724762,12|0,0:0|0:0,0:0:0:0:
116,352,198003,1,12,0:0:0:0:
20,184,198160,6,0,P|56:156|132:172,1,67.5000025749208,4|0,0:0|0:0,0:0:0:0:
256,52,198316,2,0,P|255:97|194:146,1,67.5000025749208,8|8,0:0|0:0,0:0:0:0:
145,287,198472,2,0,L|133:203,1,67.5000025749208,8|8,0:0|0:0,0:0:0:0:
163,71,198628,6,0,L|145:287,1,215.999993408203,12|4,0:0|0:3,0:0:0:0:
288,176,199097,1,8,0:0:0:0:
336,340,199253,1,2,0:0:0:0:
176,264,199410,1,4,0:3:0:0:
336,168,199566,1,4,0:3:0:0:
152,104,199722,1,8,0:0:0:0:
280,280,199878,6,0,P|332:272|468:256,1,180,4|4,0:3|0:3,0:0:0:0:
416,28,200347,1,8,0:0:0:0:
336,168,200503,1,2,0:0:0:0:
316,56,200660,2,0,P|332:112|348:184,1,90,4|4,0:3|0:3,0:0:0:0:
216,8,200972,1,8,0:0:0:0:
194,205,201128,6,0,P|234:229|338:153,1,180,4|4,0:3|0:3,0:0:0:0:
104,96,201597,1,8,0:0:0:0:
256,152,201753,1,2,0:0:0:0:
76,272,201910,1,4,0:3:0:0:
168,152,202066,1,0,0:0:0:0:
248,328,202222,1,8,0:0:0:0:
164,128,202378,6,0,P|172:184|184:328,1,180,4|4,0:3|0:3,0:0:0:0:
288,28,202847,2,0,P|272:92|264:140,1,90,8|2,0:0|0:0,0:0:0:0:
84,244,203160,2,0,P|75:199|63:156,1,90,4|4,0:3|0:3,0:0:0:0:
120,52,203472,1,8,0:0:0:0:
332,172,203628,6,0,P|284:156|208:260,1,180,6|4,0:0|0:3,0:0:0:0:
292,360,204097,2,0,L|300:240,1,90,8|0,0:0|0:0,0:0:0:0:
192,100,204410,1,4,0:3:0:0:
220,268,204566,1,4,0:3:0:0:
268,40,204722,1,8,0:0:0:0:
80,200,204878,6,0,B|144:180|144:180|184:192|184:192|260:168,1,180,6|4,0:0|0:3,0:0:0:0:
80,72,205347,2,0,L|184:84,1,90,8|0,0:0|0:0,0:0:0:0:
20,288,205660,1,4,0:3:0:0:
192,256,205816,1,4,0:3:0:0:
24,168,205972,1,8,0:0:0:0:
132,352,206128,6,0,P|196:344|324:332,1,180,6|4,0:0|0:3,0:0:0:0:
464,220,206597,2,0,P|424:215|346:207,1,90,8|2,0:0|0:0,0:0:0:0:
204,88,206910,2,0,P|228:128|240:240,1,135,2|0,0:0|0:0,0:0:0:0:
216,288,207222,1,8,0:0:0:0:
0,216,207378,6,0,P|32:172|152:184,1,180,6|4,0:0|0:3,0:0:0:0:
216,320,207847,1,8,0:3:0:0:
88,248,208003,2,0,B|44:196|44:196|72:72,1,180,6|4,0:0|0:3,0:0:0:0:
256,20,208472,1,8,0:0:0:0:
443,86,208628,6,0,B|468:196|468:196|428:224|416:268,1,202.500007724762,6|0,0:2|0:0,0:0:0:0:
208,360,209410,1,0,0:0:0:0:
124,340,209566,1,0,0:0:0:0:
184,276,209722,1,4,0:3:0:0:
208,360,209878,6,0,P|232:320|156:184,1,202.500007724762,6|0,0:0|0:0,0:0:0:0:
32,88,210660,2,0,P|64:76|172:52,1,135.000005149842,0|0,0:0|0:3,0:0:0:0:
248,40,211128,1,6,0:2:0:0:
256,192,211285,12,0,212378,0:0:0:0:
412,132,212535,5,0,0:0:0:0:
100,252,212847,1,8,0:0:0:0:
228,96,213160,5,8,0:0:0:0:
284,288,213316,1,8,0:0:0:0:
40,304,213628,6,0,P|20:240|96:172,1,180,6|4,0:0|0:3,0:0:0:0:
194,294,214097,2,0,L|284:288,1,90,8|2,0:0|0:0,0:0:0:0:
400,200,214410,2,0,L|310:193,1,90,4|4,0:3|0:3,0:0:0:0:
240,120,214722,1,8,0:0:0:0:
156,176,214878,6,0,P|136:116|212:24,1,180,4|4,0:3|0:3,0:0:0:0:
392,180,215347,2,0,L|380:280,1,90,10|4,0:2|0:3,0:0:0:0:
260,140,215660,1,2,0:0:0:0:
432,88,215816,1,4,0:3:0:0:
372,284,215972,2,0,P|315:277|259:263,1,90,8|2,0:2|0:2,0:0:0:0:
156,112,216285,6,0,P|164:156|169:200,1,90,6|2,0:0|0:0,0:0:0:0:
188,384,216597,2,0,P|192:339|201:295,1,90,8|0,0:0|0:0,0:0:0:0:
212,272,216831,1,4,0:3:0:0:
228,248,216910,1,4,0:3:0:0:
320,340,217066,1,4,0:3:0:0:
260,152,217222,1,8,0:0:0:0:
108,256,217378,1,2,0:0:0:0:
148,112,217535,6,0,L|136:12,1,90,12|4,0:0|0:3,0:0:0:0:
360,144,217847,2,0,L|349:233,1,90,12|4,0:0|0:3,0:0:0:0:
204,340,218160,1,12,0:2:0:0:
264,172,218316,1,4,0:3:0:0:
424,280,218472,1,4,0:3:0:0:
344,320,218628,6,0,P|332:268|428:192,1,180,6|4,0:0|0:3,0:0:0:0:
432,20,219097,2,0,P|452:64|448:120,1,90,8|2,0:0|0:0,0:0:0:0:
424,280,219410,1,4,0:3:0:0:
296,140,219566,1,4,0:3:0:0:
416,191,219722,1,8,0:0:0:0:
248,264,219878,6,0,L|148:276,2,90,4|2|4,0:3|0:0|0:3,0:0:0:0:
408,360,220347,2,0,L|318:349,1,90,8|4,0:2|0:3,0:0:0:0:
192,172,220660,1,2,0:0:0:0:
216,360,220816,1,4,0:3:0:0:
364,240,220972,1,8,0:2:0:0:
364,240,221128,1,2,0:0:0:0:
216,156,221285,6,0,P|208:116|204:64,1,90,6|2,0:0|0:0,0:0:0:0:
392,164,221597,2,0,P|388:208|380:252,1,90,8|8,0:0|0:0,0:0:0:0:
172,320,221910,1,4,0:3:0:0:
304,200,222066,1,4,0:3:0:0:
104,124,222222,1,8,0:0:0:0:
312,220,222378,1,0,0:0:0:0:
308,236,222456,1,8,0:3:0:0:
304,256,222535,1,4,0:3:0:0:
52,213,222691,5,2,0:0:0:0:
58,177,222769,1,4,0:3:0:0:
76,147,222847,1,4,0:3:0:0:
104,124,222925,1,0,0:0:0:0:
138,114,223003,1,2,0:0:0:0:
174,116,223081,1,0,0:0:0:0:
207,131,223159,5,4,0:3:0:0:
152,212,223316,1,4,0:3:0:0:
72,24,223472,2,0,L|184:36,1,90,12|0,0:0|0:0,0:0:0:0:
276,48,224410,5,14,0:0:0:0:
256,192,224566,12,0,226128,0:0:0:0:
352,152,226285,5,12,0:0:0:0:
140,240,226441,1,0,0:0:0:0:
332,320,226597,1,4,0:3:0:0:
228,40,226753,1,14,0:0:0:0:
