osu file format v14

[General]
AudioFilename: audio.mp3
AudioLeadIn: 0
PreviewTime: 52310
Countdown: 0
SampleSet: Soft
StackLeniency: 0.7
Mode: 0
LetterboxInBreaks: 0
WidescreenStoryboard: 0

[Editor]
DistanceSpacing: 1.1
BeatDivisor: 2
GridSize: 16
TimelineZoom: 1.5

[Metadata]
Title:Key of Truth
TitleUnicode:Key of Truth
Artist:sweet ARMS
ArtistUnicode:sweet ARMS
Creator:sahuang
Version:Normal
Source:デート・ア・ライブTwin Edition凜緒リンカーネイション
Tags:DATE A LIVE Twin Edition Rio Reincarnation game opening theme song ps vita kawaiwkyik rizia wkyik gaia my angel azusa Celsiuslk
BeatmapID:1473765
BeatmapSetID:665179

[Difficulty]
HPDrainRate:2
CircleSize:3
OverallDifficulty:2
ApproachRate:2.5
SliderMultiplier:0.75
SliderTickRate:1

[Events]
//Background and Video events
0,0,"bg.jpg",0,0
//Break Periods
2,23160,30410
2,78360,86660
2,143985,151035
2,188628,195878
//Storyboard Layer 0 (Background)
//Storyboard Layer 1 (Fail)
//Storyboard Layer 2 (Pass)
//Storyboard Layer 3 (Foreground)
//Storyboard Sound Samples

[TimingPoints]
660,312.5,4,2,1,40,1,0
2378,-100,4,2,1,40,0,0
3003,-100,4,2,1,40,0,0
13003,-100,4,2,1,40,0,0
22847,-100,4,2,1,40,0,0
23160,-100,4,2,1,40,0,0
33003,-100,4,2,1,40,0,0
41753,-100,4,2,1,40,0,0
43160,-100,4,2,1,40,0,0
45660,-100,4,2,1,40,0,0
50503,-100,4,2,1,40,0,0
51910,-100,4,2,1,40,0,0
52535,-100,4,2,1,40,0,0
52847,-100,4,2,1,40,0,0
53003,-100,4,2,1,80,0,1
61753,-100,4,2,1,80,0,1
62066,-100,4,2,1,80,0,1
62378,-100,4,2,1,80,0,0
63003,-100,4,2,1,80,0,1
68003,-100,4,2,1,80,0,1
73003,-100,4,2,1,80,0,0
78160,-100,4,2,1,80,0,0
88160,-100,4,2,1,80,0,0
95660,-100,4,2,1,80,0,0
98003,-100,4,2,1,80,0,0
106753,-100,4,2,1,80,0,0
108160,-100,4,2,1,80,0,0
113160,-100,4,2,1,80,0,0
114253,-100,4,2,1,80,0,0
118003,-100,4,2,1,80,0,1
126753,-100,4,2,1,80,0,1
127066,-100,4,2,1,80,0,1
127378,-100,4,2,1,80,0,0
128003,-100,4,2,1,80,0,1
133003,-100,4,2,1,80,0,1
138003,-100,4,2,1,80,0,0
140503,-100,4,2,1,80,0,0
143785,312.5,4,2,1,70,1,0
143785,-100,4,2,1,70,0,0
152535,-100,4,2,1,70,0,0
152847,-100,4,2,1,70,0,0
153160,-100,4,2,1,70,0,0
153472,-100,4,2,1,70,0,0
153785,-100,4,2,1,70,0,0
163472,-100,4,2,1,70,0,0
163785,-100,4,2,1,70,0,0
166285,-100,4,2,1,70,0,0
168785,-100,4,2,1,70,0,0
171285,-100,4,2,1,70,0,0
173628,-100,4,2,1,70,0,0
176128,-100,4,2,1,70,0,0
183628,-100,4,2,1,70,0,0
186128,-100,4,2,1,70,0,0
188003,-100,4,2,1,70,0,0
196285,-100,4,2,1,70,0,0
197378,-100,4,2,1,70,0,0
197691,-100,4,2,1,70,0,0
198003,-100,4,2,1,70,0,0
198628,-100,4,2,1,70,0,1
208628,-100,4,2,1,70,0,0
223472,-100,4,2,1,70,0,0

[Colours]
Combo1 : 255,196,255
Combo2 : 0,128,128
Combo3 : 255,128,128
Combo4 : 0,64,128

[HitObjects]
94,140,3003,6,0,P|138:105|171:207,1,187.5,2|2,0:0|0:0,0:0:0:0:
131,302,4253,2,0,B|229:340|238:273|320:302,1,187.5,2|0,0:0|0:0,0:0:0:0:
423,356,5503,2,0,P|350:308|389:222,1,187.5,2|2,0:0|0:0,0:0:0:0:
319,118,6753,2,0,B|264:101|264:101|131:130,1,187.5,2|2,0:0|0:0,0:0:0:0:
50,217,8003,6,0,P|36:272|140:314,1,187.5,2|2,0:0|0:0,0:0:0:0:
252,271,9253,2,0,L|400:279,1,112.5,2|2,0:0|0:0,0:0:0:0:
438,240,10035,1,2,0:0:0:0:
461,161,10347,2,0,L|450:102,1,37.5,2|2,0:0|0:0,0:0:0:0:
256,192,10660,12,8,13003,0:0:0:0:
78,231,13785,6,0,L|182:218,1,75,4|8,0:3|0:0,0:0:0:0:
212,165,14410,2,0,L|316:178,1,75,0|8,0:0|0:0,0:0:0:0:
353,222,15035,2,0,P|359:265|340:326,1,75,4|8,0:3|0:0,0:0:0:0:
286,344,15660,6,0,P|238:320|135:330,1,150,6|4,0:0|0:3,0:0:0:0:
70,364,16597,1,8,0:0:0:0:
11,305,16910,2,0,P|22:262|20:210,1,75,12|12,0:0|0:0,0:0:0:0:
7,150,17535,2,0,L|8:94,1,37.5,12|8,0:0|0:0,0:0:0:0:
52,43,18003,6,0,P|93:31|182:50,1,112.5,6|8,0:0|0:0,0:0:0:0:
222,95,18785,2,0,P|263:107|340:92,1,112.5,4|4,0:3|0:3,0:0:0:0:
403,56,19566,1,4,0:3:0:0:
465,110,19878,2,0,L|473:236,1,112.5,2|8,0:0|0:0,0:0:0:0:
403,269,20660,6,0,P|365:266|302:277,2,75,6|8|4,0:0|0:0|0:3,0:0:0:0:
474,309,21597,1,8,0:0:0:0:
407,358,21910,2,0,P|369:361|306:350,2,75,4|8|8,0:3|0:0|0:0,0:0:0:0:
474,309,22847,1,12,0:0:0:0:
91,263,31910,6,0,L|184:255,1,75,12|12,0:0|0:0,0:0:0:0:
237,296,32535,2,0,P|258:288|283:287,1,37.5,12|12,0:0|0:0,0:0:0:0:
337,337,33003,6,0,L|333:191,1,112.5,14|8,0:0|0:0,0:0:0:0:
372,150,33785,2,0,P|382:106|280:52,1,150,2|4,0:0|0:3,0:0:0:0:
234,76,34722,1,8,0:0:0:0:
159,39,35035,2,0,P|119:30|64:34,1,75,4|8,0:3|0:0,0:0:0:0:
22,83,35660,6,0,L|30:188,1,75,4|8,0:3|0:0,0:0:0:0:
95,205,36285,2,0,L|87:310,1,75,4|0,0:3|0:0,0:0:0:0:
147,338,36910,2,0,B|202:322|202:322|254:347|312:330,2,150,0|4|6,0:0|0:3|0:0,0:0:0:0:
89,279,38472,5,8,0:0:0:0:
125,204,38785,2,0,L|210:190,1,75,4|2,0:3|0:0,0:0:0:0:
256,132,39410,2,0,B|334:98|341:160|413:126,1,150,0|4,0:0|0:3,0:0:0:0:
466,79,40347,1,8,0:0:0:0:
482,159,40660,6,0,L|490:265,2,75,6|8|4,0:0|0:0|0:3,0:0:0:0:
371,214,41753,2,0,L|244:210,1,112.5,4|8,0:2|0:0,0:0:0:0:
184,248,42535,2,0,P|149:266|92:250,1,75,8|8,0:0|0:3,0:0:0:0:
136,183,43160,6,0,L|148:77,1,75,6|4,0:0|0:3,0:0:0:0:
210,58,43785,2,0,P|245:65|292:53,2,75,4|4|4,0:3|0:3|0:3,0:0:0:0:
133,26,44722,1,4,0:3:0:0:
60,64,45035,2,0,L|64:144,1,75,4|4,0:3|0:3,0:0:0:0:
107,208,45660,6,0,L|103:288,1,75,4|4,0:3|0:3,0:0:0:0:
72,359,46285,2,0,P|26:370|-9:361,2,75,4|8|4,0:3|0:3|0:3,0:0:0:0:
153,348,47222,1,4,0:3:0:0:
207,285,47535,6,0,B|279:266|279:266|383:296,1,150,4|6,0:3|0:0,0:0:0:0:
424,325,48472,1,4,0:3:0:0:
498,289,48785,2,0,P|508:211|492:146,1,112.5,4|12,0:3|0:0,0:0:0:0:
442,69,49722,1,8,0:0:0:0:
373,115,50035,2,0,P|340:126|269:116,1,75,4|8,0:3|0:0,0:0:0:0:
264,106,50503,6,0,P|298:168|156:128,1,337.5,6|6,0:0|0:0,0:0:0:0:
378,322,53003,6,0,L|390:180,1,112.5,6|8,0:0|0:0,0:0:0:0:
317,165,53785,2,0,L|238:175,1,75,4|8,0:3|0:0,0:0:0:0:
180,119,54410,2,0,L|101:109,1,75,0|8,0:0|0:0,0:0:0:0:
28,138,55035,1,4,0:3:0:0:
13,219,55347,1,8,0:0:0:0:
63,284,55660,6,0,L|159:277,1,75,0|8,0:0|0:0,0:0:0:0:
204,230,56285,2,0,P|231:224|288:231,1,75,4|8,0:3|0:0,0:0:0:0:
328,293,56910,2,0,P|355:299|412:292,1,75,0|8,0:0|0:0,0:0:0:0:
439,221,57535,1,4,0:3:0:0:
396,150,57847,1,8,0:0:0:0:
455,92,58160,6,0,P|412:68|366:75,1,75,0|8,0:0|0:0,0:0:0:0:
307,90,58785,2,0,L|187:77,2,112.5,4|4|8,0:3|0:3|0:2,0:0:0:0:
314,172,60035,2,0,L|227:164,1,75,4|8,0:3|0:0,0:0:0:0:
179,221,60660,6,0,P|177:315|326:315,1,262.5,4|12,0:3|0:0,0:0:0:0:
371,264,62066,1,12,0:0:0:0:
453,259,62378,1,12,0:0:0:0:
387,112,63003,6,0,B|333:103|333:103|275:109,1,112.5,6|8,0:0|0:0,0:0:0:0:
202,147,63785,2,0,L|93:160,2,75,4|8|0,0:3|0:2|0:0,0:0:0:0:
270,192,64722,1,8,0:0:0:0:
314,261,65035,2,0,P|317:314|312:341,1,75,4|8,0:3|0:0,0:0:0:0:
232,352,65660,6,0,P|207:341|139:333,1,75,0|8,0:0|0:2,0:0:0:0:
77,332,66285,2,0,P|40:337|5:351,2,75,4|8|0,0:3|0:0|0:0,0:0:0:0:
122,263,67222,1,8,0:0:0:0:
71,197,67535,2,0,L|70:107,1,75,4|8,0:3|0:0,0:0:0:0:
38,95,68003,6,0,L|172:81,1,112.5,6|8,0:0|0:0,0:0:0:0:
226,115,68785,2,0,P|282:127|321:117,1,75,4|8,0:3|0:0,0:0:0:0:
330,97,69253,2,0,L|339:216,1,112.5,6|8,0:0|0:0,0:0:0:0:
317,289,70035,2,0,P|282:277|226:288,1,75,4|8,0:3|0:0,0:0:0:0:
214,308,70503,6,0,B|155:294|155:294|86:312|86:312|23:298,1,187.5,6|4,0:0|0:3,0:0:0:0:
25,176,71753,2,0,P|93:153|163:187,2,150,6|6|6,0:0|0:0|0:0,0:0:0:0:
327,308,74253,6,0,P|398:291|460:306,1,112.5,6|0,0:0|0:0,0:0:0:0:
506,252,75035,2,0,L|509:112,1,112.5,0|2,0:0|0:0,0:0:0:0:
256,192,75660,12,4,78160,0:3:0:0:
102,299,88160,6,0,L|40:296,2,37.5,6|0|4,0:0|0:0|0:3,0:0:0:0:
170,344,88785,2,0,P|228:334|349:353,1,150,2|2,0:0|0:0,0:0:0:0:
398,360,89722,1,8,0:3:0:0:
465,313,90035,2,0,P|477:274|475:229,1,75,2|8,0:0|0:3,0:0:0:0:
429,172,90660,6,0,B|382:155|382:155|271:179,2,150,2|2|2,0:0|0:0|0:0,0:0:0:0:
306,61,92535,2,0,L|207:79,1,75,2|8,0:0|0:3,0:0:0:0:
155,105,93160,6,0,P|88:105|115:25,2,150,4|2|8,0:0|0:0|0:3,0:0:0:0:
218,157,94722,1,2,0:0:0:0:
182,231,95035,2,0,P|181:275|195:324,1,75,2|8,0:0|0:3,0:0:0:0:
259,345,95660,5,6,0:0:0:0:
332,306,95972,1,8,0:3:0:0:
404,345,96285,2,0,L|497:331,1,75,4|8,0:3|0:3,0:0:0:0:
479,251,96910,2,0,L|404:262,1,75,12|12,0:0|0:0,0:0:0:0:
341,209,97535,2,0,L|334:149,1,37.5,12|12,0:0|0:0,0:0:0:0:
254,175,98003,6,0,L|253:307,1,112.5,14|8,0:0|0:0,0:0:0:0:
195,347,98785,2,0,P|151:357|78:267,1,150,0|0,0:0|0:0,0:0:0:0:
158,272,99722,1,8,0:0:0:0:
103,209,100035,2,0,L|98:114,1,75,2|8,0:0|0:0,0:0:0:0:
147,66,100660,2,0,P|183:54|221:62,1,75,4|8,0:3|0:0,0:0:0:0:
286,108,101285,2,0,P|322:120|360:112,1,75,2|4,0:2|0:3,0:0:0:0:
420,166,101910,6,0,B|436:221|436:221|411:273|428:331,2,150,2|8|6,0:0|0:3|0:0,0:0:0:0:
436,85,103472,1,8,0:0:0:0:
380,23,103785,2,0,L|295:9,1,75,4|2,0:3|0:0,0:0:0:0:
232,47,104410,2,0,B|198:125|260:132|226:204,1,150,0|4,0:0|0:3,0:0:0:0:
207,272,105347,1,8,0:0:0:0:
139,319,105660,6,0,L|46:318,2,75,6|8|4,0:2|0:0|0:3,0:0:0:0:
255,361,106753,2,0,L|382:357,1,112.5,6|8,0:0|0:0,0:0:0:0:
419,293,107535,2,0,L|425:201,1,75,8|4,0:0|0:3,0:0:0:0:
385,144,108160,6,0,P|351:156|279:156,1,75,6|4,0:0|0:3,0:0:0:0:
255,100,108785,2,0,L|262:25,2,75,4|4|4,0:3|0:3|0:3,0:0:0:0:
184,142,109722,1,4,0:3:0:0:
236,205,110035,2,0,L|240:285,1,75,4|4,0:3|0:3,0:0:0:0:
291,344,110660,6,0,L|371:340,1,75,4|4,0:3|0:3,0:0:0:0:
435,295,111285,2,0,P|446:249|437:214,2,75,4|8|4,0:3|0:3|0:3,0:0:0:0:
362,255,112222,1,4,0:3:0:0:
370,172,112535,2,0,P|377:110|295:87,1,150,4|6,0:3|0:0,0:0:0:0:
235,125,113472,5,8,0:0:0:0:
158,92,113785,2,0,P|106:89|31:97,1,112.5,8|14,0:2|0:0,0:0:0:0:
8,212,114722,1,8,0:0:0:0:
70,266,115035,2,0,P|103:277|174:267,1,75,8|8,0:0|0:0,0:0:0:0:
172,248,115503,6,0,B|221:223|273:273|273:273|314:227|314:227|377:251|377:251|421:223|484:224,1,337.5,14|6,0:0|0:0,0:0:0:0:
212,357,118003,6,0,P|270:368|320:336,1,112.5,6|8,0:0|0:0,0:0:0:0:
257,283,118785,2,0,L|267:204,1,75,4|8,0:3|0:0,0:0:0:0:
208,149,119410,2,0,L|198:70,1,75,0|8,0:0|0:0,0:0:0:0:
260,19,120035,2,0,P|307:16|361:31,1,75,4|8,0:3|0:0,0:0:0:0:
394,77,120660,6,0,L|387:173,1,75,0|8,0:0|0:0,0:0:0:0:
451,205,121285,2,0,L|458:301,1,75,4|8,0:3|0:0,0:0:0:0:
411,349,121910,2,0,P|384:355|327:348,1,75,0|8,0:0|0:0,0:0:0:0:
269,303,122535,1,4,0:3:0:0:
198,344,122847,1,8,0:0:0:0:
124,305,123160,6,0,L|111:214,1,75,0|8,0:0|0:0,0:0:0:0:
63,164,123785,2,0,L|84:25,2,112.5,4|4|8,0:3|0:3|0:2,0:0:0:0:
113,230,125035,2,0,P|151:240|192:229,1,75,4|8,0:3|0:0,0:0:0:0:
259,195,125660,6,0,P|284:81|160:43,1,262.5,4|12,0:3|0:0,0:0:0:0:
90,70,127066,1,12,0:0:0:0:
34,130,127378,1,12,0:0:0:0:
151,245,128003,6,0,B|148:133,1,112.5,6|8,0:0|0:0,0:0:0:0:
228,113,128785,2,0,L|232:190,2,75,4|8|0,0:3|0:0|0:0,0:0:0:0:
300,74,129722,1,8,0:0:0:0:
363,126,130035,2,0,P|416:129|443:124,1,75,4|8,0:3|0:0,0:0:0:0:
501,177,130660,6,0,P|504:223|493:270,1,75,0|8,0:0|0:0,0:0:0:0:
433,300,131285,2,0,P|397:311|354:305,1,75,4|8,0:3|0:0,0:0:0:0:
294,256,131910,2,0,P|258:245|215:251,2,75,0|8|4,0:0|0:0|0:3,0:0:0:0:
386,173,133003,6,0,L|372:39,1,112.5,6|8,0:0|0:0,0:0:0:0:
292,76,133785,2,0,P|236:88|197:78,1,75,4|8,0:3|0:2,0:0:0:0:
182,67,134253,2,0,L|189:186,1,112.5,6|8,0:0|0:0,0:0:0:0:
154,254,135035,2,0,P|118:266|81:262,1,75,4|8,0:3|0:0,0:0:0:0:
53,232,135503,6,0,B|39:173|39:173|57:104|57:104|43:41,1,187.5,6|2,0:0|0:0,0:0:0:0:
153,109,136753,2,0,P|221:132|291:98,2,150,6|6|6,0:0|0:0|0:0,0:0:0:0:
455,241,139253,5,6,0:0:0:0:
353,311,139722,2,0,L|256:317,2,75,0|0|0,0:0|0:0|0:0,0:0:0:0:
216,218,140972,6,0,P|163:239|93:225,1,112.5,2|2,0:0|0:0,0:0:0:0:
98,108,141910,2,0,P|151:87|221:101,2,112.5,8|8|6,0:0|0:3|0:0,0:0:0:0:
341,151,143785,5,4,0:3:0:0:
96,247,152535,6,0,B|167:225|167:225|239:252|239:252|312:229,1,225,8|8,0:0|0:0,0:0:0:0:
383,192,153785,6,0,P|404:127|377:72,3,112.5,14|8|8|8,0:0|0:0|0:0|0:0,0:0:0:0:
283,24,155660,2,0,P|244:21|191:32,1,75,8|8,0:0|0:0,0:0:0:0:
149,84,156285,6,0,P|164:134|158:219,3,112.5,14|8|8|8,0:0|0:0|0:0|0:0,0:0:0:0:
68,273,158160,2,0,P|66:316|84:345,1,75,8|8,0:0|0:0,0:0:0:0:
161,364,158785,6,0,L|297:371,3,112.5,12|8|8|8,0:0|0:0|0:0|0:0,0:0:0:0:
384,315,160660,1,8,0:0:0:0:
407,236,160972,1,8,0:0:0:0:
359,168,161285,6,0,B|306:155|306:155|229:168,2,112.5,12|8|8,0:0|0:0|0:0,0:0:0:0:
294,273,162691,2,0,L|167:288,1,112.5,8|8,0:0|0:3,0:0:0:0:
103,260,163472,1,12,0:0:0:0:
50,195,163785,6,0,P|38:146|65:76,1,112.5,12|8,0:0|0:0,0:0:0:0:
179,91,164722,2,0,P|191:140|164:210,1,112.5,8|8,0:0|0:0,0:0:0:0:
114,307,165660,2,0,L|203:306,1,75,8|12,0:0|0:0,0:0:0:0:
262,267,166285,6,0,L|401:262,1,112.5,12|8,0:0|0:0,0:0:0:0:
449,164,167222,2,0,L|336:168,1,112.5,8|8,0:0|0:0,0:0:0:0:
247,81,168160,2,0,L|148:86,1,75,8|8,0:2|0:3,0:0:0:0:
101,127,168785,6,0,P|84:177|109:263,1,112.5,12|12,0:0|0:0,0:0:0:0:
173,328,169722,2,0,P|223:345|309:320,1,112.5,12|12,0:0|0:0,0:0:0:0:
370,250,170660,1,12,0:2:0:0:
445,282,170972,1,12,0:2:0:0:
506,226,171285,6,0,L|513:87,3,112.5,12|8|8|8,0:2|0:0|0:0|0:0,0:0:0:0:
409,44,173160,2,0,L|359:50,1,37.5,8|8,0:0|0:0,0:0:0:0:
305,97,173628,5,12,0:0:0:0:
305,97,176128,6,0,P|262:76|188:123,1,112.5,12|0,0:0|0:0,0:0:0:0:
149,159,176910,2,0,B|168:208|168:208|141:324,2,150,2|8|0,0:3|0:2|0:0,0:0:0:0:
265,201,178628,6,0,L|384:190,1,112.5,6|8,0:0|0:0,0:0:0:0:
399,270,179410,2,0,L|308:279,1,75,2|8,0:2|0:0,0:0:0:0:
250,315,180035,2,0,L|159:306,2,75,4|8|4,0:3|0:0|0:3,0:0:0:0:
256,232,180972,1,8,0:0:0:0:
312,171,181285,6,0,L|308:66,1,75,0|8,0:0|0:0,0:0:0:0:
256,32,181910,2,0,L|151:36,1,75,2|8,0:0|0:0,0:0:0:0:
126,96,182535,2,0,P|91:107|42:106,1,75,4|8,0:3|0:0,0:0:0:0:
4,174,183160,2,0,L|9:259,1,75,4|8,0:3|0:0,0:0:0:0:
25,286,183628,6,0,B|99:279|99:279|140:372|232:371|279:286|279:286|364:292,1,375,6|12,0:2|0:0,0:0:0:0:
416,253,185503,2,0,L|406:163,1,75,8|8,0:0|0:0,0:0:0:0:
256,192,186128,12,12,187535,0:2:0:0:
169,275,197378,6,0,L|176:367,2,75,12|12|12,0:0|0:0|0:0,0:0:0:0:
313,195,198628,6,0,P|342:140|337:68,1,112.5,12|8,0:0|0:0,0:0:0:0:
265,62,199410,2,0,L|182:70,1,75,4|8,0:3|0:0,0:0:0:0:
118,28,200035,2,0,L|35:20,2,75,0|8|4,0:0|0:0|0:3,0:0:0:0:
118,110,200972,1,8,0:0:0:0:
188,153,201285,6,0,L|262:145,1,75,0|8,0:0|0:0,0:0:0:0:
340,174,201910,2,0,P|391:227|373:327,1,150,4|0,0:3|0:0,0:0:0:0:
326,352,202847,1,8,0:0:0:0:
246,330,203160,2,0,L|141:324,1,75,4|8,0:3|0:0,0:0:0:0:
132,311,203628,6,0,B|146:257|146:257|126:183,1,112.5,6|8,0:0|0:0,0:0:0:0:
184,139,204410,2,0,L|258:143,1,75,4|8,0:3|0:0,0:0:0:0:
295,124,204878,2,0,L|304:253,1,112.5,6|8,0:0|0:0,0:0:0:0:
346,306,205660,2,0,P|382:294|428:307,1,75,4|8,0:3|0:0,0:0:0:0:
449,326,206128,6,0,L|464:132,1,187.5,6|2,0:0|0:0,0:0:0:0:
364,64,207378,2,0,P|304:94|211:61,2,150,6|6|6,0:0|0:0|0:2,0:0:0:0:
64,202,209878,5,6,0:0:0:0:
154,286,210347,2,0,L|247:286,2,75,0|0|0,0:0|0:0|0:3,0:0:0:0:
256,192,211128,12,8,213628,0:0:0:0:
444,276,214410,6,0,L|340:289,1,75,4|8,0:3|0:0,0:0:0:0:
309,228,215035,2,0,L|205:215,1,75,0|10,0:0|0:2,0:0:0:0:
170,271,215660,2,0,L|173:356,1,75,2|8,0:0|0:2,0:0:0:0:
90,334,216285,6,0,B|89:245|89:245|103:206|138:198,1,150,6|4,0:0|0:3,0:0:0:0:
210,194,217222,1,8,0:0:0:0:
281,237,217535,2,0,P|331:243|367:235,1,75,12|12,0:0|0:0,0:0:0:0:
430,205,218160,2,0,L|491:197,1,37.5,12|4,0:2|0:3,0:0:0:0:
488,120,218628,6,0,P|442:102|352:126,1,112.5,6|8,0:0|0:0,0:0:0:0:
316,57,219410,2,0,P|269:75|179:51,1,112.5,4|4,0:3|0:3,0:0:0:0:
137,26,220191,1,4,0:3:0:0:
71,75,220503,2,0,L|78:187,1,112.5,4|8,0:3|0:2,0:0:0:0:
35,258,221285,6,0,P|32:296|43:359,2,75,6|8|4,0:0|0:0|0:3,0:0:0:0:
78,187,222222,1,8,0:0:0:0:
124,255,222535,2,0,P|127:293|116:356,2,75,4|4|4,0:3|0:3|0:3,0:0:0:0:
164,183,223472,1,12,0:0:0:0:
256,192,224410,12,14,226753,0:0:0:0:
