osu file format v14

[General]
AudioFilename: audio.mp3
AudioLeadIn: 0
PreviewTime: 52310
Countdown: 0
SampleSet: Soft
StackLeniency: 0.7
Mode: 0
LetterboxInBreaks: 0
WidescreenStoryboard: 0

[Editor]
DistanceSpacing: 0.4
BeatDivisor: 4
GridSize: 32
TimelineZoom: 2.1

[Metadata]
Title:Key of Truth
TitleUnicode:Key of Truth
Artist:sweet ARMS
ArtistUnicode:sweet ARMS
Creator:sahuang
Version:Gaia's Insane
Source:デート・ア・ライブTwin Edition凜緒リンカーネイション
Tags:DATE A LIVE Twin Edition Rio Reincarnation game opening theme song ps vita kawaiwkyik rizia wkyik gaia my angel azusa Celsiuslk
BeatmapID:1421190
BeatmapSetID:665179

[Difficulty]
HPDrainRate:6
CircleSize:4
OverallDifficulty:7
ApproachRate:9
SliderMultiplier:1.6
SliderTickRate:1

[Events]
//Background and Video events
0,0,"bg.jpg",0,0
//Break Periods
2,23360,31310
2,88359,96310
2,188628,195528
//Storyboard Layer 0 (Background)
//Storyboard Layer 1 (Fail)
//Storyboard Layer 2 (Pass)
//Storyboard Layer 3 (Foreground)
//Storyboard Sound Samples

[TimingPoints]
660,312.5,4,2,1,40,1,0
3003,-125,4,2,1,40,0,0
10503,-142.857142857143,4,2,1,40,0,0
11285,-125,4,2,1,40,0,0
12535,-125,4,2,1,60,0,0
13003,-100,4,2,1,60,0,0
43160,-111.111111111111,4,2,1,50,0,0
51910,-200,4,2,1,40,0,0
53003,-83.3333333333333,4,2,1,70,0,0
61753,-76.9230769230769,4,2,1,70,0,0
63003,-83.3333333333333,4,2,1,70,0,0
73003,-83.3333333333333,4,2,1,60,0,0
78160,-125,4,2,1,50,0,0
81753,-76.9230769230769,4,2,1,40,0,0
83160,-125,4,2,1,40,0,0
85660,-125,4,2,1,50,0,0
96910,-100,4,2,1,60,0,0
108160,-125,4,2,1,50,0,0
113160,-125,4,2,1,60,0,0
114253,-111.111111111111,4,2,1,60,0,0
116910,-142.857142857143,4,2,1,60,0,0
118003,-83.3333333333334,4,2,1,70,0,0
126753,-76.9230769230769,4,2,1,70,0,0
128003,-83.3333333333333,4,2,1,70,0,0
138003,-83.3333333333333,4,2,1,60,0,0
140972,-166.666666666667,4,2,1,50,0,0
141910,-125,4,2,1,60,0,0
142378,-142.857142857143,4,2,1,65,0,0
142847,-200,4,2,1,70,0,0
143785,312.5,4,2,1,50,1,0
144097,-142.857142857143,4,2,1,50,0,0
152535,-83.3333333333334,4,2,1,60,0,0
153785,-90.9090909090909,4,2,1,70,0,0
171441,-125,4,2,1,70,0,0
172378,-142.857142857143,4,2,1,70,0,0
173628,-142.857142857143,4,2,1,60,0,0
178003,-100,4,2,1,60,0,0
178628,-90.9090909090909,4,2,1,60,0,0
179097,-100,4,2,1,60,0,0
196285,-111.111111111111,4,2,1,60,0,0
197378,-83.3333333333333,4,2,1,60,0,0
198628,-83.3333333333333,4,2,1,70,0,0
208628,-83.3333333333333,4,2,1,60,0,0
212535,-100,4,2,1,60,0,0
224410,-153.846153846154,4,2,1,60,0,0
225660,-71.4285714285714,4,2,1,60,0,0
226285,-100,4,2,1,60,0,0

[Colours]
Combo1 : 255,196,255
Combo2 : 0,128,128
Combo3 : 255,128,128
Combo4 : 0,64,128

[HitObjects]
96,256,3003,6,0,P|163:243|244:236,1,128,2|0,0:0|0:0,0:0:0:0:
312,184,3472,2,0,P|320:217|324:260,1,64,2|0,0:0|0:0,0:0:0:0:
392,116,3785,6,0,P|340:144|248:64,2,192,2|2|0,0:0|0:0|0:0,0:0:0:0:
416,92,5503,6,0,B|396:156|440:156|408:240,1,128,2|0,0:0|0:0,0:0:0:0:
396,328,5972,2,0,P|427:321|468:316,1,64,2|2,0:0|0:0,0:0:0:0:
300,244,6285,6,0,P|304:288|188:336,2,192,2|2|2,0:0|0:0|0:0,0:0:0:0:
60,248,7535,2,0,P|123:243|187:233,1,128,2|2,0:0|0:0,0:0:0:0:
312,112,8003,6,0,P|222:117|200:204,1,192,2|0,0:0|0:0,0:0:0:0:
383,344,8785,2,0,P|392:281|396:207,1,128,2|0,0:0|0:0,0:0:0:0:
434,96,9253,6,0,P|379:118|294:103,1,128,2|0,0:0|0:0,0:0:0:0:
185,14,9722,2,0,P|199:40|209:91,1,64,2|0,0:0|0:0,0:0:0:0:
186,233,10035,2,0,P|201:206|240:173,1,64,2|0,0:0|0:0,0:0:0:0:
313,90,10347,1,2,0:0:0:0:
271,263,10503,6,0,P|161:279|85:282,1,167.999994873047,2|0,0:0|0:0,0:0:0:0:
29,157,11128,1,0,0:0:0:0:
29,157,11285,2,0,P|63:161|94:178,1,64,2|0,0:0|0:0,0:0:0:0:
245,349,11597,2,0,P|216:363|184:366,1,64,2|0,0:0|0:0,0:0:0:0:
290,249,11910,5,2,0:0:0:0:
184,272,12066,1,2,0:0:0:0:
283,367,12222,1,2,0:0:0:0:
315,230,12378,1,2,0:0:0:0:
96,168,12535,5,8,0:0:0:0:
430,246,12691,1,8,0:0:0:0:
430,246,13003,6,0,P|358:255|248:263,1,160,6|0,0:0|0:0,0:0:0:0:
96,168,13472,2,0,P|109:206|109:262,1,80,8|0,0:0|0:0,0:0:0:0:
255,366,13785,2,0,P|257:326|270:288,1,80,4|4,0:3|0:3,0:0:0:0:
370,346,14097,1,8,0:0:0:0:
325,174,14253,6,0,P|271:236|180:220,1,160,4|4,0:3|0:3,0:0:0:0:
272,66,14722,1,8,0:0:0:0:
272,66,14878,2,0,L|363:54,1,80,2|4,0:0|0:3,0:0:0:0:
149,134,15191,1,4,0:3:0:0:
149,134,15347,2,0,L|69:123,1,80,8|0,0:0|0:3,0:0:0:0:
270,207,15660,6,0,P|278:271|282:369,1,160,6|8,0:0|0:0,0:0:0:0:
69,332,16128,1,2,0:0:0:0:
71,315,16206,1,8,0:3:0:0:
80,302,16285,2,0,P|122:285|156:287,1,80,4|4,0:3|0:3,0:0:0:0:
381,182,16597,2,0,P|339:199|305:197,1,80,8|2,0:0|0:0,0:0:0:0:
149,60,16910,5,12,0:0:0:0:
177,179,17066,1,4,0:3:0:0:
312,25,17222,5,12,0:0:0:0:
296,162,17378,1,4,0:3:0:0:
425,91,17535,5,12,0:0:0:0:
228,92,17691,1,8,0:0:0:0:
315,230,17847,1,8,0:3:0:0:
147,187,18003,6,0,B|106:171|106:171|44:219|94:297,1,160,6|2,0:0|0:0,0:0:0:0:
224,352,18472,2,0,L|309:338,1,80,8|2,0:0|0:0,0:0:0:0:
444,264,18785,1,4,0:3:0:0:
315,230,18941,1,4,0:3:0:0:
386,360,19097,1,8,0:0:0:0:
454,228,19253,6,0,P|446:163|430:63,1,160,4|4,0:3|0:3,0:0:0:0:
213,36,19722,1,8,0:0:0:0:
311,122,19878,2,0,P|317:158|322:212,1,80,2|4,0:0|0:3,0:0:0:0:
121,164,20191,2,0,P|160:167|200:174,2,80,2|8|2,0:0|0:0|0:0,0:0:0:0:
254,271,20660,6,0,P|345:247|432:252,1,160,6|8,0:0|0:0,0:0:0:0:
457,99,21128,1,8,0:0:0:0:
428,358,21285,2,0,P|393:356|343:334,1,80,4|4,0:3|0:3,0:0:0:0:
241,133,21597,2,0,P|266:194|270:273,1,120,8|8,0:0|0:3,0:0:0:0:
254,271,21910,6,0,P|193:315|83:302,1,160,4|8,0:3|0:0,0:0:0:0:
0,207,22378,1,4,0:3:0:0:
130,186,22535,2,0,P|123:228|118:280,1,80,8|4,0:0|0:3,0:0:0:0:
351,339,22847,2,0,P|346:299|340:259,1,80,12|2,0:0|0:0,0:0:0:0:
233,312,23160,5,4,0:0:0:0:
187,249,31910,6,0,P|195:291|200:334,1,80,12|0,0:0|0:0,0:0:0:0:
322,149,32222,2,0,P|313:191|309:234,1,80,12|0,0:0|0:0,0:0:0:0:
187,49,32535,5,12,0:0:0:0:
329,127,32691,1,12,0:0:0:0:
165,178,33003,6,0,P|231:158|333:149,1,160,14|0,0:0|0:0,0:0:0:0:
451,279,33472,2,0,P|411:276|351:251,1,80,8|2,0:0|0:0,0:0:0:0:
428,89,33785,2,0,L|439:177,1,80,2|4,0:0|0:3,0:0:0:0:
277,342,34097,2,0,L|267:262,1,80,2|8,0:0|0:2,0:0:0:0:
321,148,34410,6,0,P|273:149|236:42,2,160,4|8|4,0:3|0:0|0:3,0:0:0:0:
142,174,35191,2,0,P|103:168|62:166,1,80,4|8,0:3|0:0,0:0:0:0:
199,69,35503,1,2,0:0:0:0:
267,262,35660,6,0,P|306:259|346:254,1,80,4|2,0:3|0:0,0:0:0:0:
454,154,35972,2,0,P|443:239|436:334,1,160,8|4,0:0|0:3,0:0:0:0:
321,156,36441,2,0,P|311:125|311:58,1,80
243,277,36753,6,0,P|164:323|79:298,1,160,6|4,0:0|0:3,0:0:0:0:
36,181,37222,1,8,0:0:0:0:
149,201,37378,1,8,0:0:0:0:
111,90,37535,1,4,0:3:0:0:
108,80,37613,1,4,0:3:0:0:
106,70,37691,1,4,0:3:0:0:
104,60,37769,1,4,0:3:0:0:
102,50,37847,1,8,0:0:0:0:
278,52,38003,1,8,0:0:0:0:
277,73,38081,1,8,0:0:0:0:
289,87,38160,6,0,P|362:77|464:57,1,160,6|8,0:0|0:0,0:0:0:0:
396,188,38628,1,2,0:0:0:0:
396,188,38785,2,0,P|375:254|377:295,1,80,4|4,0:3|0:3,0:0:0:0:
486,254,39097,1,2,0:0:0:0:
345,292,39253,6,0,P|285:238|191:258,1,160,8|4,0:0|0:3,0:0:0:0:
2,182,39722,2,0,P|78:157|108:65,1,160,8|4,0:0|0:3,0:0:0:0:
267,41,40191,2,0,P|256:88|253:132,1,80,2|8,0:0|0:0,0:0:0:0:
248,335,40503,1,2,0:0:0:0:
231,335,40581,1,2,0:0:0:0:
215,336,40660,6,0,P|204:288|201:245,1,80,6|4,0:0|0:3,0:0:0:0:
404,246,40972,2,0,P|363:263|308:268,1,80,8|2,0:0|0:0,0:0:0:0:
100,127,41285,2,0,P|180:130|271:141,1,160,4|8,0:3|0:0,0:0:0:0:
415,56,41753,6,0,P|406:135|402:215,1,160,4|4,0:2|0:3,0:0:0:0:
344,375,42222,1,8,0:0:0:0:
287,237,42378,1,4,0:3:0:0:
447,301,42535,5,8,0:0:0:0:
248,335,42691,1,8,0:3:0:0:
272,204,42847,1,8,0:3:0:0:
272,204,43160,6,0,P|263:240|260:290,1,71.9999978027344,6|0,0:0|0:0,0:0:0:0:
170,143,43472,2,0,P|166:107|157:72,1,71.9999978027344,4|0,0:3|0:0,0:0:0:0:
274,97,43785,2,0,P|317:119|428:129,1,143.999995605469,4|4,0:3|0:3,0:0:0:0:
489,72,44253,1,0,0:0:0:0:
272,204,44410,6,0,P|200:209|135:238,1,143.999995605469,4|4,0:3|0:3,0:0:0:0:
26,221,44878,2,0,P|30:269|45:318,1,71.9999978027344,2|4,0:0|0:3,0:0:0:0:
213,378,45191,2,0,P|217:329|232:281,1,71.9999978027344,2|4,0:0|0:3,0:0:0:0:
391,162,45503,1,6,0:0:0:0:
339,284,45660,6,0,P|303:296|249:302,1,71.9999978027344,4|2,0:3|0:0,0:0:0:0:
113,144,45972,2,0,P|148:149|182:161,1,71.9999978027344,4|2,0:3|0:0,0:0:0:0:
272,204,46285,2,0,L|252:32,1,143.999995605469,4|4,0:3|0:3,0:0:0:0:
391,162,46753,6,0,P|386:239|378:325,1,143.999995605469,12|2,0:0|0:0,0:0:0:0:
203,328,47222,2,0,P|229:314|285:304,1,71.9999978027344,4|2,0:3|0:0,0:0:0:0:
135,219,47535,2,0,P|96:213|37:198,1,71.9999978027344,4|8,0:3|0:3,0:0:0:0:
49,185,47769,1,8,0:3:0:0:
49,185,47847,1,8,0:3:0:0:
158,58,48003,1,8,0:3:0:0:
171,52,48081,1,8,0:3:0:0:
185,50,48160,6,0,P|202:79|209:134,1,71.9999978027344,6|0,0:0|0:0,0:0:0:0:
116,348,48472,2,0,P|117:322|130:253,1,71.9999978027344,4|2,0:3|0:0,0:0:0:0:
351,195,48785,2,0,P|308:265|231:266,1,143.999995605469,4|4,0:3|0:3,0:0:0:0:
57,133,49253,6,0,P|133:138|207:149,1,143.999995605469,12|4,0:0|0:3,0:0:0:0:
382,75,49722,1,8,0:0:0:0:
351,195,49878,1,4,0:3:0:0:
221,152,50035,5,4,0:3:0:0:
358,103,50191,1,8,0:0:0:0:
324,304,50347,1,8,0:0:0:0:
149,225,50503,6,0,P|138:162|130:62,1,143.999995605469,6|4,0:0|0:3,0:0:0:0:
364,31,50972,2,0,P|361:74|354:118,1,71.9999978027344,8|8,0:0|0:0,0:0:0:0:
324,304,51285,1,8,0:0:0:0:
245,164,51441,1,8,0:0:0:0:
435,160,51597,1,8,0:3:0:0:
338,258,51753,1,8,0:3:0:0:
146,155,51910,6,0,P|183:83|331:109,1,240,6|0,0:0|0:0,0:0:0:0:
245,164,53003,6,0,P|178:180|24:196,1,191.999994140625,6|4,0:0|0:3,0:0:0:0:
202,284,53472,2,0,P|253:289|303:302,1,95.9999970703126,8|2,0:0|0:0,0:0:0:0:
185,87,53785,2,0,P|138:97|90:102,1,95.9999970703126,4|4,0:3|0:3,0:0:0:0:
355,103,54097,1,8,0:0:0:0:
245,164,54253,6,0,P|219:97|301:0,1,191.999994140625,4|4,0:3|0:3,0:0:0:0:
358,135,54722,2,0,P|371:216|380:343,1,191.999994140625,8|4,0:0|0:3,0:0:0:0:
292,269,55191,1,4,0:3:0:0:
467,233,55347,1,8,0:0:0:0:
292,269,55503,6,0,B|194:300|196:227|92:238,1,191.999994140625,4|4,0:3|0:3,0:0:0:0:
245,164,55972,2,0,P|260:121|250:65,1,95.9999970703126,8|2,0:0|0:0,0:0:0:0:
86,25,56285,2,0,P|47:88|103:222,1,191.999994140625,4|8,0:3|0:0,0:0:0:0:
268,211,56753,6,0,P|307:148|251:14,1,191.999994140625,4|4,0:3|0:3,0:0:0:0:
172,114,57222,1,8,0:0:0:0:
172,114,57535,1,4,0:3:0:0:
281,23,57691,1,4,0:3:0:0:
327,145,57847,1,8,0:0:0:0:
193,91,58003,1,2,0:2:0:0:
406,77,58160,6,0,P|420:123|422:178,1,95.9999970703126,4|2,0:3|0:0,0:0:0:0:
209,358,58472,2,0,P|211:310|225:264,1,95.9999970703126,8|2,0:0|0:0,0:0:0:0:
327,145,58785,1,4,0:3:0:0:
298,326,58941,1,4,0:3:0:0:
120,198,59097,1,8,0:0:0:0:
315,336,59253,6,0,P|380:374|512:358,1,191.999994140625,4|4,0:3|0:3,0:0:0:0:
298,166,59722,2,0,P|204:154|119:197,1,191.999994140625,8|4,0:2|0:3,0:0:0:0:
226,265,60191,1,4,0:3:0:0:
417,176,60347,1,8,0:0:0:0:
250,53,60503,6,0,P|202:63|142:67,1,95.9999970703126,2|4,0:0|0:3,0:0:0:0:
314,152,60816,1,2,0:0:0:0:
191,214,60972,2,0,P|99:200|-5:195,1,191.999994140625,8|4,0:0|0:3,0:0:0:0:
64,294,61441,1,4,0:3:0:0:
84,100,61597,1,8,0:0:0:0:
67,315,61753,6,0,P|93:370|204:355,1,155.999992858887,12|0,0:0|0:0,0:0:0:0:
205,368,62066,1,12,0:0:0:0:
172,185,62222,1,4,0:3:0:0:
396,270,62378,2,0,B|342:276|300:298|300:298|289:271|239:248,1,155.999992858887,12|0,0:0|0:0,0:0:0:0:
172,185,62691,6,0,L|183:268,1,51.999997619629,8|8,0:0|0:0,0:0:0:0:
314,152,62847,2,0,L|320:100,1,51.999997619629,8|8,0:0|0:0,0:0:0:0:
264,24,63003,6,0,P|319:79|446:62,1,191.999994140625,6|4,0:0|0:3,0:0:0:0:
456,211,63472,2,0,P|438:263|435:311,1,95.9999970703126,8|2,0:0|0:0,0:0:0:0:
314,152,63785,2,0,P|309:104|292:59,1,95.9999970703126,4|4,0:3|0:3,0:0:0:0:
170,153,64097,1,8,0:2:0:0:
260,340,64253,6,0,P|327:355|437:299,1,191.999994140625,4|4,0:3|0:3,0:0:0:0:
178,236,64722,2,0,L|66:222,1,95.9999970703126,8|2,0:0|0:0,0:0:0:0:
314,152,65035,2,0,B|367:135|444:129|444:129|444:103|458:66,1,191.999994140625,4|8,0:3|0:0,0:0:0:0:
353,6,65503,1,2,0:0:0:0:
405,234,65660,6,0,P|451:256|501:254,1,95.9999970703126,4|2,0:3|0:0,0:0:0:0:
244,264,65972,2,0,P|201:293|178:337,1,95.9999970703126,8|2,0:2|0:0,0:0:0:0:
314,152,66285,2,0,B|345:86|291:27|291:27|211:65,1,191.999994140625,4|8,0:3|0:0,0:0:0:0:
106,230,66753,6,0,B|75:296|129:355|129:355|179:330,1,191.999994140625,4|4,0:3|0:3,0:0:0:0:
331,267,67222,2,0,L|229:252,1,95.9999970703126,8|0,0:0|0:0,0:0:0:0:
72,215,67535,1,4,0:3:0:0:
213,141,67691,1,4,0:3:0:0:
196,334,67847,1,8,0:0:0:0:
106,230,68003,6,0,P|98:166|89:38,1,191.999994140625,6|4,0:0|0:3,0:0:0:0:
213,141,68472,1,8,0:0:0:0:
213,141,68785,1,4,0:3:0:0:
58,123,68941,1,4,0:3:0:0:
186,4,69097,1,8,0:0:0:0:
340,99,69253,6,0,B|412:97|464:124|464:124|479:94|532:72,1,191.999994140625,6|4,0:0|0:3,0:0:0:0:
375,216,69722,2,0,P|350:263|364:335,1,95.9999970703126,8|2,0:0|0:0,0:0:0:0:
466,296,70035,1,4,0:3:0:0:
238,249,70191,1,8,0:0:0:0:
344,81,70347,1,8,0:0:0:0:
354,335,70503,6,0,P|256:352|143:355,1,191.999994140625,6|4,0:0|0:3,0:0:0:0:
222,155,70972,2,0,P|236:209|237:262,1,95.9999970703126,8|2,0:0|0:2,0:0:0:0:
25,371,71285,2,0,P|28:323|40:277,2,95.9999970703126,4|4|8,0:3|0:3|0:0,0:0:0:0:
133,230,71753,6,0,P|72:240|29:117,1,191.999994140625,6|4,0:0|0:3,0:0:0:0:
121,30,72222,1,8,0:3:0:0:
222,155,72378,2,0,B|285:158|331:197|331:197|376:184|382:124,1,191.999994140625,6|4,0:0|0:3,0:0:0:0:
312,60,72847,1,8,0:0:0:0:
242,297,73003,5,6,0:0:0:0:
256,192,73081,12,4,74097,0:3:0:0:
256,192,74253,5,6,0:0:0:0:
256,192,74331,12,0,75347,0:0:0:0:
270,87,75503,5,2,0:0:0:0:
270,87,75581,1,2,0:0:0:0:
270,87,75660,1,2,0:0:0:0:
256,192,75738,12,0,77378,0:0:0:0:
270,87,77535,5,12,0:0:0:0:
256,192,77691,1,8,0:3:0:0:
242,297,77847,1,12,0:0:0:0:
242,297,78160,6,0,P|206:304|164:308,1,64,4|2,0:3|0:0,0:0:0:0:
330,234,78472,2,0,P|342:270|351:315,1,64,4|2,0:3|0:0,0:0:0:0:
202,198,78785,2,0,P|205:138|215:53,1,128,8|4,0:2|0:3,0:0:0:0:
376,85,79253,6,0,P|341:99|296:102,1,64,2|4,0:0|0:3,0:0:0:0:
93,115,79566,2,0,P|124:120|153:133,1,64,2|4,0:0|0:3,0:0:0:0:
330,234,79878,1,2,0:0:0:0:
112,238,80035,2,0,L|95:188,2,32,8|2|2,0:0|0:0|0:0,0:0:0:0:
202,348,80347,1,4,0:3:0:0:
208,332,80425,1,8,0:0:0:0:
214,316,80503,1,8,0:0:0:0:
330,234,80660,6,0,L|239:225,1,64,4|2,0:3|0:0,0:0:0:0:
412,98,80972,2,0,L|475:91,1,64,4|2,0:3|0:0,0:0:0:0:
337,19,81285,2,0,P|305:61|312:151,1,128,8|4,0:2|0:3,0:0:0:0:
440,270,81753,6,0,L|432:219,1,51.999997619629,14|0,0:0|0:0,0:0:0:0:
412,98,81910,1,4,0:3:0:0:
488,53,82066,1,4,0:3:0:0:
412,98,82222,1,4,0:3:0:0:
274,176,82378,6,0,L|266:227,1,51.999997619629,14|0,0:0|0:0,0:0:0:0:
246,348,82535,1,4,0:3:0:0:
327,381,82691,1,4,0:3:0:0:
246,348,82847,1,8,0:0:0:0:
327,381,83003,1,4,0:3:0:0:
165,315,83160,6,0,P|129:325|80:333,1,64,6|2,0:0|0:0,0:0:0:0:
162,210,83472,2,0,P|193:216|224:225,1,64,4|2,0:3|0:0,0:0:0:0:
57,233,83785,2,0,P|49:183|41:97,1,128,8|4,0:0|0:3,0:0:0:0:
178,46,84253,6,0,L|170:123,2,64,2|4|2,0:0|0:3|0:0,0:0:0:0:
285,88,84722,1,4,0:3:0:0:
295,185,84878,2,0,L|303:262,2,64,2|8|2,0:0|0:2|0:0,0:0:0:0:
379,117,85347,2,0,L|388:72,2,32,4|4|4,0:3|0:3|0:3,0:0:0:0:
398,234,85660,5,4,0:3:0:0:
456,160,85816,2,0,P|434:149|374:138,1,64,10|4,0:2|0:3,0:0:0:0:
226,294,86128,2,0,P|257:286|285:272,1,64,10|4,0:2|0:3,0:0:0:0:
285,88,86441,2,0,L|273:167,1,64,10|4,0:2|0:3,0:0:0:0:
385,328,86753,2,0,L|393:264,1,64,10|4,0:2|0:3,0:0:0:0:
273,173,87066,5,8,0:2:0:0:
398,234,87222,1,4,0:3:0:0:
281,295,87378,1,8,0:2:0:0:
276,151,87535,1,4,0:3:0:0:
394,263,87691,1,8,0:0:0:0:
196,238,87847,1,8,0:0:0:0:
172,240,87925,1,2,0:0:0:0:
148,243,88003,1,4,0:3:0:0:
124,245,88081,1,2,0:0:0:0:
100,248,88159,5,6,0:0:0:0:
147,149,96910,6,0,P|105:157|62:162,1,80,12|0,0:0|0:0,0:0:0:0:
337,244,97222,2,0,P|376:248|415:256,1,80,12|0,0:0|0:0,0:0:0:0:
171,166,97535,5,12,0:0:0:0:
321,217,97691,1,12,0:0:0:0:
176,305,98003,6,0,P|156:239|147:137,1,160,14|0,0:0|0:0,0:0:0:0:
281,20,98472,2,0,P|282:59|275:109,1,80,8|2,0:0|0:0,0:0:0:0:
171,166,98785,1,0,0:0:0:0:
294,120,98941,2,0,P|345:86|448:107,1,160,4|8,0:3|0:0,0:0:0:0:
510,252,99410,6,0,P|477:249|412:227,1,80
294,120,99722,2,0,P|311:156|314:206,1,80,8|2,0:0|0:0,0:0:0:0:
383,352,100035,2,0,P|386:312|404:276,1,80,2|4,0:0|0:3,0:0:0:0:
487,165,100347,1,8,0:0:0:0:
477,339,100503,1,2,0:0:0:0:
283,295,100660,6,0,P|199:311|104:317,1,160,4|8,0:3|0:0,0:0:0:0:
17,228,101128,1,0,0:0:0:0:
134,152,101285,2,0,P|153:194|150:241,2,80,2|4|4,0:2|0:3|0:3,0:0:0:0:
124,24,101753,1,8,0:0:0:0:
49,103,101910,6,0,P|99:127|216:84,1,160,2|8,0:0|0:0,0:0:0:0:
352,22,102378,1,8,0:0:0:0:
295,101,102535,2,0,P|282:148|286:199,1,80,8|2,0:3|0:0,0:0:0:0:
422,314,102847,2,0,P|420:274|409:235,1,80,8|2,0:0|0:0,0:0:0:0:
283,295,103160,6,0,P|214:302|187:396,2,160,6|8|4,0:0|0:0|0:3,0:0:0:0:
466,189,103941,2,0,P|417:204|380:202,1,80,4|2,0:3|0:0,0:0:0:0:
256,21,104253,6,0,P|273:101|283:190,1,160,8|4,0:0|0:3,0:0:0:0:
350,383,104722,2,0,P|359:303|376:225,1,160,8|4,0:0|0:3,0:0:0:0:
413,105,105191,1,4,0:3:0:0:
269,204,105347,2,0,P|232:202|176:192,1,80,8|2,0:0|0:0,0:0:0:0:
31,320,105660,6,0,P|70:313|110:311,1,80,6|4,0:2|0:3,0:0:0:0:
211,74,105972,2,0,P|163:120|177:217,1,160,8|4,0:0|0:3,0:0:0:0:
312,373,106441,2,0,P|318:341|319:285,1,80,4|8,0:3|0:0,0:0:0:0:
282,178,106753,6,0,B|358:157|367:223|460:176,1,160,6|4,0:0|0:3,0:0:0:0:
485,59,107222,2,0,P|446:54|407:79,1,80,8|4,0:0|0:3,0:0:0:0:
231,263,107535,2,0,P|265:282|304:278,1,80,8|4,0:0|0:3,0:0:0:0:
477,201,107847,1,4,0:3:0:0:
477,201,108160,6,0,P|473:236|466:285,1,64,6|2,0:0|0:0,0:0:0:0:
385,158,108472,2,0,P|380:126|377:94,1,64,4|2,0:3|0:0,0:0:0:0:
282,178,108785,2,0,P|221:189|148:208,1,128,4|4,0:3|0:3,0:0:0:0:
65,145,109253,1,0,0:0:0:0:
62,302,109410,6,0,P|123:317|186:329,1,128,4|4,0:3|0:3,0:0:0:0:
293,206,109878,2,0,P|279:258|281:283,1,64,2|4,0:0|0:3,0:0:0:0:
420,367,110191,2,0,P|417:335|406:305,1,64,2|4,0:0|0:3,0:0:0:0:
385,158,110503,1,6,0:0:0:0:
421,273,110660,6,0,P|455:270|491:258,1,64,4|2,0:3|0:0,0:0:0:0:
291,178,110972,2,0,P|260:168|228:166,1,64,4|2,0:3|0:0,0:0:0:0:
409,127,111285,2,0,P|421:88|416:50,2,64,4|8|8,0:3|0:3|0:3,0:0:0:0:
255,277,111753,1,6,0:0:0:0:
172,206,111910,6,0,P|222:177|304:183,1,128,4|4,0:3|0:3,0:0:0:0:
274,369,112378,2,0,P|241:366|190:348,1,64,2|4,0:0|0:3,0:0:0:0:
105,302,112691,1,4,0:3:0:0:
91,305,112769,1,4,0:3:0:0:
80,307,112847,1,4,0:3:0:0:
41,206,113003,1,4,0:3:0:0:
27,209,113081,1,4,0:3:0:0:
16,211,113160,6,0,P|-2:133|34:92,1,128,6|8,0:0|0:0,0:0:0:0:
136,36,113628,1,8,0:0:0:0:
136,36,113785,2,0,P|146:69|148:117,1,64,8|8,0:2|0:2,0:0:0:0:
142,259,114097,1,8,0:0:0:0:
181,115,114253,6,0,P|236:77|330:85,1,143.999995605469,14|8,0:0|0:0,0:0:0:0:
485,207,114722,1,8,0:0:0:0:
485,207,114878,2,0,P|444:205|402:187,1,71.9999978027344,8|8,0:0|0:0,0:0:0:0:
271,158,115191,1,8,0:0:0:0:
465,120,115347,1,8,0:0:0:0:
356,263,115503,6,0,P|281:286|202:281,1,143.999995605469,14|4,0:0|0:3,0:0:0:0:
101,262,115972,2,0,P|108:301|113:353,1,71.9999978027344,8|4,0:0|0:3,0:0:0:0:
22,174,116285,2,0,L|31:120,3,35.9999989013672,8|8|8|8,0:0|0:0|0:0|0:0,0:0:0:0:
128,107,116597,2,0,L|118:71,3,35.9999989013672,8|8|8|8,0:0|0:0|0:0|0:0,0:0:0:0:
51,26,116910,6,0,P|142:83|214:69,1,167.999994873047,6|4,0:0|0:3,0:0:0:0:
210,48,117456,1,0,0:0:0:0:
210,48,117535,1,8,0:0:0:0:
354,13,117691,2,0,P|334:53|343:105,1,83.9999974365235,4|0,0:3|0:0,0:0:0:0:
268,153,118003,6,0,B|400:127|400:127|427:199,1,191.999994140625,6|4,0:0|0:3,0:0:0:0:
451,307,118472,2,0,L|334:288,1,95.9999970703126,8|2,0:0|0:0,0:0:0:0:
176,134,118785,2,0,P|188:178|196:251,1,95.9999970703126,4|4,0:3|0:3,0:0:0:0:
165,373,119097,1,8,0:0:0:0:
53,299,119253,6,0,P|119:242|232:268,1,191.999994140625,4|4,0:3|0:3,0:0:0:0:
336,91,119722,2,0,P|289:104|238:105,1,95.9999970703126,8|2,0:0|0:0,0:0:0:0:
75,36,120035,1,4,0:3:0:0:
176,134,120191,1,4,0:3:0:0:
265,9,120347,1,8,0:0:0:0:
291,192,120503,6,0,P|253:268|276:386,1,191.999994140625,4|4,0:3|0:3,0:0:0:0:
471,312,120972,2,0,P|437:302|350:289,1,95.9999970703126,8|2,0:0|0:0,0:0:0:0:
94,212,121285,2,0,B|127:249|127:249|188:224|268:208,1,191.999994140625,4|8,0:3|0:0,0:0:0:0:
397,64,121753,6,0,B|358:149|422:172|383:265,1,191.999994140625,4|4,0:3|0:3,0:0:0:0:
256,341,122222,2,0,P|235:301|250:222,1,95.9999970703126,8|2,0:0|0:0,0:0:0:0:
228,64,122535,2,0,P|187:124|59:104,1,191.999994140625,4|8,0:3|0:0,0:0:0:0:
17,302,123003,1,2,0:0:0:0:
16,279,123081,1,2,0:0:0:0:
31,262,123160,6,0,P|78:249|144:248,1,95.9999970703126,4|2,0:3|0:0,0:0:0:0:
345,269,123472,1,8,0:0:0:0:
162,345,123628,1,2,0:0:0:0:
213,158,123785,2,0,P|227:198|235:269,1,95.9999970703126,4|4,0:3|0:3,0:0:0:0:
60,136,124097,1,8,0:0:0:0:
319,172,124253,6,0,P|396:145|507:144,1,191.999994140625,4|4,0:3|0:3,0:0:0:0:
314,67,124722,2,0,P|218:68|127:38,2,191.999994140625,8|4|8,0:2|0:3|0:0,0:0:0:0:
198,170,125503,1,2,0:0:0:0:
198,170,125660,6,0,P|166:226|178:282,1,95.9999970703126,4|2,0:3|0:0,0:0:0:0:
281,372,125972,2,0,P|294:319|415:300,1,191.999994140625,8|4,0:0|0:3,0:0:0:0:
147,278,126441,2,0,P|99:279|40:253,1,95.9999970703126,4|8,0:3|0:0,0:0:0:0:
290,154,126753,6,0,B|399:135|399:135|407:84,1,155.999992858887,12|0,0:0|0:0,0:0:0:0:
410,65,127066,1,12,0:0:0:0:
353,256,127222,1,4,0:3:0:0:
191,110,127378,6,0,P|200:167|207:226,1,103.999995239258,12|8,0:0|0:0,0:0:0:0:
147,278,127613,1,8,0:0:0:0:
147,278,127691,2,0,P|109:290|70:293,1,51.999997619629,8|8,0:0|0:0,0:0:0:0:
303,241,127847,2,0,P|328:246|352:255,1,51.999997619629,8|8,0:0|0:0,0:0:0:0:
106,179,128003,6,0,P|78:109|176:10,1,191.999994140625,6|4,0:0|0:3,0:0:0:0:
287,25,128472,2,0,P|294:70|297:137,1,95.9999970703126,8|2,0:0|0:2,0:0:0:0:
306,328,128785,1,4,0:3:0:0:
205,212,128941,1,4,0:3:0:0:
392,142,129097,1,8,0:0:0:0:
303,241,129253,6,0,P|214:263|112:266,1,191.999994140625,4|4,0:3|0:3,0:0:0:0:
1,169,129722,1,8,0:0:0:0:
1,169,130035,1,4,0:3:0:0:
101,240,130191,1,4,0:3:0:0:
18,348,130347,1,8,0:0:0:0:
101,240,130503,6,0,B|101:179|125:120|125:120|86:105|63:53,1,191.999994140625,4|4,0:3|0:3,0:0:0:0:
224,36,130972,2,0,P|233:74|242:146,1,95.9999970703126,8|2,0:0|0:0,0:0:0:0:
369,165,131285,2,0,B|410:119|494:139|494:139|478:220,1,191.999994140625,4|8,0:3|0:0,0:0:0:0:
375,330,131753,6,0,B|334:376|250:356|250:356|266:275,1,191.999994140625,4|4,0:3|0:3,0:0:0:0:
226,141,132222,1,8,0:0:0:0:
226,141,132535,1,4,0:3:0:0:
267,271,132691,1,4,0:3:0:0:
369,165,132847,1,8,0:0:0:0:
157,226,133003,6,0,P|119:155|181:46,1,191.999994140625,6|4,0:0|0:3,0:0:0:0:
347,28,133472,2,0,L|367:144,1,95.9999970703126,8|2,0:0|0:0,0:0:0:0:
367,273,133785,2,0,P|411:245|463:255,2,95.9999970703126,4|4|8,0:3|0:3|0:2,0:0:0:0:
226,141,134253,6,0,P|148:137|4:117,1,191.999994140625,6|4,0:0|0:3,0:0:0:0:
167,246,134722,2,0,P|188:293|195:353,1,95.9999970703126,8|2,0:0|0:2,0:0:0:0:
92,321,135035,1,4,0:3:0:0:
344,247,135191,1,8,0:2:0:0:
204,102,135347,1,8,0:0:0:0:
395,42,135503,6,0,P|375:131|369:237,1,191.999994140625,6|4,0:0|0:3,0:0:0:0:
452,337,135972,1,8,0:0:0:0:
452,337,136128,1,4,0:3:0:0:
277,305,136285,2,0,P|264:264|262:193,1,95.9999970703126,2|4,0:0|0:3,0:0:0:0:
416,137,136597,1,8,0:0:0:0:
237,194,136753,6,0,P|163:238|41:215,1,191.999994140625,6|4,0:0|0:3,0:0:0:0:
1,130,137222,1,8,0:3:0:0:
277,305,137378,2,0,P|370:292|452:337,1,191.999994140625,6|4,0:0|0:3,0:0:0:0:
353,384,137847,1,8,0:0:0:0:
353,189,138003,5,6,0:0:0:0:
256,192,138081,12,8,139097,0:3:0:0:
159,195,139253,5,6,0:0:0:0:
256,192,139331,12,0,140660,0:0:0:0:
256,191,140972,6,0,P|309:208|358:214,1,95.9999970703126,2|0,0:0|0:0,0:0:0:0:
260,293,141441,2,0,P|212:300|167:315,1,95.9999970703126,2|0,0:0|0:0,0:0:0:0:
115,115,141910,6,0,P|160:152|159:241,1,128,8|2,0:0|0:0,0:0:0:0:
305,356,142378,6,0,P|311:293|358:252,1,111.999996582031,8|4,0:3|0:3,0:0:0:0:
432,99,142847,6,0,B|402:164|342:167|342:167|345:155|345:155|330:156|330:156|317:145|317:145|323:129|323:129|311:124|311:124|308:109|308:109|292:102,1,220,6|0,0:0|0:0,0:0:0:0:
233,47,143785,5,4,0:3:0:0:
233,47,143941,1,4,0:3:0:0:
233,47,144097,2,0,P|239:87|248:169,1,111.999996582031,4|8,0:3|0:0,0:0:0:0:
277,359,144722,1,2,0:3:0:0:
293,258,144878,6,0,P|244:253|173:240,1,111.999996582031,4|0,0:3|0:0,0:0:0:0:
86,152,145347,2,0,P|115:147|145:138,1,55.9999982910157,4|0,0:3|0:0,0:0:0:0:
277,61,145660,2,0,P|242:104|257:173,1,111.999996582031,8|2,0:0|0:3,0:0:0:0:
450,120,146285,5,4,0:3:0:0:
450,120,146441,1,4,0:3:0:0:
450,120,146597,2,0,P|394:127|332:141,1,111.999996582031,4|8,0:3|0:0,0:0:0:0:
86,152,147222,1,2,0:3:0:0:
181,208,147378,6,0,P|199:260|204:337,1,111.999996582031,4|0,0:3|0:0,0:0:0:0:
300,379,147847,1,4,0:3:0:0:
400,348,148003,1,4,0:3:0:0:
300,379,148160,2,0,P|305:323|324:270,1,111.999996582031,8|2,0:2|0:3,0:0:0:0:
332,79,148785,5,4,0:3:0:0:
450,120,148941,2,0,P|385:112|315:92,1,111.999996582031,4|0,0:3|0:0,0:0:0:0:
207,75,149410,2,0,P|242:126|237:189,1,111.999996582031,8|2,0:0|0:0,0:0:0:0:
332,302,149878,6,0,P|334:246|367:202,1,111.999996582031,4|0,0:3|0:0,0:0:0:0:
208,183,150347,2,0,L|137:195,1,55.9999982910157,4|0,0:3|0:0,0:0:0:0:
85,273,150660,2,0,P|50:222|55:159,1,111.999996582031,8|2,0:0|0:3,0:0:0:0:
351,194,151285,6,0,P|403:203|479:204,1,111.999996582031,4|4,0:3|0:3,0:2:0:0:
283,338,151910,2,0,P|227:339|171:349,1,111.999996582031,8|4,0:2|0:3,0:2:0:0:
85,273,152378,1,4,0:3:0:0:
184,241,152535,6,0,P|200:210|208:167,2,63.9999980468751,8|8|8,0:0|0:0|0:0,0:0:0:0:
60,300,152847,2,0,P|67:330|83:358,2,63.9999980468751,8|8|8,0:0|0:0|0:0,0:0:0:0:
88,186,153160,6,0,L|-10:169,2,63.9999980468751,8|8|8,0:0|0:0|0:0,0:0:0:0:
217,77,153472,2,0,L|153:87,2,63.9999980468751,8|8|8,0:0|0:0|0:0,0:0:0:0:
374,26,153785,6,0,P|324:89|345:189,1,176.000005371094,14|4,0:0|0:3,0:0:0:0:
470,245,154253,2,0,B|383:236|386:315|267:264,1,176.000005371094,8|4,0:0|0:3,0:0:0:0:
202,193,154722,6,0,P|252:256|231:356,1,176.000005371094,8|4,0:0|0:3,0:0:0:0:
102,297,155191,2,0,P|94:218|88:109,1,176.000005371094,8|4,0:0|0:3,0:0:0:0:
121,13,155660,2,0,P|78:20|27:28,1,88.000002685547,8|4,0:0|0:3,0:0:0:0:
263,135,155972,1,8,0:0:0:0:
263,135,156285,6,0,P|176:125|81:121,1,176.000005371094,14|4,0:0|0:3,0:0:0:0:
102,297,156753,2,0,P|123:239|226:227,1,176.000005371094,8|4,0:0|0:3,0:0:0:0:
338,384,157222,6,0,B|348:331|313:296|313:296|346:252|327:193,1,176.000005371094,8|4,0:0|0:3,0:0:0:0:
386,64,157691,2,0,P|365:122|262:134,1,176.000005371094,8|4,0:0|0:3,0:0:0:0:
415,287,158160,2,0,P|471:288|507:300,1,88.000002685547,8|4,0:0|0:3,0:0:0:0:
225,226,158472,1,8,0:0:0:0:
225,226,158785,6,0,P|136:250|16:252,1,176.000005371094,12|4,0:0|0:3,0:0:0:0:
0,81,159253,2,0,B|75:62|75:62|127:90|122:171,1,176.000005371094,8|4,0:0|0:3,0:0:0:0:
261,105,159722,6,0,P|348:110|433:134,1,176.000005371094,8|4,0:0|0:3,0:0:0:0:
346,288,160191,2,0,B|271:307|271:307|219:279|224:198,1,176.000005371094,8|4,0:0|0:3,0:0:0:0:
130,56,160660,2,0,P|129:103|113:166,1,88.000002685547,8|4,0:0|0:3,0:0:0:0:
0,81,160972,1,8,0:0:0:0:
0,81,161285,6,0,P|13:167|23:268,1,176.000005371094,12|4,0:0|0:3,0:0:0:0:
201,359,161753,2,0,B|158:363|118:333|118:333|100:279|159:233,1,176.000005371094,8|4,0:0|0:3,0:0:0:0:
312,154,162222,6,0,B|349:180|331:234|331:234|291:264|248:260,1,176.000005371094,8|4,0:0|0:3,0:0:0:0:
102,58,162691,1,8,0:0:0:0:
148,225,162847,1,8,0:0:0:0:
59,160,163003,5,8,0:3:0:0:
167,193,163160,1,8,0:3:0:0:
214,93,163316,1,8,0:3:0:0:
435,155,163472,5,12,0:0:0:0:
435,155,163785,6,0,B|349:125|356:221|254:183,1,176.000005371094,12|4,0:0|0:3,0:0:0:0:
82,86,164253,2,0,B|128:39|128:39|218:39|217:122,1,176.000005371094,8|4,0:0|0:3,0:0:0:0:
224,271,164722,6,0,P|223:240|251:89,1,176.000005371094,8|4,0:0|0:3,0:0:0:0:
91,211,165191,2,0,P|111:296|114:384,1,176.000005371094,8|4,0:0|0:3,0:0:0:0:
230,301,165660,2,0,P|265:283|330:281,1,88.000002685547,8|4,0:0|0:3,0:0:0:0:
0,210,165972,1,12,0:0:0:0:
0,210,166285,6,0,P|66:221|196:221,1,176.000005371094,12|4,0:0|0:3,0:0:0:0:
361,133,166753,2,0,B|385:102|377:57|377:57|329:16|276:54,1,176.000005371094,8|4,0:0|0:3,0:0:0:0:
200,148,167222,6,0,B|210:216|183:261|183:261|210:285|220:330,1,176.000005371094,8|4,0:0|0:3,0:0:0:0:
380,384,167691,2,0,B|423:337|423:337|396:189,1,176.000005371094,8|4,0:0|0:3,0:0:0:0:
322,117,168160,2,0,P|370:107|410:96,1,88.000002685547,8|4,0:2|0:3,0:0:0:0:
343,23,168472,1,8,0:3:0:0:
391,198,168628,1,8,0:3:0:0:
205,60,168785,6,0,P|192:112|197:166,1,88.000002685547,12|4,0:0|0:3,0:0:0:0:
256,352,169097,1,4,0:3:0:0:
334,203,169253,6,0,P|333:159|321:116,1,88.000002685547,12|4,0:0|0:3,0:0:0:0:
256,352,169566,1,4,0:3:0:0:
161,176,169722,6,0,P|118:170|53:158,1,88.000002685547,12|4,0:0|0:3,0:0:0:0:
256,352,170035,1,4,0:3:0:0:
357,218,170191,6,0,P|400:210|443:204,1,88.000002685547,12|4,0:0|0:3,0:0:0:0:
256,352,170503,1,4,0:3:0:0:
93,267,170660,6,0,P|64:313|73:373,1,88.000002685547,12|4,0:2|0:3,0:0:0:0:
452,369,170972,2,0,P|447:325|422:290,1,88.000002685547,12|4,0:2|0:3,0:0:0:0:
256,32,171285,5,12,0:2:0:0:
161,176,171441,2,0,L|173:257,1,64,4|4,0:3|0:3,0:0:0:0:
256,32,171753,5,8,0:0:0:0:
368,155,171910,2,0,L|354:233,1,64,4|4,0:3|0:3,0:0:0:0:
256,32,172222,5,8,0:0:0:0:
93,106,172378,2,0,L|166:98,1,55.9999982910157,4|4,0:3|0:3,0:0:0:0:
256,32,172691,5,8,0:0:0:0:
411,127,172847,2,0,L|338:119,1,55.9999982910157,4|4,0:3|0:3,0:0:0:0:
256,32,173160,5,8,0:0:0:0:
260,247,173316,1,8,0:0:0:0:
332,150,173472,1,4,0:3:0:0:
129,194,173628,5,12,0:0:0:0:
129,194,175503,5,4,0:3:0:0:
351,133,175660,1,8,0:0:0:0:
234,49,175816,2,0,L|154:40,1,55.9999982910157,4|0,0:3|0:0,0:0:0:0:
319,293,176128,5,12,0:0:0:0:
319,293,177378,5,4,0:3:0:0:
319,293,177456,1,4,0:3:0:0:
319,293,177535,1,8,0:2:0:0:
224,241,177691,2,0,P|213:276|214:311,1,55.9999982910157,4|0,0:3|0:0,0:0:0:0:
280,154,178003,6,0,P|248:191|130:188,1,160,12|4,0:0|0:3,0:0:0:0:
57,120,178472,1,4,0:3:0:0:
190,101,178628,6,0,P|297:116|391:120,1,176.000005371094,6|4,0:0|0:3,0:0:0:0:
503,81,179097,2,0,P|463:126|479:254,1,160,8|2,0:0|0:2,0:0:0:0:
473,376,179566,1,4,0:3:0:0:
378,311,179722,2,0,P|343:298|276:292,1,80,8|2,0:0|0:0,0:0:0:0:
140,367,180035,6,0,P|179:361|217:348,1,80,4|2,0:3|0:0,0:0:0:0:
204,237,180347,2,0,P|188:166|183:66,1,160,8|4,0:0|0:3,0:0:0:0:
298,125,180816,1,4,0:3:0:0:
93,178,180972,1,8,0:0:0:0:
298,125,181128,6,0,B|346:115|386:146|386:146|435:131|430:67,1,160,4|4,0:3|0:3,0:0:0:0:
316,214,181597,2,0,P|303:258|300:312,1,80,8|2,0:0|0:0,0:0:0:0:
371,370,181910,1,2,0:0:0:0:
381,374,182066,1,4,0:3:0:0:
256,369,182222,1,2,0:0:0:0:
266,373,182378,1,8,0:0:0:0:
141,368,182535,6,0,P|128:323|125:270,1,80,4|2,0:3|0:0,0:0:0:0:
35,172,182847,1,8,0:0:0:0:
20,300,183003,1,8,0:0:0:0:
151,263,183160,1,4,0:3:0:0:
152,112,183316,1,4,0:3:0:0:
14,189,183472,1,8,0:0:0:0:
180,232,183628,6,0,P|263:222|350:200,1,160,6|4,0:2|0:3,0:0:0:0:
451,75,184097,2,0,P|426:115|429:158,1,80,8|2,0:0|0:0,0:0:0:0:
451,358,184410,1,4,0:3:0:0:
451,358,184566,1,4,0:3:0:0:
512,266,184722,2,0,L|415:251,1,80,8|2,0:0|0:0,0:0:0:0:
189,124,185035,5,2,0:0:0:0:
194,138,185113,1,2,0:0:0:0:
199,153,185191,2,0,L|296:138,1,80,12|2,0:0|0:0,0:0:0:0:
459,51,185503,1,8,0:0:0:0:
407,174,185660,1,8,0:3:0:0:
267,23,185816,1,8,0:0:0:0:
291,137,185972,1,4,0:3:0:0:
62,112,186128,5,14,0:0:0:0:
256,192,186206,12,8,187378,0:0:0:0:
256,192,187535,5,12,0:2:0:0:
338,92,196128,5,4,0:3:0:0:
338,92,196206,1,4,0:3:0:0:
338,92,196285,2,0,P|298:87|256:73,1,71.9999978027344,12|4,0:2|0:3,0:0:0:0:
155,211,196597,2,0,P|189:200|225:197,1,71.9999978027344,8|4,0:2|0:3,0:0:0:0:
214,298,196910,5,8,0:0:0:0:
258,103,197066,1,8,0:0:0:0:
335,223,197222,1,8,0:0:0:0:
95,147,197378,6,0,P|105:214|110:292,1,143.999995605469,12|0,0:0|0:0,0:0:0:0:
96,309,197691,1,12,0:0:0:0:
225,197,197847,1,4,0:3:0:0:
14,202,198003,2,0,P|0:127|93:51,1,191.999994140625,12|8,0:0|0:0,0:0:0:0:
166,17,198394,1,8,0:0:0:0:
166,17,198472,2,0,L|176:79,1,47.9999985351563,8|8,0:0|0:0,0:0:0:0:
225,197,198628,6,0,B|231:161|248:139|248:139|331:114|390:183,1,191.999994140625,12|4,0:0|0:3,0:0:0:0:
454,294,199097,1,8,0:0:0:0:
336,266,199253,1,2,0:0:0:0:
441,101,199410,2,0,P|450:147|454:209,1,95.9999970703126,4|4,0:3|0:3,0:0:0:0:
365,366,199722,1,8,0:0:0:0:
299,272,199878,6,0,P|258:233|125:240,1,191.999994140625,4|4,0:3|0:3,0:0:0:0:
0,101,200347,2,0,P|51:117|112:111,1,95.9999970703126,8|2,0:0|0:0,0:0:0:0:
225,111,200660,2,0,P|213:76|211:10,2,95.9999970703126,4|4|8,0:3|0:3|0:0,0:0:0:0:
370,42,201128,6,0,B|431:29|431:29|490:105|428:187,1,191.999994140625,4|4,0:3|0:3,0:0:0:0:
405,291,201597,2,0,P|444:273|503:269,1,95.9999970703126,8|2,0:0|0:0,0:0:0:0:
322,356,201910,2,0,B|276:264|342:249|304:156,1,191.999994140625,4|8,0:3|0:0,0:0:0:0:
189,255,202378,6,0,B|149:317|74:291|74:291|88:248|56:218,1,191.999994140625,4|4,0:3|0:3,0:0:0:0:
44,46,202847,2,0,P|108:56|130:88,1,95.9999970703126,8|2,0:0|0:0,0:0:0:0:
223,228,203160,2,0,P|199:167|216:132,1,95.9999970703126,4|4,0:3|0:3,0:0:0:0:
292,1,203472,1,8,0:0:0:0:
406,77,203628,6,0,P|348:106|214:112,1,191.999994140625,6|4,0:0|0:3,0:0:0:0:
405,291,204097,1,8,0:0:0:0:
405,291,204410,1,4,0:3:0:0:
309,359,204566,1,4,0:3:0:0:
303,244,204722,1,8,0:0:0:0:
390,313,204878,6,0,P|352:329|183:336,1,191.999994140625,6|4,0:0|0:3,0:0:0:0:
57,264,205347,2,0,P|67:315|72:377,1,95.9999970703126,8|0,0:0|0:0,0:0:0:0:
206,229,205660,2,0,P|210:181|220:134,1,95.9999970703126,4|4,0:3|0:3,0:0:0:0:
131,41,205972,1,8,0:0:0:0:
322,208,206128,6,0,P|385:190|376:62,1,191.999994140625,6|4,0:0|0:3,0:0:0:0:
267,19,206597,1,8,0:0:0:0:
416,61,206753,1,2,0:0:0:0:
200,136,206910,2,0,P|147:146|95:151,1,95.9999970703126,2|4,0:0|0:3,0:0:0:0:
283,50,207222,1,8,0:0:0:0:
190,265,207378,6,0,P|94:247|-5:248,1,191.999994140625,6|4,0:0|0:3,0:0:0:0:
95,128,207847,1,8,0:3:0:0:
281,204,208003,2,0,B|317:257|317:257|413:250|431:168,1,191.999994140625,6|4,0:0|0:3,0:0:0:0:
384,98,208472,1,8,0:0:0:0:
261,329,208628,5,6,0:2:0:0:
256,192,208706,12,4,209722,0:3:0:0:
256,192,209878,5,6,0:0:0:0:
256,192,209956,12,0,210972,0:3:0:0:
251,55,211128,5,6,0:2:0:0:
256,192,211206,12,0,212378,0:0:0:0:
239,253,212535,6,0,P|256:291|260:344,1,80,8|4,0:0|0:3,0:0:0:0:
229,130,212847,2,0,P|234:90|250:54,1,80,8|4,0:0|0:3,0:0:0:0:
417,114,213160,5,8,0:0:0:0:
139,198,213316,1,8,0:0:0:0:
139,198,213628,6,0,P|231:199|331:213,1,160,6|4,0:0|0:3,0:0:0:0:
374,338,214097,2,0,P|331:350|276:351,1,80,8|2,0:0|0:0,0:0:0:0:
133,286,214410,1,4,0:3:0:0:
228,114,214566,1,4,0:3:0:0:
260,328,214722,1,8,0:0:0:0:
320,175,214878,6,0,P|334:144|332:87,1,80,4|2,0:3|0:3,0:3:0:0:
171,21,215191,2,0,P|170:60|186:97,1,80,4|10,0:3|0:2,0:3:0:0:
415,219,215503,2,0,P|378:211|321:210,1,80,4|2,0:3|0:3,0:0:0:0:
53,295,215816,2,0,P|92:292|132:285,1,80,4|8,0:3|0:2,0:0:0:0:
320,175,216128,1,2,0:2:0:0:
216,254,216285,6,0,P|206:310|207:357,1,80,6|2,0:0|0:0,0:0:0:0:
415,219,216597,2,0,P|425:163|378:88,1,120,8|4,0:0|0:3,0:0:0:0:
378,94,216910,1,4,0:3:0:0:
497,58,217066,1,4,0:3:0:0:
320,175,217222,2,0,P|280:170|233:155,1,80,8|2,0:0|0:0,0:0:0:0:
136,68,217535,5,12,0:0:0:0:
244,53,217691,1,4,0:3:0:0:
428,190,217847,5,12,0:0:0:0:
320,175,218003,1,4,0:3:0:0:
136,312,218160,5,12,0:2:0:0:
244,285,218316,1,4,0:3:0:0:
167,208,218472,1,4,0:3:0:0:
330,358,218628,6,0,P|341:286|338:187,1,160,6|4,0:0|0:3,0:0:0:0:
203,18,219097,2,0,L|217:119,1,80,8|2,0:0|0:0,0:0:0:0:
244,285,219410,1,4,0:3:0:0:
320,175,219566,1,4,0:3:0:0:
115,109,219722,1,8,0:0:0:0:
316,56,219878,6,0,P|366:49|407:41,1,80,4|2,0:3|0:3,0:3:0:0:
167,208,220191,2,0,P|127:200|87:195,1,80,4|8,0:3|0:2,0:3:0:0:
328,277,220503,2,0,P|337:246|338:189,1,80,4|2,0:3|0:3,0:0:0:0:
154,30,220816,2,0,P|154:69|165:108,1,80,4|8,0:3|0:2,0:0:0:0:
253,224,221128,1,2,0:0:0:0:
77,305,221285,6,0,P|36:301|-1:289,1,80,6|2,0:0|0:0,0:0:0:0:
166,137,221597,1,8,0:0:0:0:
166,137,221753,1,8,0:0:0:0:
243,324,221910,2,0,P|280:311|320:308,1,80,4|4,0:3|0:3,0:0:0:0:
85,202,222222,2,0,P|65:151|96:56,1,120,8|8,0:0|0:3,0:0:0:0:
97,64,222535,5,4,0:3:0:0:
302,41,222691,1,2,0:0:0:0:
302,41,222769,1,4,0:3:0:0:
302,41,222847,2,0,P|299:93|278:131,1,80,4|2,0:3|0:0,0:0:0:0:
228,278,223160,1,4,0:3:0:0:
166,137,223316,1,4,0:3:0:0:
391,180,223472,5,12,0:0:0:0:
391,180,224410,6,0,B|343:142|286:183|286:183|268:98|201:97|201:97|209:148|191:169|191:169|141:186|115:146,1,389.999982147218,14|0,0:0|0:0,0:0:0:0:
42,186,225660,6,0,P|36:146|28:110,2,74.6666643880209,2|2|2,0:0|0:0|0:0,0:0:0:0:
104,249,225972,2,0,P|95:285|90:322,2,74.6666643880209,2|2|2,0:0|0:0|0:0,0:0:0:0:
191,327,226285,6,0,P|246:371|350:335,1,160,12|4,0:0|0:3,0:0:0:0:
391,180,226753,1,14,0:0:0:0:
