osu file format v14

[General]
AudioFilename: audio.mp3
AudioLeadIn: 0
PreviewTime: 52310
Countdown: 0
SampleSet: Soft
StackLeniency: 0.7
Mode: 0
LetterboxInBreaks: 0
WidescreenStoryboard: 0

[Editor]
DistanceSpacing: 1.2
BeatDivisor: 4
GridSize: 4
TimelineZoom: 1.5

[Metadata]
Title:Key of Truth
TitleUnicode:Key of Truth
Artist:sweet ARMS
ArtistUnicode:sweet ARMS
Creator:sahuang
Version:Celsius' Hard
Source:デート・ア・ライブTwin Edition凜緒リンカーネイション
Tags:DATE A LIVE Twin Edition Rio Reincarnation game opening theme song ps vita kawaiwkyik rizia wkyik gaia my angel azusa Celsiuslk
BeatmapID:1436645
BeatmapSetID:665179

[Difficulty]
HPDrainRate:6
CircleSize:4
OverallDifficulty:6
ApproachRate:7.5
SliderMultiplier:1.4
SliderTickRate:2

[Events]
//Background and Video events
0,0,"bg.jpg",0,0
//Break Periods
2,23360,31085
2,75860,87335
2,143985,151710
2,188628,195460
//Storyboard Layer 0 (Background)
//Storyboard Layer 1 (Fail)
//Storyboard Layer 2 (Pass)
//Storyboard Layer 3 (Foreground)
//Storyboard Sound Samples

[TimingPoints]
660,312.5,4,2,1,40,1,0
2378,-133.333333333333,4,2,1,40,0,0
3003,-133.333333333333,4,2,1,40,0,0
13003,-100,4,2,1,60,0,0
22847,-100,4,2,1,60,0,0
23160,-100,4,2,1,60,0,0
33003,-100,4,2,1,60,0,0
41753,-100,4,2,1,60,0,0
43160,-100,4,2,1,60,0,0
45660,-100,4,2,1,60,0,0
50503,-100,4,2,1,60,0,0
51910,-166.666666666667,4,2,1,60,0,0
52535,-100,4,2,1,60,0,0
52847,-100,4,2,1,60,0,0
53003,-100,4,2,1,80,0,1
61753,-100,4,2,1,80,0,1
62066,-100,4,2,1,80,0,1
62378,-100,4,2,1,80,0,0
63003,-100,4,2,1,80,0,1
68003,-100,4,2,1,80,0,1
73003,-100,4,2,1,80,0,0
78160,-100,4,2,1,80,0,0
88160,-133.333333333333,4,2,1,40,0,0
95660,-133.333333333333,4,2,1,40,0,0
98003,-100,4,2,1,60,0,0
106753,-100,4,2,1,60,0,0
108160,-100,4,2,1,60,0,0
113160,-100,4,2,1,60,0,0
114253,-100,4,2,1,60,0,0
118003,-100,4,2,1,80,0,1
126753,-100,4,2,1,80,0,1
127066,-100,4,2,1,80,0,1
127378,-100,4,2,1,80,0,0
128003,-100,4,2,1,80,0,1
133003,-100,4,2,1,80,0,1
138003,-100,4,2,1,80,0,0
140503,-100,4,2,1,80,0,0
143785,312.5,4,2,1,70,1,0
143785,-100,4,2,1,70,0,0
152535,-100,4,2,1,70,0,0
152847,-100,4,2,1,70,0,0
153160,-100,4,2,1,70,0,0
153472,-100,4,2,1,70,0,0
153785,-100,4,2,1,70,0,0
163472,-100,4,2,1,70,0,0
163785,-100,4,2,1,70,0,0
166285,-100,4,2,1,70,0,0
168785,-100,4,2,1,70,0,0
171285,-100,4,2,1,70,0,0
173628,-100,4,2,1,70,0,0
176128,-100,4,2,1,70,0,0
183628,-100,4,2,1,70,0,0
186128,-100,4,2,1,70,0,0
188003,-100,4,2,1,70,0,0
196285,-100,4,2,1,70,0,0
197378,-100,4,2,1,70,0,0
197691,-100,4,2,1,70,0,0
198003,-100,4,2,1,70,0,0
198628,-100,4,2,1,70,0,1
208628,-100,4,2,1,70,0,0
223472,-100,4,2,1,70,0,0
225894,-100,4,2,1,5,0,0
226050,-100,4,2,1,70,0,0

[Colours]
Combo1 : 255,196,255
Combo2 : 0,128,128
Combo3 : 255,128,128
Combo4 : 0,64,128

[HitObjects]
140,144,2378,5,0,0:0:0:0:
140,144,2535,2,0,L|87:140,2,52.5000020027161,0|0|0,0:0|0:0|0:0,0:0:0:0:
212,180,3003,6,0,P|268:184|320:164,1,105.000004005432,2|0,0:0|0:0,0:0:0:0:
396,96,3472,2,0,P|400:132|404:164,1,52.5000020027161,2|0,0:0|0:0,0:0:0:0:
440,220,3785,2,0,P|412:226|388:231,1,52.5000020027161,2|0,0:0|0:0,0:0:0:0:
344,296,4097,1,0,0:0:0:0:
268,272,4253,6,0,L|108:296,1,157.500006008148,2|0,0:0|0:0,0:0:0:0:
12,172,5035,2,0,L|28:248,2,52.5000020027161
12,92,5503,6,0,P|62:80|111:97,1,105.000004005432,2|0,0:0|0:0,0:0:0:0:
176,184,5972,2,0,P|184:160|191:134,1,52.5000020027161,2|2,0:0|0:0,0:0:0:0:
224,36,6285,2,0,P|236:51|260:75,1,52.5000020027161,2|0,0:0|0:0,0:0:0:0:
332,108,6597,1,0,0:0:0:0:
412,40,6753,6,0,L|424:200,1,157.500006008148,2|0,0:0|0:0,0:0:0:0:
300,288,7535,2,0,L|176:292,1,105.000004005432,2|2,0:0|0:0,0:0:0:0:
120,352,8003,6,0,P|100:272|144:208,1,157.500006008148,2|0,0:0|0:0,0:0:0:0:
236,84,8785,2,0,L|344:100,1,105.000004005432,2|0,0:0|0:0,0:0:0:0:
424,60,9253,6,0,P|427:111|407:167,1,105.000004005432,2|0,0:0|0:0,0:0:0:0:
348,212,9722,2,0,L|276:204,1,52.5000020027161,2|0,0:0|0:0,0:0:0:0:
224,244,10035,2,0,L|152:236,1,52.5000020027161,2|0,0:0|0:0,0:0:0:0:
104,276,10347,1,2,0:0:0:0:
68,136,10503,1,2,0:0:0:0:
256,192,10660,12,8,12535,0:0:0:0:
256,200,13003,6,0,L|116:193,1,140,6|0,0:0|0:0,0:0:0:0:
44,272,13472,2,0,P|28:232|32:196,1,70,8|0,0:0|0:0,0:0:0:0:
36,120,13785,2,0,L|108:108,1,70,4|4,0:3|0:3,0:0:0:0:
188,92,14097,1,8,0:0:0:0:
292,0,14253,6,0,L|276:156,1,140,4|4,0:3|0:3,0:0:0:0:
312,240,14722,2,0,P|275:225|235:221,1,70,8|2,0:0|0:0,0:0:0:0:
168,184,15035,2,0,L|152:256,1,70,4|4,0:3|0:3,0:0:0:0:
124,332,15347,1,8,0:0:0:0:
204,316,15503,1,0,0:3:0:0:
336,356,15660,6,0,P|400:365|472:325,1,140,6|8,0:0|0:0,0:0:0:0:
480,248,16128,1,2,0:0:0:0:
480,248,16206,1,8,0:3:0:0:
480,248,16285,2,0,L|464:92,1,140,4|8,0:3|0:0,0:0:0:0:
448,24,16753,1,2,0:0:0:0:
368,140,16910,6,0,P|344:168|304:192,1,70,12|4,0:0|0:3,0:0:0:0:
216,248,17222,2,0,P|204:208|208:156,1,70,12|4,0:0|0:3,0:0:0:0:
256,112,17535,1,12,0:0:0:0:
148,56,17691,1,8,0:0:0:0:
228,32,17847,1,8,0:3:0:0:
135,140,18003,6,0,P|68:155|5:128,1,140,6|2,0:0|0:0,0:0:0:0:
40,232,18472,2,0,P|36:288|40:312,1,70,8|2,0:0|0:0,0:0:0:0:
104,356,18785,2,0,L|184:344,1,70,4|4,0:3|0:3,0:0:0:0:
236,288,19097,1,8,0:0:0:0:
340,364,19253,6,0,L|350:224,1,140,4|4,0:3|0:3,0:0:0:0:
376,112,19722,2,0,P|344:120|296:160,1,70,8|2,0:0|0:0,0:0:0:0:
236,176,20035,2,0,P|244:209|263:238,1,70,4|2,0:3|0:0,0:0:0:0:
350,224,20347,2,0,P|390:216|426:184,1,70,8|0,0:0|0:0,0:0:0:0:
504,100,20660,6,0,L|492:260,1,140,6|8,0:0|0:0,0:0:0:0:
488,324,21128,1,8,0:0:0:0:
392,248,21285,2,0,L|244:260,1,140,4|8,0:3|0:0,0:0:0:0:
188,316,21753,1,0,0:0:0:0:
124,228,21910,6,0,P|128:196|152:152,1,70,4|0,0:3|0:0,0:0:0:0:
228,160,22222,2,0,P|249:132|276:110,1,70,8|4,0:0|0:3,0:0:0:0:
368,32,22535,2,0,L|376:112,1,70,8|4,0:0|0:3,0:0:0:0:
476,204,22847,2,0,L|392:188,1,70,12|0,0:0|0:0,0:0:0:0:
228,160,23160,5,4,0:0:0:0:
144,160,31910,5,12,0:0:0:0:
308,128,32222,1,12,0:0:0:0:
472,92,32535,1,12,0:0:0:0:
408,144,32691,1,12,0:0:0:0:
408,144,33003,6,0,P|376:216|392:288,1,140,14|0,0:0|0:0,0:0:0:0:
476,336,33472,2,0,P|443:343|407:363,1,70,8|2,0:0|0:0,0:0:0:0:
328,348,33785,2,0,L|259:333,1,70,2|4,0:0|0:3,0:0:0:0:
180,356,34097,1,2,0:0:0:0:
164,272,34253,1,8,0:2:0:0:
104,204,34410,6,0,P|170:183|242:223,1,140,4|8,0:3|0:0,0:0:0:0:
300,260,34878,1,0,0:0:0:0:
372,216,35035,2,0,L|384:132,1,70,4|4,0:3|0:3,0:0:0:0:
416,44,35347,2,0,P|376:48|332:64,1,70,8|2,0:0|0:0,0:0:0:0:
220,128,35660,6,0,L|200:296,1,140,4|8,0:3|0:0,0:0:0:0:
188,352,36128,1,0,0:0:0:0:
104,328,36285,2,0,P|88:284|88:240,1,70,4|0,0:3|0:0,0:0:0:0:
104,176,36597,1,0,0:0:0:0:
244,216,36753,1,6,0:0:0:0:
220,128,36910,6,0,L|293:134,1,70,0|4,0:0|0:3,0:0:0:0:
352,192,37222,2,0,P|388:176|432:168,1,70,8|8,0:0|0:0,0:0:0:0:
480,224,37535,2,0,L|472:284,3,35,4|4|4|4,0:3|0:3|0:3|0:3,0:0:0:0:
476,284,37847,2,0,L|401:286,1,70,8|8,0:0|0:0,0:0:0:0:
256,320,38160,6,0,L|100:296,1,140,6|8,0:0|0:0,0:0:0:0:
44,260,38628,1,2,0:0:0:0:
112,212,38785,2,0,P|132:176|140:132,1,70,4|4,0:3|0:3,0:0:0:0:
104,72,39097,1,2,0:0:0:0:
224,176,39253,6,0,L|363:159,1,140,8|4,0:0|0:3,0:0:0:0:
460,96,39722,2,0,L|452:172,1,70,8|0,0:0|0:0,0:0:0:0:
408,240,40035,2,0,L|416:332,1,70,4|2,0:3|0:0,0:0:0:0:
320,268,40347,2,0,L|244:260,1,70,8|2,0:0|0:0,0:0:0:0:
136,356,40660,6,0,L|160:284,1,70,6|4,0:0|0:3,0:0:0:0:
184,184,40972,2,0,L|172:100,1,70,8|2,0:0|0:0,0:0:0:0:
112,20,41285,2,0,L|204:32,1,70,4|0,0:3|0:0,0:0:0:0:
260,64,41597,1,8,0:0:0:0:
368,0,41753,6,0,L|352:160,1,140,4|4,0:2|0:3,0:0:0:0:
396,224,42222,2,0,P|360:236|312:228,1,70,8|4,0:0|0:3,0:0:0:0:
236,300,42535,2,0,P|216:272|208:228,1,70,8|8,0:0|0:3,0:0:0:0:
92,208,42847,2,0,P|99:173|115:143,1,70,8|0,0:3|0:0,0:0:0:0:
228,36,43160,6,0,L|64:52,1,140,6|4,0:0|0:3,0:0:0:0:
240,128,43785,2,0,L|404:144,1,140,4|4,0:3|0:3,0:0:0:0:
248,252,44410,5,4,0:3:0:0:
104,336,44722,1,4,0:3:0:0:
140,176,45035,1,4,0:3:0:0:
204,336,45347,1,4,0:3:0:0:
284,364,45503,1,6,0:0:0:0:
344,304,45660,6,0,L|483:300,1,140,4|4,0:3|0:3,0:0:0:0:
348,200,46285,1,4,0:3:0:0:
256,60,46597,1,4,0:3:0:0:
192,116,46753,6,0,L|176:264,1,140,12|2,0:0|0:0,0:0:0:0:
164,340,47222,1,4,0:3:0:0:
20,252,47535,1,4,0:3:0:0:
92,100,47847,1,8,0:3:0:0:
144,164,48003,1,8,0:3:0:0:
224,136,48160,6,0,L|372:120,1,140,6|4,0:0|0:3,0:0:0:0:
440,84,48628,1,2,0:0:0:0:
484,156,48785,2,0,P|504:228|492:292,1,140,4|4,0:3|0:3,0:0:0:0:
340,312,49253,6,0,P|280:276|204:272,1,140,12|4,0:0|0:3,0:0:0:0:
144,320,49722,1,8,0:0:0:0:
68,284,49878,1,4,0:3:0:0:
128,224,50035,2,0,L|136:144,1,70,4|8,0:3|0:0,0:0:0:0:
128,72,50347,1,8,0:0:0:0:
224,180,50503,6,0,L|363:168,1,140,6|4,0:0|0:3,0:0:0:0:
440,204,50972,2,0,P|432:248|424:276,1,70,8|8,0:0|0:0,0:0:0:0:
320,280,51285,2,0,P|292:308|267:326,1,70,8|8,0:0|0:0,0:0:0:0:
160,360,51597,2,0,P|112:352|76:332,1,70,8|8,0:3|0:3,0:0:0:0:
24,236,51910,6,0,P|77:220|145:244,1,125.999996154785,6|0,0:0|0:0,0:0:0:0:
184,172,52535,6,0,L|260:180,1,70,2|0,0:0|0:0,0:0:0:0:
332,148,52847,1,8,0:0:0:0:
416,256,53003,6,0,L|428:108,1,140,6|4,0:0|0:3,0:0:0:0:
476,16,53472,2,0,L|380:40,1,70,8|2,0:0|0:0,0:0:0:0:
328,64,53785,2,0,P|292:60|252:40,1,70,4|4,0:3|0:3,0:0:0:0:
184,8,54097,1,8,0:0:0:0:
112,140,54253,6,0,L|123:295,1,140,4|4,0:3|0:3,0:0:0:0:
168,352,54722,2,0,P|228:336|316:352,1,140,8|4,0:0|0:3,0:0:0:0:
384,372,55191,1,0,0:0:0:0:
436,300,55347,1,8,0:0:0:0:
368,200,55503,6,0,L|196:196,1,140,4|4,0:3|0:3,0:0:0:0:
144,268,55972,2,0,L|132:198,1,70,8|2,0:0|0:0,0:0:0:0:
84,128,56285,2,0,P|112:106|144:94,1,70,4|0,0:3|0:0,0:0:0:0:
224,116,56597,1,8,0:0:0:0:
352,52,56753,6,0,L|494:70,1,140,4|4,0:3|0:3,0:0:0:0:
400,144,57222,2,0,L|380:224,1,70,8|0,0:0|0:0,0:0:0:0:
300,288,57535,2,0,L|292:212,1,70,4|4,0:3|0:3,0:0:0:0:
264,136,57847,1,8,0:0:0:0:
164,208,58003,6,0,L|0:224,1,140,2|2,0:2|0:0,0:0:0:0:
88,308,58472,2,0,P|124:328|172:328,1,70,8|2,0:0|0:0,0:0:0:0:
224,284,58785,2,0,L|324:264,1,70,4|4,0:3|0:3,0:0:0:0:
376,256,59097,1,8,0:0:0:0:
480,348,59253,6,0,P|484:284|448:204,1,140,4|4,0:3|0:3,0:0:0:0:
384,164,59722,2,0,P|384:136|408:84,1,70,8|0,0:2|0:0,0:0:0:0:
500,0,60035,2,0,P|468:15|434:23,1,70,4|4,0:3|0:3,0:0:0:0:
352,12,60347,1,8,0:0:0:0:
236,84,60503,6,0,L|256:236,1,140,2|2,0:0|0:0,0:0:0:0:
204,292,60972,2,0,P|235:306|270:310,1,70,8|0,0:0|0:0,0:0:0:0:
344,352,61285,2,0,P|364:320|372:276,1,70,4|4,0:3|0:3,0:0:0:0:
336,212,61597,1,8,0:0:0:0:
464,304,61753,6,0,L|452:152,1,140,12|12,0:0|0:0,0:0:0:0:
428,84,62222,1,0,0:0:0:0:
360,32,62378,1,12,0:0:0:0:
284,72,62535,2,0,L|224:80,5,35,0|0|8|8|8|8,0:0|0:0|0:0|0:0|0:0|0:0,0:0:0:0:
232,95,63003,6,0,P|168:118|110:82,1,140,6|4,0:0|0:3,0:0:0:0:
24,12,63472,2,0,L|32:84,1,70,8|2,0:0|0:0,0:0:0:0:
68,172,63785,2,0,L|64:252,1,70,4|4,0:3|0:3,0:0:0:0:
0,300,64097,1,8,0:2:0:0:
152,256,64253,6,0,P|224:236|291:245,1,140,4|4,0:3|0:3,0:0:0:0:
372,328,64722,2,0,L|380:248,1,70,8|2,0:0|0:0,0:0:0:0:
428,184,65035,2,0,L|424:96,1,70,4|0,0:3|0:0,0:0:0:0:
416,28,65347,1,8,0:0:0:0:
312,131,65503,6,0,P|247:156|181:136,1,140,2|2,0:0|0:0,0:0:0:0:
128,36,65972,2,0,P|103:71|99:99,1,70,8|2,0:2|0:0,0:0:0:0:
72,176,66285,2,0,P|86:221|86:257,1,70,4|0,0:3|0:0,0:0:0:0:
64,324,66597,1,8,0:0:0:0:
200,276,66753,6,0,L|350:260,1,140,4|4,0:3|0:3,0:0:0:0:
436,336,67222,2,0,L|444:240,1,70,8|0,0:0|0:0,0:0:0:0:
460,180,67535,2,0,L|384:192,1,70,4|4,0:3|0:3,0:0:0:0:
316,152,67847,1,8,0:0:0:0:
192,236,68003,6,0,P|194:167|237:113,1,140,6|4,0:0|0:3,0:0:0:0:
320,16,68472,2,0,L|228:32,1,70,8|0,0:0|0:0,0:0:0:0:
172,64,68785,2,0,P|136:52|108:28,1,70,4|4,0:3|0:3,0:0:0:0:
32,4,69097,1,8,0:0:0:0:
8,136,69253,6,0,L|32:292,1,140,6|4,0:0|0:3,0:0:0:0:
80,344,69722,2,0,P|116:340|160:320,1,70,8|2,0:0|0:0,0:0:0:0:
208,264,70035,2,0,P|248:280|292:284,1,70,4|8,0:3|0:0,0:0:0:0:
352,304,70347,1,8,0:0:0:0:
408,188,70503,6,0,L|256:196,1,140,6|4,0:0|0:3,0:0:0:0:
164,248,70972,2,0,P|164:213|178:181,1,70,8|2,0:0|0:2,0:0:0:0:
216,108,71285,2,0,L|308:100,1,70,4|4,0:3|0:3,0:0:0:0:
360,56,71597,1,8,0:0:0:0:
464,144,71753,6,0,L|450:283,1,140,6|4,0:0|0:3,0:0:0:0:
440,368,72222,1,8,0:3:0:0:
328,284,72378,2,0,L|176:296,1,140,6|4,0:0|0:3,0:0:0:0:
112,340,72847,1,8,0:0:0:0:
72,192,73003,6,0,B|112:132|112:132|184:128|240:180,1,210,6|0,0:0|0:0,0:0:0:0:
400,204,73785,2,0,L|384:44,1,140,0|4,0:0|0:3,0:0:0:0:
304,88,74253,6,0,P|225:152|123:139,1,210,6|0,0:0|0:0,0:0:0:0:
228,8,75035,1,0,0:0:0:0:
360,108,75347,1,0,0:0:0:0:
308,172,75503,1,2,0:0:0:0:
308,172,75581,1,2,0:0:0:0:
308,172,75660,1,2,0:0:0:0:
256,188,88160,6,0,L|372:168,1,105.000004005432,6|4,0:0|0:3,0:0:0:0:
220,92,88785,2,0,L|96:76,1,105.000004005432,2|8,0:0|0:3,0:0:0:0:
56,128,89253,1,0,0:0:0:0:
56,128,89410,6,0,L|72:256,1,105.000004005432,2|8,0:0|0:3,0:0:0:0:
188,332,90035,2,0,L|295:313,1,105.000004005432,2|8,0:0|0:3,0:0:0:0:
364,340,90503,1,0,0:0:0:0:
364,340,90660,6,0,L|380:220,1,105.000004005432,2|8,0:0|0:3,0:0:0:0:
440,92,91285,2,0,L|319:126,1,105.000004005432,2|8,0:0|0:3,0:0:0:0:
264,96,91753,1,4,0:3:0:0:
264,96,91910,6,0,L|156:80,1,105.000004005432,2|8,0:0|0:3,0:0:0:0:
60,204,92535,2,0,L|169:192,1,105.000004005432,2|8,0:0|0:3,0:0:0:0:
244,200,93003,1,2,0:0:0:0:
263,275,93160,6,0,P|287:286|320:292,1,52.5000020027161,4|0,0:0|0:0,0:0:0:0:
384,324,93472,2,0,P|400:292|412:256,1,52.5000020027161,8|0,0:3|0:0,0:0:0:0:
440,204,93785,2,0,P|412:188|380:180,1,52.5000020027161,2|0,0:0|0:0,0:0:0:0:
328,140,94097,1,2,0:0:0:0:
268,188,94253,1,8,0:3:0:0:
216,128,94410,6,0,L|112:140,1,105.000004005432,8|2,0:3|0:0,0:0:0:0:
36,276,95035,2,0,L|128:284,2,78.7500030040742,2|0|8,0:0|0:0|0:3,0:0:0:0:
64,200,95660,6,0,P|84:176|100:136,1,52.5000020027161,6|0,0:0|0:0,0:0:0:0:
156,108,95972,2,0,P|172:136|184:168,1,52.5000020027161,8|0,0:3|0:0,0:0:0:0:
252,188,96285,2,0,P|280:152|292:128,1,52.5000020027161,4|0,0:3|0:0,0:0:0:0:
360,132,96597,2,0,P|371:168|380:200,1,52.5000020027161,8|0,0:3|0:0,0:0:0:0:
408,316,96910,5,12,0:0:0:0:
252,292,97222,1,12,0:0:0:0:
400,236,97535,1,12,0:0:0:0:
408,316,97691,1,12,0:0:0:0:
203,367,98003,6,0,P|161:315|176:249,1,140,14|0,0:0|0:0,0:0:0:0:
152,148,98472,2,0,L|248:160,1,70,8|2,0:0|0:0,0:0:0:0:
288,104,98785,2,0,L|360:116,1,70,0|4,0:0|0:3,0:0:0:0:
436,80,99097,1,0,0:0:0:0:
488,144,99253,1,8,0:0:0:0:
460,224,99410,6,0,L|304:236,1,140,0|8,0:0|0:0,0:0:0:0:
256,288,99878,1,2,0:0:0:0:
184,244,100035,2,0,L|200:160,1,70,2|4,0:0|0:3,0:0:0:0:
248,104,100347,2,0,L|242:34,1,70,8|2,0:0|0:0,0:0:0:0:
112,107,100660,6,0,P|67:160|63:229,1,140,4|8,0:3|0:0,0:0:0:0:
92,308,101128,1,0,0:0:0:0:
164,264,101285,2,0,L|244:268,1,70,2|4,0:2|0:3,0:0:0:0:
308,308,101597,2,0,L|384:300,1,70,4|8,0:3|0:0,0:0:0:0:
500,368,101910,6,0,L|476:280,1,70,2|0,0:0|0:0,0:0:0:0:
440,228,102222,1,8,0:0:0:0:
468,148,102378,1,8,0:0:0:0:
416,80,102535,2,0,L|264:92,1,140,8|8,0:3|0:0,0:0:0:0:
212,36,103003,1,2,0:0:0:0:
140,152,103160,6,0,L|132:228,1,70,6|0,0:0|0:0,0:0:0:0:
95,291,103472,2,0,P|128:304|163:307,1,70,8|0,0:0|0:0,0:0:0:0:
240,340,103785,2,0,L|260:252,1,70,4|4,0:3|0:3,0:0:0:0:
268,188,104097,1,2,0:0:0:0:
344,296,104253,6,0,L|491:291,1,140,8|4,0:0|0:3,0:0:0:0:
412,208,104722,2,0,P|407:173|412:138,1,70,8|0,0:0|0:0,0:0:0:0:
412,56,105035,2,0,L|320:64,1,70,4|4,0:3|0:3,0:0:0:0:
208,24,105347,1,8,0:0:0:0:
248,100,105503,1,2,0:0:0:0:
136,72,105660,6,0,L|56:76,1,70,6|4,0:2|0:3,0:0:0:0:
24,148,105972,2,0,P|24:188|40:224,1,70,8|0,0:0|0:0,0:0:0:0:
88,280,106285,2,0,L|180:272,1,70,4|0,0:3|0:0,0:0:0:0:
240,252,106597,1,8,0:0:0:0:
320,368,106753,6,0,L|332:224,1,140,6|4,0:0|0:3,0:0:0:0:
408,156,107222,2,0,P|377:132|345:124,1,70,8|4,0:0|0:3,0:0:0:0:
260,56,107535,2,0,P|220:80|200:104,1,70,8|4,0:0|0:3,0:0:0:0:
96,160,107847,2,0,P|97:195|109:228,1,70,4|0,0:3|0:0,0:0:0:0:
244,308,108160,6,0,L|96:324,1,140,6|4,0:0|0:3,0:0:0:0:
232,204,108785,2,0,L|384:184,1,140,4|4,0:3|0:3,0:0:0:0:
504,288,109410,5,4,0:3:0:0:
452,128,109722,1,4,0:3:0:0:
312,224,110035,1,4,0:3:0:0:
432,340,110347,1,4,0:3:0:0:
348,356,110503,1,6,0:0:0:0:
276,304,110660,6,0,P|207:302|147:334,1,140,4|4,0:3|0:3,0:0:0:0:
52,196,111285,1,4,0:3:0:0:
148,60,111597,1,8,0:3:0:0:
220,100,111753,6,0,L|360:116,1,140,6|0,0:0|0:0,0:0:0:0:
436,84,112222,1,4,0:3:0:0:
484,244,112535,1,4,0:3:0:0:
420,192,112691,1,4,0:3:0:0:
352,244,112847,2,0,L|272:252,1,70,4|4,0:3|0:3,0:0:0:0:
204,344,113160,6,0,L|192:256,1,70,6|0,0:0|0:0,0:0:0:0:
100,216,113472,2,0,L|124:140,1,70,8|8,0:0|0:0,0:0:0:0:
64,52,113785,2,0,L|140:36,1,70,8|8,0:2|0:2,0:0:0:0:
216,16,114097,1,8,0:0:0:0:
280,140,114253,6,0,P|342:171|410:159,1,140,14|8,0:0|0:0,0:0:0:0:
484,88,114722,2,0,L|496:180,1,70,8|8,0:0|0:0,0:0:0:0:
500,240,115035,1,8,0:0:0:0:
440,300,115191,1,8,0:0:0:0:
364,260,115347,1,8,0:0:0:0:
292,304,115503,6,0,L|128:296,1,140,14|4,0:0|0:3,0:0:0:0:
56,352,115972,2,0,P|64:304|64:268,1,70,8|4,0:0|0:3,0:0:0:0:
20,212,116285,2,0,L|4:156,3,35,8|8|8|8,0:0|0:0|0:0|0:0,0:0:0:0:
16,152,116597,2,0,L|20:112,3,35,8|8|8|8,0:0|0:0|0:0|0:0,0:0:0:0:
24,92,116910,6,0,P|95:117|163:101,1,140,6|0,0:0|0:0,0:0:0:0:
228,64,117378,1,4,0:3:0:0:
228,64,117456,1,0,0:0:0:0:
228,64,117535,2,0,L|240:156,1,70,8|4,0:0|0:3,0:0:0:0:
256,216,117847,1,0,0:0:0:0:
360,96,118003,6,0,L|348:252,1,140,6|4,0:0|0:3,0:0:0:0:
400,328,118472,2,0,P|369:345|335:351,1,70,8|2,0:0|0:0,0:0:0:0:
252,364,118785,2,0,P|240:324|245:294,1,70,4|4,0:3|0:3,0:0:0:0:
256,216,119097,1,8,0:0:0:0:
148,328,119253,6,0,P|131:261|147:194,1,140,4|4,0:3|0:3,0:0:0:0:
196,124,119722,2,0,L|360:120,1,140,8|4,0:0|0:3,0:0:0:0:
412,84,120191,1,4,0:3:0:0:
476,136,120347,1,8,0:0:0:0:
412,248,120503,6,0,L|252:236,1,140,4|4,0:3|0:3,0:0:0:0:
156,272,120972,2,0,P|162:237|184:211,1,70,8|2,0:0|0:0,0:0:0:0:
240,148,121285,2,0,L|324:144,1,70,4|0,0:3|0:0,0:0:0:0:
388,112,121597,1,8,0:0:0:0:
484,216,121753,6,0,L|468:60,1,140,4|4,0:3|0:3,0:0:0:0:
372,16,122222,2,0,L|302:27,1,70,8|2,0:0|0:0,0:0:0:0:
228,68,122535,2,0,L|64:56,1,140,4|8,0:3|0:0,0:0:0:0:
40,176,123003,6,0,P|99:206|184:192,1,140,2|2,0:0|0:0,0:0:0:0:
240,152,123472,1,8,0:0:0:0:
312,192,123628,1,2,0:0:0:0:
392,164,123785,2,0,L|404:260,1,70,4|4,0:3|0:3,0:0:0:0:
408,316,124097,1,8,0:0:0:0:
264,352,124253,6,0,L|116:340,1,140,4|4,0:3|0:3,0:0:0:0:
28,276,124722,2,0,P|60:260|112:264,1,70,8|0,0:2|0:0,0:0:0:0:
176,240,125035,2,0,L|196:140,1,70,4|0,0:3|0:0,0:0:0:0:
164,92,125347,1,8,0:0:0:0:
280,188,125503,6,0,P|352:200|420:156,1,140,2|2,0:0|0:0,0:0:0:0:
496,220,125972,2,0,P|493:185|499:150,1,70,8|0,0:0|0:0,0:0:0:0:
472,64,126285,2,0,P|432:76|384:80,1,70,4|4,0:3|0:3,0:0:0:0:
328,40,126597,1,8,0:0:0:0:
204,132,126753,6,0,P|180:189|196:281,1,140,12|12,0:0|0:0,0:0:0:0:
232,336,127222,1,0,0:0:0:0:
300,288,127378,1,12,0:0:0:0:
376,328,127535,2,0,L|420:324,5,35,8|8|8|8|8|8,0:0|0:0|0:0|0:0|0:0|0:0,0:0:0:0:
432,340,128003,6,0,L|436:184,1,140,6|4,0:0|0:3,0:0:0:0:
500,116,128472,2,0,P|470:98|435:91,1,70,8|2,0:0|0:2,0:0:0:0:
360,52,128785,2,0,P|332:72|316:112,1,70,4|4,0:3|0:3,0:0:0:0:
340,184,129097,1,8,0:0:0:0:
232,72,129253,6,0,P|174:110|155:176,1,140,4|4,0:3|0:3,0:0:0:0:
116,252,129722,2,0,L|268:260,1,140,8|4,0:0|0:3,0:0:0:0:
332,292,130191,1,4,0:3:0:0:
384,228,130347,1,8,0:0:0:0:
476,336,130503,6,0,L|464:188,1,140,4|4,0:3|0:3,0:0:0:0:
440,92,130972,2,0,P|402:121|390:141,1,70,8|2,0:0|0:0,0:0:0:0:
308,160,131285,2,0,P|288:198|284:226,1,70,4|0,0:3|0:0,0:0:0:0:
332,292,131597,1,8,0:0:0:0:
200,212,131753,6,0,L|48:224,1,140,4|4,0:3|0:3,0:0:0:0:
124,136,132222,2,0,L|148:56,1,70,8|0,0:0|0:0,0:0:0:0:
220,104,132535,2,0,L|292:108,1,70,4|4,0:3|0:3,0:0:0:0:
360,60,132847,1,8,0:0:0:0:
440,172,133003,6,0,L|424:340,1,140,6|4,0:0|0:3,0:0:0:0:
336,256,133472,2,0,L|266:266,1,70,8|2,0:0|0:0,0:0:0:0:
196,312,133785,2,0,P|184:276|188:228,1,70,4|4,0:3|0:3,0:0:0:0:
244,184,134097,1,8,0:2:0:0:
92,244,134253,6,0,P|88:192|140:116,1,140,6|4,0:0|0:3,0:0:0:0:
108,28,134722,2,0,L|184:40,1,70,8|2,0:0|0:2,0:0:0:0:
260,16,135035,2,0,L|280:92,1,70,4|8,0:3|0:2,0:0:0:0:
352,120,135347,1,8,0:0:0:0:
444,240,135503,6,0,P|384:208|284:224,1,140,6|4,0:0|0:3,0:0:0:0:
220,260,135972,2,0,L|232:168,1,70,8|4,0:0|0:3,0:0:0:0:
144,180,136285,2,0,L|132:108,1,70,2|4,0:0|0:3,0:0:0:0:
92,36,136597,1,8,0:0:0:0:
224,96,136753,6,0,P|287:123|354:109,1,140,6|4,0:0|0:3,0:0:0:0:
424,60,137222,1,8,0:3:0:0:
480,188,137378,2,0,L|468:352,1,140,6|4,0:0|0:3,0:0:0:0:
400,376,137847,1,8,0:0:0:0:
295,267,138003,6,0,B|224:256|224:256|184:312|104:315,1,210,6|0,0:0|0:0,0:0:0:0:
32,168,138785,2,0,L|192:152,1,140,0|8,0:0|0:3,0:0:0:0:
232,95,139253,6,0,P|324:60|394:131,1,210,6|0,0:0|0:0,0:0:0:0:
380,300,140035,1,0,0:0:0:0:
236,216,140347,1,0,0:0:0:0:
200,292,140503,1,0,0:0:0:0:
272,336,140660,1,0,0:0:0:0:
376,204,140972,6,0,L|364:44,1,140,2|0,0:0|0:0,0:0:0:0:
287,92,141441,2,0,P|222:115|153:107,1,140,2|0,0:0|0:0,0:0:0:0:
59,55,141910,6,0,P|101:111|103:180,1,140,8|2,0:0|0:0,0:0:0:0:
32,224,142378,2,0,L|176:236,1,140,8|4,0:3|0:3,0:0:0:0:
252,268,142847,2,0,L|408:252,1,140,6|0,0:0|0:0,0:0:0:0:
408,244,143785,5,4,0:3:0:0:
268,200,152535,5,8,0:0:0:0:
416,144,152847,1,8,0:0:0:0:
444,308,153160,1,8,0:0:0:0:
280,340,153472,2,0,L|220:332,2,46.6666666666667,8|8|8,0:0|0:0|0:0,0:0:0:0:
308,356,153785,6,0,L|320:208,1,140,14|4,0:0|0:3,0:0:0:0:
368,148,154253,2,0,P|309:112|241:121,1,140,8|4,0:0|0:3,0:0:0:0:
180,64,154722,2,0,L|200:212,1,140,8|4,0:0|0:3,0:0:0:0:
144,307,155191,6,0,P|209:284|275:302,1,140,8|4,0:0|0:3,0:0:0:0:
352,376,155660,2,0,L|368:296,1,70,8|4,0:0|0:3,0:0:0:0:
436,204,155972,2,0,L|420:108,1,70,8|0,0:0|0:0,0:0:0:0:
296,72,156285,6,0,L|124:64,1,140,14|4,0:0|0:3,0:0:0:0:
96,4,156753,2,0,L|120:156,1,140,8|4,0:0|0:3,0:0:0:0:
60,204,157222,2,0,P|139:180|199:200,1,140,8|4,0:0|0:3,0:0:0:0:
272,300,157691,6,0,P|268:236|312:152,1,140,8|4,0:0|0:3,0:0:0:0:
384,84,158160,2,0,L|392:164,1,70,8|4,0:0|0:3,0:0:0:0:
432,272,158472,2,0,L|424:348,1,70,8|0,0:0|0:0,0:0:0:0:
272,300,158785,6,0,P|203:287|136:305,1,140,12|4,0:0|0:3,0:0:0:0:
84,368,159253,2,0,L|100:208,1,140,8|4,0:0|0:3,0:0:0:0:
32,176,159722,2,0,P|101:176|158:137,1,140,8|4,0:0|0:3,0:0:0:0:
220,8,160191,6,0,L|245:156,1,140,8|4,0:0|0:3,0:0:0:0:
204,252,160660,2,0,L|280:236,1,70,8|4,0:0|0:3,0:0:0:0:
392,288,160972,2,0,L|420:204,1,70,8|0,0:0|0:0,0:0:0:0:
484,100,161285,6,0,L|320:124,1,140,12|4,0:0|0:3,0:0:0:0:
272,84,161753,2,0,P|208:52|128:80,1,140,8|4,0:0|0:3,0:0:0:0:
80,120,162222,2,0,L|104:280,1,140,8|4,0:0|0:3,0:0:0:0:
180,360,162691,5,8,0:0:0:0:
196,276,162847,1,8,0:0:0:0:
268,324,163003,2,0,L|336:338,1,70,8|8,0:3|0:3,0:0:0:0:
420,356,163316,1,8,0:3:0:0:
480,296,163472,2,0,P|480:256|468:216,1,70,12|0,0:0|0:0,0:0:0:0:
336,168,163785,6,0,P|404:160|457:116,1,140,12|4,0:0|0:3,0:0:0:0:
400,56,164253,2,0,L|248:56,1,140,8|4,0:0|0:3,0:0:0:0:
183,19,164722,2,0,P|215:81|207:150,1,140,8|4,0:0|0:3,0:0:0:0:
112,224,165191,6,0,L|272:236,1,140,8|4,0:0|0:3,0:0:0:0:
332,312,165660,2,0,L|356:236,1,70,8|4,0:0|0:3,0:0:0:0:
432,148,165972,2,0,L|412:48,1,70,12|0,0:0|0:0,0:0:0:0:
280,40,166285,6,0,P|220:72|128:68,1,140,12|4,0:0|0:3,0:0:0:0:
80,24,166753,1,8,0:0:0:0:
44,100,166910,2,0,L|64:268,1,140,0|8,0:0|0:0,0:0:0:0:
184,352,167535,5,4,0:3:0:0:
231,284,167691,2,0,P|295:259|357:287,1,140,8|4,0:0|0:3,0:0:0:0:
440,356,168160,2,0,L|452:268,1,70,8|4,0:2|0:3,0:0:0:0:
504,180,168472,2,0,L|488:80,1,70,8|8,0:3|0:3,0:0:0:0:
388,8,168785,6,0,L|376:156,1,140,12|4,0:0|0:3,0:0:0:0:
299,111,169253,2,0,P|239:79|171:88,1,140,12|4,0:0|0:3,0:0:0:0:
92,56,169722,2,0,L|108:216,1,140,12|4,0:0|0:3,0:0:0:0:
28,292,170191,6,0,P|95:278|156:309,1,140,12|4,0:0|0:3,0:0:0:0:
236,380,170660,2,0,L|268:316,1,70,12|4,0:2|0:3,0:0:0:0:
352,240,170972,2,0,L|332:160,1,70,12|4,0:2|0:3,0:0:0:0:
224,100,171285,6,0,L|200:200,2,70,12|4|4,0:2|0:3|0:3,0:0:0:0:
292,52,171753,2,0,L|368:60,2,70,8|4|4,0:0|0:3|0:3,0:0:0:0:
216,12,172222,1,8,0:0:0:0:
116,88,172378,6,0,L|132:252,1,140,4|8,0:3|0:0,0:0:0:0:
184,292,172847,2,0,P|216:268|236:240,1,70,4|4,0:3|0:3,0:0:0:0:
268,168,173160,1,8,0:0:0:0:
344,200,173316,2,0,L|420:188,1,70,8|0,0:0|0:0,0:0:0:0:
255,91,173628,6,0,L|103:87,1,140,12|0,0:0|0:0,0:0:0:0:
60,148,174097,2,0,P|48:192|60:232,1,70,0|0,0:0|0:0,0:0:0:0:
88,292,174410,2,0,P|128:296|168:280,1,70
216,228,174722,1,0,0:0:0:0:
264,324,174878,6,0,L|282:173,1,140,0|0,0:0|0:0,0:0:0:0:
292,100,175347,1,0,0:0:0:0:
416,212,175660,1,8,0:0:0:0:
472,276,175816,2,0,P|440:292|380:288,1,70,4|0,0:3|0:0,0:0:0:0:
272,232,176128,6,0,P|204:220|143:253,1,140,12|0,0:0|0:0,0:0:0:0:
64,288,176597,2,0,P|48:248|52:208,1,70,0|0,0:0|0:0,0:0:0:0:
100,152,176910,2,0,P|104:116|104:76,1,70,0|0,0:0|0:0,0:0:0:0:
52,16,177222,1,0,0:0:0:0:
188,64,177378,6,0,L|328:56,1,140,4|4,0:3|0:3,0:0:0:0:
400,12,177847,1,0,0:0:0:0:
468,60,178003,2,0,L|458:139,1,70,12|0,0:0|0:0,0:0:0:0:
448,212,178316,1,4,0:3:0:0:
372,176,178472,1,4,0:3:0:0:
336,284,178628,6,0,P|280:308|184:288,1,140,6|4,0:0|0:3,0:0:0:0:
108,360,179097,2,0,P|104:328|124:264,1,70,8|0,0:0|0:0,0:0:0:0:
160,224,179410,2,0,P|168:188|164:148,1,70,2|4,0:2|0:3,0:0:0:0:
176,72,179722,2,0,L|88:88,1,70,8|2,0:0|0:0,0:0:0:0:
252,132,180035,6,0,L|332:116,1,70,4|2,0:3|0:0,0:0:0:0:
416,76,180347,2,0,L|408:160,1,70,8|0,0:0|0:0,0:0:0:0:
462,213,180660,2,0,P|430:228|396:228,1,70,4|4,0:3|0:3,0:0:0:0:
320,196,180972,1,8,0:0:0:0:
216,300,181128,6,0,L|72:288,1,140,4|4,0:3|0:3,0:0:0:0:
148,208,181597,2,0,P|156:180|152:136,1,70,8|2,0:0|0:0,0:0:0:0:
100,76,181910,1,2,0:0:0:0:
156,12,182066,1,4,0:3:0:0:
220,68,182222,2,0,P|244:72|292:68,1,70,2|8,0:0|0:0,0:0:0:0:
400,8,182535,6,0,L|388:96,1,70,4|2,0:3|0:0,0:0:0:0:
452,164,182847,2,0,L|382:181,1,70,8|8,0:0|0:0,0:0:0:0:
300,164,183160,2,0,L|312:239,1,70,4|4,0:3|0:3,0:0:0:0:
388,268,183472,1,8,0:0:0:0:
260,320,183628,6,0,L|100:316,1,140,6|4,0:2|0:3,0:0:0:0:
28,368,184097,2,0,L|40:280,1,70,8|2,0:0|0:0,0:0:0:0:
76,224,184410,2,0,L|68:152,1,70,4|4,0:3|0:3,0:0:0:0:
64,72,184722,2,0,P|104:88|152:84,1,70,8|2,0:0|0:0,0:0:0:0:
200,40,185035,1,2,0:0:0:0:
320,112,185191,6,0,L|312:272,1,140,12|8,0:0|0:0,0:0:0:0:
188,136,185816,1,8,0:0:0:0:
144,300,186128,1,14,0:0:0:0:
256,192,186285,12,8,187378,0:0:0:0:
384,104,196285,6,0,L|314:110,1,70,12|4,0:2|0:3,0:0:0:0:
252,164,196597,2,0,L|152:152,1,70,8|4,0:2|0:3,0:0:0:0:
80,72,196910,2,0,L|64:144,1,70,8|8,0:0|0:0,0:0:0:0:
44,220,197222,1,8,0:0:0:0:
168,296,197378,6,0,P|228:308|312:280,1,140,12|12,0:0|0:0,0:0:0:0:
372,236,197847,1,0,0:0:0:0:
432,292,198003,2,0,P|445:259|449:224,1,70,12|0,0:0|0:0,0:0:0:0:
408,152,198316,2,0,L|416:100,3,35,8|8|8|8,0:0|0:0|0:0|0:0,0:0:0:0:
432,100,198628,6,0,P|368:132|300:124,1,140,12|4,0:0|0:3,0:0:0:0:
220,48,199097,2,0,P|188:33|154:25,1,70,8|2,0:0|0:0,0:0:0:0:
100,92,199410,2,0,P|85:124|85:160,1,70,4|4,0:3|0:3,0:0:0:0:
156,204,199722,1,8,0:0:0:0:
4,172,199878,6,0,P|-8:239|24:299,1,140,4|4,0:3|0:3,0:0:0:0:
104,328,200347,2,0,L|268:308,1,140,8|4,0:0|0:3,0:0:0:0:
324,336,200816,1,4,0:3:0:0:
352,256,200972,1,8,0:0:0:0:
456,360,201128,6,0,L|440:192,1,140,4|4,0:3|0:3,0:0:0:0:
448,108,201597,2,0,P|412:120|388:144,1,70,8|2,0:0|0:0,0:0:0:0:
316,100,201910,2,0,P|298:130|290:182,1,70,4|0,0:3|0:0,0:0:0:0:
324,240,202222,1,8,0:0:0:0:
204,164,202378,6,0,L|56:160,1,140,4|4,0:3|0:3,0:0:0:0:
148,76,202847,2,0,L|244:68,1,70,8|2,0:0|0:0,0:0:0:0:
292,32,203160,2,0,P|328:45|360:48,1,70,4|4,0:3|0:3,0:0:0:0:
440,20,203472,1,8,0:0:0:0:
496,152,203628,6,0,L|484:304,1,140,6|4,0:0|0:3,0:0:0:0:
384,348,204097,2,0,P|340:336|312:316,1,70,8|0,0:0|0:0,0:0:0:0:
244,288,204410,2,0,P|228:320|204:356,1,70,4|4,0:3|0:3,0:0:0:0:
128,372,204722,1,8,0:0:0:0:
64,224,204878,6,0,L|204:212,1,140,6|4,0:0|0:3,0:0:0:0:
316,228,205347,2,0,P|312:188|292:152,1,70,8|0,0:0|0:0,0:0:0:0:
376,128,205660,2,0,P|384:92|380:44,1,70,4|4,0:3|0:3,0:0:0:0:
320,4,205972,1,8,0:0:0:0:
200,88,206128,6,0,L|40:96,1,140,6|4,0:0|0:3,0:0:0:0:
136,168,206597,2,0,P|144:200|144:238,1,70,8|2,0:0|0:0,0:0:0:0:
100,308,206910,2,0,L|196:316,1,70,2|4,0:0|0:3,0:0:0:0:
236,264,207222,1,8,0:0:0:0:
316,380,207378,6,0,L|324:232,1,140,6|4,0:0|0:3,0:0:0:0:
328,156,207847,1,8,0:3:0:0:
428,256,208003,2,0,L|416:108,1,140,6|4,0:0|0:3,0:0:0:0:
376,40,208472,1,8,0:0:0:0:
248,135,208628,6,0,P|172:204|72:192,1,210,6|0,0:2|0:0,0:0:0:0:
212,40,209410,2,0,L|376:28,1,140,0|4,0:0|0:3,0:0:0:0:
432,52,209878,6,0,P|460:116|456:186,1,140,6|0,0:0|0:0,0:0:0:0:
412,256,210347,1,0,0:0:0:0:
284,152,210660,1,0,0:0:0:0:
184,288,210972,5,0,0:3:0:0:
144,156,211128,1,6,0:2:0:0:
256,192,211285,12,8,213160,0:0:0:0:
144,124,213628,6,0,L|300:136,1,140,6|4,0:0|0:3,0:0:0:0:
359,59,214097,2,0,P|375:91|381:125,1,70,8|2,0:0|0:0,0:0:0:0:
448,180,214410,2,0,P|445:216|437:248,1,70,4|4,0:3|0:3,0:0:0:0:
388,328,214722,1,8,0:0:0:0:
272,248,214878,6,0,L|120:236,1,140,4|4,0:3|0:3,0:0:0:0:
48,300,215347,2,0,L|32:208,1,70,10|4,0:2|0:3,0:0:0:0:
4,152,215660,2,0,P|16:112|44:80,1,70,2|4,0:3|0:3,0:0:0:0:
108,56,215972,1,8,0:2:0:0:
184,88,216128,1,2,0:2:0:0:
260,4,216285,6,0,L|276:144,1,140,6|8,0:0|0:0,0:0:0:0:
332,204,216753,1,0,0:0:0:0:
332,204,216831,1,4,0:3:0:0:
332,204,216910,2,0,P|272:168|203:172,1,140,4|8,0:3|0:0,0:0:0:0:
120,156,217378,1,2,0:0:0:0:
83,295,217535,6,0,P|113:314|147:323,1,70,12|4,0:0|0:3,0:0:0:0:
256,360,217847,2,0,P|292:352|328:336,1,70,12|4,0:0|0:3,0:0:0:0:
404,356,218160,1,12,0:2:0:0:
472,232,218316,1,4,0:3:0:0:
484,316,218472,1,4,0:3:0:0:
368,252,218628,6,0,P|328:196|332:127,1,140,6|4,0:0|0:3,0:0:0:0:
376,32,219097,2,0,L|288:48,1,70,8|2,0:0|0:0,0:0:0:0:
224,20,219410,2,0,L|214:89,1,70,4|4,0:3|0:3,0:0:0:0:
160,156,219722,1,8,0:0:0:0:
228,263,219878,6,0,L|368:251,1,140,4|4,0:3|0:3,0:0:0:0:
448,320,220347,2,0,P|468:284|476:244,1,70,8|4,0:2|0:3,0:0:0:0:
444,180,220660,2,0,P|436:144|408:108,1,70,2|4,0:3|0:3,0:0:0:0:
392,36,220972,2,0,P|348:40|308:60,1,70,8|2,0:2|0:0,0:0:0:0:
216,128,221285,6,0,L|72:116,1,140,6|8,0:0|0:0,0:0:0:0:
8,168,221753,1,8,0:0:0:0:
108,248,221910,2,0,L|247:244,1,140,4|8,0:3|0:0,0:0:0:0:
320,284,222378,1,0,0:0:0:0:
320,284,222456,1,8,0:3:0:0:
320,284,222535,6,0,P|339:259|355:215,1,70,4|2,0:3|0:0,0:0:0:0:
296,164,222847,2,0,P|284:132|280:68,1,70,4|2,0:3|0:0,0:0:0:0:
400,24,223160,2,0,P|416:72|416:104,1,70,4|4,0:3|0:3,0:0:0:0:
208,32,223472,1,12,0:0:0:0:
208,32,224410,5,14,0:0:0:0:
256,192,224566,12,0,225972,0:0:0:0:
260,188,226285,6,0,L|168:180,1,70,12|0,0:0|0:0,0:0:0:0:
48,184,226597,1,4,0:3:0:0:
212,68,226753,1,14,0:0:0:0:
