osu file format v14

[General]
AudioFilename: audio.mp3
AudioLeadIn: 0
PreviewTime: 52310
Countdown: 0
SampleSet: Soft
StackLeniency: 0.7
Mode: 0
LetterboxInBreaks: 0
WidescreenStoryboard: 0

[Editor]
DistanceSpacing: 1.7
BeatDivisor: 4
GridSize: 16
TimelineZoom: 1.5

[Metadata]
Title:Key of Truth
TitleUnicode:Key of Truth
Artist:sweet ARMS
ArtistUnicode:sweet ARMS
Creator:sahuang
Version:Re:Union
Source:デート・ア・ライブTwin Edition凜緒リンカーネイション
Tags:DATE A LIVE Twin Edition Rio Reincarnation game opening theme song ps vita kawaiwkyik rizia wkyik gaia my angel azusa Celsiuslk
BeatmapID:1407818
BeatmapSetID:665179

[Difficulty]
HPDrainRate:6
CircleSize:4
OverallDifficulty:9
ApproachRate:9.3
SliderMultiplier:1.7
SliderTickRate:1

[Events]
//Background and Video events
0,0,"bg.jpg",0,0
//Break Periods
2,23359,31310
2,144141,151935
2,188828,195528
//Storyboard Layer 0 (Background)
//Storyboard Layer 1 (Fail)
//Storyboard Layer 2 (Pass)
//Storyboard Layer 3 (Foreground)
//Storyboard Sound Samples

[TimingPoints]
660,312.5,4,2,1,40,1,0
2378,-133.333333333333,4,2,1,40,0,0
3003,-166.666666666667,4,2,1,40,0,0
13003,-100,4,2,1,40,0,0
22847,-76.9230769230769,4,2,1,40,0,0
23160,-166.666666666667,4,2,1,40,0,0
33003,-100,4,2,1,40,0,0
41753,-83.3333333333333,4,2,1,40,0,0
43160,-111.111111111111,4,2,1,40,0,0
45660,-100,4,2,1,40,0,0
50503,-83.3333333333333,4,2,1,40,0,0
51910,-71.4285714285714,4,2,1,40,0,0
52535,-111.111111111111,4,2,1,40,0,0
52847,-90.9090909090909,4,2,1,40,0,0
53003,-83.3333333333333,4,2,1,80,0,1
61753,-71.4285714285714,4,2,1,80,0,1
62066,-62.5,4,2,1,80,0,1
62378,-100,4,2,1,80,0,0
63003,-83.3333333333333,4,2,1,80,0,1
68003,-100,4,2,1,80,0,1
73003,-125,4,2,1,70,0,0
78160,-111.111111111111,4,2,1,70,0,0
88160,-133.333333333333,4,2,1,70,0,0
95660,-111.111111111111,4,2,1,70,0,0
98003,-100,4,2,1,70,0,0
106753,-83.3333333333333,4,2,1,70,0,0
108160,-111.111111111111,4,2,1,70,0,0
113160,-100,4,2,1,70,0,0
114253,-83.3333333333333,4,2,1,70,0,0
118003,-83.3333333333333,4,2,1,80,0,1
126753,-71.4285714285714,4,2,1,80,0,1
127066,-62.5,4,2,1,80,0,1
127378,-100,4,2,1,80,0,0
128003,-83.3333333333333,4,2,1,80,0,1
133003,-100,4,2,1,80,0,1
138003,-125,4,2,1,70,0,0
140503,-133.333333333333,4,2,1,70,0,0
143238,-133.333333333333,4,2,1,50,0,0
143785,312.5,4,2,1,70,1,0
143785,-133.333333333333,4,2,1,70,0,0
152535,-133.333333333333,4,2,1,70,0,0
152847,-100,4,2,1,70,0,0
153160,-80,4,2,1,70,0,0
153472,-66.6666666666667,4,2,1,70,0,0
153785,-100,4,2,1,70,0,0
163472,-83.3333333333333,4,2,1,70,0,0
163785,-100,4,2,1,70,0,0
166285,-83.3333333333333,4,2,1,70,0,0
168785,-83.3333333333333,4,2,1,70,0,0
171285,-111.111111111111,4,2,1,70,0,0
173628,-125,4,2,1,70,0,0
176128,-100,4,2,1,70,0,0
183628,-83.3333333333333,4,2,1,70,0,0
186128,-100,4,2,1,70,0,0
188003,-166.666666666667,4,2,1,70,0,0
196285,-100,4,2,1,70,0,0
197378,-76.9230769230769,4,2,1,70,0,0
197691,-62.5,4,2,1,70,0,0
198003,-100,4,2,1,70,0,0
198628,-83.3333333333333,4,2,1,70,0,1
208628,-100,4,2,1,70,0,0
223472,-76.9230769230769,4,2,1,70,0,0

[Colours]
Combo1 : 255,196,255
Combo2 : 0,128,128
Combo3 : 255,128,128
Combo4 : 0,64,128

[HitObjects]
410,152,2378,5,0,0:0:0:0:
410,152,2535,2,0,P|373:139|341:135,2,63.7500024318696,0|0|0,0:0|0:0|0:0,0:0:0:0:
280,234,3003,6,0,P|238:243|175:232,1,101.999996887207,2|0,0:0|0:0,0:0:0:0:
93,178,3472,2,0,P|99:150|110:106,1,50.9999984436036,2|0,0:0|0:0,0:0:0:0:
114,26,3785,2,0,L|125:139,1,101.999996887207,2|0,0:0|0:0,0:0:0:0:
144,292,4253,2,0,B|193:280|224:306|224:306|248:276|248:276|281:305|344:287,1,203.999993774414,2|0,0:0|0:0,0:0:0:0:
414,240,5035,2,0,P|422:210|424:176,2,50.9999984436036,0|0|0,0:0|0:0|0:0,0:0:0:0:
314,188,5503,6,0,P|306:114|298:66,1,101.999996887207,2|0,0:0|0:0,0:0:0:0:
263,185,5972,2,0,L|319:188,1,50.9999984436036,2|2,0:0|0:0,0:0:0:0:
212,101,6285,2,0,P|151:99|91:104,1,101.999996887207,2|0,0:0|0:0,0:0:0:0:
23,206,6753,2,0,P|11:283|47:213,1,203.999993774414,2|0,0:0|0:0,0:0:0:0:
248,314,7535,2,0,P|242:352|260:317,1,101.999996887207,2|2,0:0|0:0,0:0:0:0:
317,230,8003,6,0,B|417:178|430:277|523:217,1,203.999993774414,2|0,0:0|0:0,0:0:0:0:
463,140,8785,2,0,P|488:140|523:125,1,50.9999984436036,2|0,0:0|0:0,0:0:0:0:
463,140,9097,1,0,0:0:0:0:
303,64,9253,5,2,0:0:0:0:
161,319,9722,5,2,0:0:0:0:
152,289,10035,1,2,0:0:0:0:
143,259,10347,5,2,0:0:0:0:
408,293,10503,1,2,0:0:0:0:
256,192,10581,12,2,12378,0:0:0:0:
183,100,12535,5,8,0:0:0:0:
258,380,12691,1,8,0:0:0:0:
388,66,13003,6,0,P|385:136|388:254,1,170,6|0,0:0|0:0,0:0:0:0:
224,261,13472,2,0,P|187:244|122:248,1,85,8|0,0:0|0:0,0:0:0:0:
24,312,13785,1,4,0:3:0:0:
65,189,13941,1,4,0:3:0:0:
169,330,14097,1,8,0:0:0:0:
343,287,14253,6,0,B|376:241|376:241|350:113,1,170,4|4,0:3|0:3,0:0:0:0:
244,67,14722,1,8,0:0:0:0:
438,78,14878,1,2,0:0:0:0:
273,173,15035,1,4,0:3:0:0:
438,78,15191,1,4,0:3:0:0:
453,233,15347,2,0,P|458:282|458:319,1,85,8|0,0:0|0:3,0:0:0:0:
190,312,15660,6,0,P|185:263|185:226,1,85,6|0,0:0|0:0,0:0:0:0:
347,31,15972,2,0,P|352:80|352:117,1,85,8|2,0:0|0:0,0:0:0:0:
331,152,16206,1,8,0:3:0:0:
331,152,16285,1,4,0:3:0:0:
451,94,16441,1,4,0:3:0:0:
250,52,16597,2,0,P|192:48|158:62,1,85,8|2,0:0|0:0,0:0:0:0:
30,205,16910,6,0,L|15:92,1,85,12|4,0:0|0:3,0:0:0:0:
189,326,17222,2,0,L|204:213,1,85,12|4,0:0|0:3,0:0:0:0:
97,384,17535,1,12,0:0:0:0:
244,163,17691,1,8,0:0:0:0:
117,222,17847,1,8,0:3:0:0:
291,330,18003,6,0,B|339:308|339:308|464:342,1,170,6|2,0:0|0:0,0:0:0:0:
450,169,18472,2,0,L|351:145,1,85,8|2,0:0|0:0,0:0:0:0:
228,227,18785,1,4,0:3:0:0:
69,179,18941,2,0,L|168:155,1,85,4|8,0:3|0:0,0:0:0:0:
271,57,19253,6,0,P|284:97|278:145,1,85,4|0,0:3|0:0,0:0:0:0:
153,268,19566,1,4,0:3:0:0:
153,268,19722,2,0,P|140:308|146:356,1,85,8|2,0:0|0:0,0:0:0:0:
353,347,20035,1,4,0:3:0:0:
237,319,20191,1,2,0:0:0:0:
367,250,20347,2,0,B|408:238|408:238|518:269,1,127.5,8|0,0:0|0:0,0:0:0:0:
512,295,20660,6,0,L|504:202,1,85,6|0,0:0|0:0,0:0:0:0:
344,74,20972,1,8,0:0:0:0:
502,112,21128,1,8,0:0:0:0:
287,163,21285,1,4,0:3:0:0:
278,10,21441,1,4,0:3:0:0:
408,161,21597,1,8,0:0:0:0:
181,101,21753,1,0,0:0:0:0:
181,101,21831,1,8,0:3:0:0:
181,101,21910,6,0,P|138:95|85:103,1,85,4|0,0:3|0:0,0:0:0:0:
181,283,22222,2,0,P|138:289|85:281,1,85,8|4,0:0|0:3,0:0:0:0:
256,192,22535,1,8,0:0:0:0:
371,204,22691,1,4,0:3:0:0:
464,185,22847,6,0,B|401:174|371:205|371:205|329:184|329:184|287:205|225:183,1,220.999989883423,12|4,0:0|0:0,0:0:0:0:
107,220,31910,5,12,0:0:0:0:
398,158,32222,1,12,0:0:0:0:
107,220,32535,5,12,0:0:0:0:
398,158,32691,1,12,0:0:0:0:
159,325,33003,6,0,P|153:232|156:132,1,170,14|0,0:0|0:0,0:0:0:0:
315,18,33472,2,0,P|322:64|324:119,1,85,8|2,0:0|0:0,0:0:0:0:
277,230,33785,1,2,0:0:0:0:
368,330,33941,2,0,P|411:336|471:319,1,85,4|2,0:3|0:0,0:0:0:0:
411,208,34253,1,8,0:2:0:0:
229,351,34410,6,0,L|131:345,1,85,4|0,0:3|0:0,0:0:0:0:
10,191,34722,2,0,L|108:185,1,85,8|0,0:0|0:0,0:0:0:0:
283,210,35035,1,4,0:3:0:0:
186,261,35191,1,4,0:3:0:0:
233,125,35347,1,8,0:0:0:0:
233,125,35503,1,2,0:0:0:0:
308,295,35660,5,4,0:3:0:0:
415,220,35816,1,2,0:0:0:0:
313,100,35972,2,0,P|265:109|216:135,1,85,8|0,0:0|0:0,0:0:0:0:
396,302,36285,2,0,P|412:255|414:200,1,85,4|0,0:3|0:0,0:0:0:0:
401,94,36597,1,0,0:0:0:0:
291,235,36753,1,6,0:0:0:0:
201,145,36910,6,0,P|163:127|107:128,1,85,0|4,0:0|0:3,0:0:0:0:
291,235,37222,1,8,0:0:0:0:
137,235,37378,1,8,0:0:0:0:
283,65,37535,1,4,0:3:0:0:
285,107,37613,1,4,0:3:0:0:
287,150,37691,1,4,0:3:0:0:
289,192,37769,1,4,0:3:0:0:
291,235,37847,1,8,0:0:0:0:
423,144,38003,1,8,0:0:0:0:
423,144,38081,1,8,0:0:0:0:
423,144,38160,6,0,L|429:232,1,85,6|0,0:0|0:0,0:0:0:0:
266,315,38472,2,0,L|354:309,1,85,8|2,0:0|0:0,0:0:0:0:
504,300,38785,1,4,0:3:0:0:
419,359,38941,1,4,0:3:0:0:
428,228,39097,1,2,0:0:0:0:
266,315,39253,6,0,B|209:337|144:308|144:308|179:271,1,170,8|4,0:0|0:3,0:0:0:0:
321,157,39722,2,0,P|332:185|329:239,1,85,8|0,0:0|0:0,0:0:0:0:
190,131,40035,1,4,0:3:0:0:
271,73,40191,1,2,0:0:0:0:
193,226,40347,2,0,P|149:220|108:177,1,85,8|2,0:0|0:0,0:0:0:0:
271,73,40660,6,0,L|383:83,1,85,6|4,0:0|0:3,0:0:0:0:
512,212,40972,2,0,L|400:222,1,85,8|2,0:0|0:0,0:0:0:0:
222,302,41285,2,0,B|349:316|349:316|307:254,1,170,4|8,0:3|0:0,0:0:0:0:
115,139,41753,6,0,B|125:180|106:207|106:207|124:240|124:240|92:276|106:333,1,203.999993774414,4|4,0:2|0:3,0:0:0:0:
325,281,42222,5,8,0:0:0:0:
197,303,42378,1,4,0:3:0:0:
372,179,42535,5,8,0:0:0:0:
269,160,42691,1,8,0:3:0:0:
469,117,42847,5,8,0:3:0:0:
396,74,43003,1,0,0:0:0:0:
199,41,43160,5,6,0:0:0:0:
289,7,43316,1,0,0:0:0:0:
199,41,43472,2,0,P|157:49|120:47,1,76.4999976654053,4|0,0:3|0:0,0:0:0:0:
7,90,43785,2,0,B|-15:136|-15:136|14:263,1,152.999995330811,4|4,0:3|0:3,0:0:0:0:
111,310,44253,1,0,0:0:0:0:
111,310,44410,6,0,P|147:295|189:289,1,76.4999976654053,4|0,0:3|0:0,0:0:0:0:
394,266,44722,2,0,P|358:251|316:245,1,76.4999976654053,4|2,0:3|0:0,0:0:0:0:
148,172,45035,1,4,0:3:0:0:
148,172,45191,2,0,P|184:157|226:151,1,76.4999976654053,2|4,0:0|0:3,0:0:0:0:
453,181,45503,1,6,0:0:0:0:
330,327,45660,6,0,B|316:286|316:286|320:244,1,85,4|2,0:3|0:0,0:0:0:0:
220,21,45972,2,0,B|234:62|234:62|229:103,1,85,4|2,0:3|0:0,0:0:0:0:
115,139,46285,1,4,0:3:0:0:
90,256,46441,1,0,0:0:0:0:
178,336,46597,1,4,0:3:0:0:
359,217,46753,1,12,0:0:0:0:
115,139,46910,6,0,L|8:152,1,85,0|2,0:0|0:0,0:0:0:0:
275,207,47222,2,0,L|382:220,1,85,4|2,0:3|0:0,0:0:0:0:
185,197,47535,1,4,0:3:0:0:
363,102,47691,1,8,0:3:0:0:
323,85,47769,1,8,0:3:0:0:
281,94,47847,1,8,0:3:0:0:
444,269,48003,1,8,0:3:0:0:
461,229,48081,1,8,0:3:0:0:
452,187,48160,6,0,P|439:152|395:117,1,85,6|0,0:0|0:0,0:0:0:0:
197,252,48472,2,0,P|210:287|254:322,1,85,4|2,0:3|0:0,0:0:0:0:
355,40,48785,2,0,P|355:116|343:234,1,170,4|4,0:3|0:3,0:0:0:0:
75,122,49253,6,0,P|123:107|164:108,1,85,12|0,0:0|0:0,0:0:0:0:
270,190,49566,1,4,0:3:0:0:
218,354,49722,1,8,0:0:0:0:
152,224,49878,1,4,0:3:0:0:
285,78,50035,1,4,0:3:0:0:
342,286,50191,1,8,0:0:0:0:
148,269,50347,1,8,0:0:0:0:
353,142,50503,6,0,B|396:112|396:112|480:151|460:264,1,203.999993774414,6|4,0:0|0:3,0:0:0:0:
354,327,50972,1,8,0:0:0:0:
284,93,51128,1,8,0:0:0:0:
251,306,51285,1,8,0:0:0:0:
284,68,51441,1,8,0:0:0:0:
374,224,51597,1,8,0:3:0:0:
284,43,51753,1,8,0:3:0:0:
159,264,51910,6,0,B|140:259|140:259|126:265|126:265|115:261|115:261|106:268|106:268|97:262|97:262|86:268|86:268|74:261|74:261|62:266|62:266|10:212|40:138,1,237.999992736817,6|0,0:0|0:0,0:0:0:0:
119,52,52378,1,0,0:0:0:0:
244,101,52535,6,0,L|324:103,1,76.4999976654053,2|0,0:0|0:0,0:0:0:0:
119,52,52847,2,0,L|132:110,1,46.7500014266968,8|0,0:0|0:0,0:0:0:0:
159,264,53003,6,0,B|227:234|312:252|312:252|281:272|263:300,1,203.999993774414,6|4,0:0|0:3,0:0:0:0:
469,235,53472,2,0,P|459:173|413:130,1,101.999996887207,8|2,0:0|0:0,0:0:0:0:
253,115,53785,1,4,0:3:0:0:
275,283,53941,1,4,0:3:0:0:
253,115,54097,1,8,0:0:0:0:
106,304,54253,6,0,B|88:160|88:160|136:194,1,203.999993774414,4|4,0:3|0:3,0:0:0:0:
386,358,54722,2,0,P|393:303|367:239,1,101.999996887207,8|0,0:0|0:0,0:0:0:0:
106,304,55035,2,0,P|202:332|300:309,1,203.999993774414,4|8,0:3|0:0,0:0:0:0:
438,153,55503,6,0,P|441:250|442:375,1,203.999993774414,4|4,0:3|0:3,0:0:0:0:
338,220,55972,1,8,0:0:0:0:
511,200,56128,1,2,0:0:0:0:
303,233,56285,1,4,0:3:0:0:
419,73,56441,1,0,0:0:0:0:
454,280,56597,1,8,0:0:0:0:
248,178,56753,6,0,P|193:131|293:77,1,203.999993774414,4|4,0:3|0:3,0:0:0:0:
159,245,57222,2,0,P|115:203|100:123,1,101.999996887207,8|0,0:0|0:0,0:0:0:0:
271,63,57535,1,4,0:3:0:0:
193,154,57691,1,4,0:3:0:0:
287,42,57847,1,8,0:0:0:0:
436,155,58003,6,0,B|463:213|450:293|450:293|383:261,1,203.999993774414,2|2,0:2|0:0,0:0:0:0:
212,329,58472,2,0,P|162:336|107:330,1,101.999996887207,8|2,0:0|0:0,0:0:0:0:
2,238,58785,1,4,0:3:0:0:
149,194,58941,1,4,0:3:0:0:
41,372,59097,1,8,0:0:0:0:
60,134,59253,6,0,P|120:92|240:134,1,203.999993774414,4|4,0:3|0:3,0:0:0:0:
194,358,59722,2,0,P|162:314|147:249,1,101.999996887207,8|0,0:2|0:0,0:0:0:0:
336,134,60035,2,0,P|286:122|236:128,1,101.999996887207,4|4,0:3|0:3,0:0:0:0:
430,223,60347,1,8,0:0:0:0:
230,251,60503,1,2,0:0:0:0:
446,331,60660,6,0,L|459:224,1,101.999996887207,4|2,0:3|0:0,0:0:0:0:
230,251,60972,2,0,L|217:144,1,101.999996887207,8|0,0:0|0:0,0:0:0:0:
440,150,61285,1,4,0:3:0:0:
239,330,61441,1,4,0:3:0:0:
205,72,61597,1,8,0:0:0:0:
341,241,61753,6,0,B|405:250|405:250|517:210,1,178.499994552612,12|0,0:0|0:0,0:0:0:0:
440,150,62066,6,0,P|420:219|514:306,1,204,12|0,0:0|0:0,0:0:0:0:
512,211,62378,5,12,0:0:0:0:
295,165,62535,2,0,P|289:141|271:105,1,42.5,0|0,0:0|0:0,0:0:0:0:
58,176,62691,1,8,0:0:0:0:
94,196,62769,1,8,0:0:0:0:
136,201,62847,1,8,0:0:0:0:
177,189,62925,1,8,0:0:0:0:
209,162,63003,6,0,B|169:131|169:131|204:296,1,203.999993774414,6|4,0:0|0:3,0:0:0:0:
435,208,63472,2,0,B|441:155|441:155|423:106,1,101.999996887207,8|2,0:0|0:0,0:0:0:0:
215,63,63785,1,4,0:3:0:0:
308,233,63941,1,4,0:3:0:0:
341,94,64097,1,8,0:2:0:0:
150,181,64253,6,0,P|149:278|167:390,1,203.999993774414,4|4,0:3|0:3,0:0:0:0:
393,311,64722,2,0,P|390:249|376:189,1,101.999996887207,8|2,0:0|0:0,0:0:0:0:
291,90,65035,1,4,0:3:0:0:
443,138,65191,1,0,0:0:0:0:
287,236,65347,1,8,0:0:0:0:
162,80,65503,6,0,B|130:36|130:36|296:54,1,203.999993774414,2|2,0:0|0:0,0:0:0:0:
410,193,65972,2,0,P|427:253|417:305,1,101.999996887207,8|2,0:2|0:0,0:0:0:0:
267,351,66285,1,4,0:3:0:0:
173,204,66441,2,0,P|165:145|175:99,1,101.999996887207,0|8,0:0|0:0,0:0:0:0:
313,246,66753,1,4,0:3:0:0:
169,309,66910,6,0,L|65:300,1,101.999996887207,0|4,0:0|0:3,0:0:0:0:
299,156,67222,2,0,L|403:147,1,101.999996887207,8|0,0:0|0:0,0:0:0:0:
204,170,67535,1,4,0:3:0:0:
400,240,67691,1,4,0:3:0:0:
400,54,67847,1,8,0:0:0:0:
204,170,68003,6,0,P|211:234|207:343,1,170,6|4,0:0|0:3,0:0:0:0:
19,159,68472,2,0,P|22:222|33:269,1,85,8|0,0:0|0:0,0:0:0:0:
87,340,68785,1,4,0:3:0:0:
214,237,68941,1,4,0:3:0:0:
109,139,69097,1,8,0:0:0:0:
330,136,69253,6,0,B|348:168|332:205|332:205|346:224|346:224|335:253|338:325,1,170,6|4,0:0|0:3,0:0:0:0:
412,95,69722,2,0,P|372:53|333:44,1,85,8|2,0:0|0:0,0:0:0:0:
164,45,70035,1,4,0:3:0:0:
330,136,70191,1,8,0:0:0:0:
164,45,70347,1,8,0:0:0:0:
169,286,70503,6,0,P|88:292|0:289,1,170,6|4,0:0|0:3,0:0:0:0:
239,183,70972,2,0,P|301:177|339:181,1,85,8|2,0:0|0:2,0:0:0:0:
432,284,71285,1,4,0:3:0:0:
280,338,71441,1,4,0:3:0:0:
143,252,71597,1,8,0:0:0:0:
238,71,71753,6,0,B|273:109|273:109|255:235,1,170,6|4,0:0|0:3,0:0:0:0:
362,326,72222,1,8,0:3:0:0:
413,126,72378,2,0,P|468:122|498:128,1,85,6|0,0:0|0:0,0:0:0:0:
370,232,72691,1,4,0:3:0:0:
384,26,72847,1,8,0:0:0:0:
178,102,73003,6,0,B|144:104|126:76|133:47|156:27|187:27|212:55|217:86|188:118|165:153|167:201|182:238,1,272,6|0,0:0|0:0,0:0:0:0:
245,335,73785,2,0,P|285:341|327:333,1,68,2|0,0:0|0:0,0:0:0:0:
411,276,74097,1,4,0:3:0:0:
120,307,74253,5,6,0:0:0:0:
254,33,74722,1,2,0:0:0:0:
262,64,75035,1,2,0:0:0:0:
270,95,75347,1,2,0:0:0:0:
270,95,75503,5,2,0:0:0:0:
262,64,75582,1,2,0:0:0:0:
254,33,75660,1,2,0:0:0:0:
256,192,75738,12,0,77222,0:0:0:0:
46,343,77378,6,0,L|0:358,1,34
122,286,77535,1,12,0:0:0:0:
215,327,77691,1,8,0:3:0:0:
313,300,77847,2,0,P|329:262|327:230,1,68,12|0,0:0|0:0,0:0:0:0:
155,87,78160,6,0,P|190:75|228:78,1,76.4999976654053,4|2,0:3|0:0,0:0:0:0:
203,185,78472,2,0,P|231:209|247:244,1,76.4999976654053,4|2,0:3|0:0,0:0:0:0:
93,178,78785,1,8,0:2:0:0:
447,216,79097,2,0,L|341:227,1,76.4999976654053,4|2,0:3|0:0,0:0:0:0:
238,318,79410,6,0,P|250:282|247:244,1,76.4999976654053,4|2,0:3|0:0,0:0:0:0:
141,270,79722,2,0,P|116:241|81:225,1,76.4999976654053,4|2,0:3|0:0,0:0:0:0:
148,380,80035,1,8,0:0:0:0:
157,39,80347,1,2,0:0:0:0:
157,39,80425,1,8,0:0:0:0:
157,39,80503,1,8,0:0:0:0:
374,121,80660,6,0,P|333:136|284:134,1,76.4999976654053,4|2,0:3|0:0,0:0:0:0:
274,273,80972,2,0,P|240:244|217:201,1,76.4999976654053,4|2,0:3|0:0,0:0:0:0:
317,36,81285,1,8,0:2:0:0:
120,133,81597,5,4,0:3:0:0:
317,36,81753,1,14,0:0:0:0:
414,130,81910,6,0,P|418:174|413:214,1,76.4999976654053,4|4,0:3|0:3,0:0:0:0:
414,206,82222,1,4,0:3:0:0:
250,364,82378,2,0,P|246:320|251:280,1,76.4999976654053,14|4,0:0|0:3,0:0:0:0:
249,287,82691,1,4,0:3:0:0:
151,98,82847,2,0,L|161:71,6,19.1249994163513,4|0|0|0|4|0|0,0:3|0:0|0:0|0:0|0:3|0:0|0:0,0:0:0:0:
159,129,83160,6,0,P|166:172|158:216,1,76.4999976654053,6|2,0:0|0:0,0:0:0:0:
59,370,83472,2,0,P|52:327|60:283,1,76.4999976654053,4|2,0:3|0:0,0:0:0:0:
159,129,83785,1,8,0:0:0:0:
460,203,84097,1,4,0:3:0:0:
376,124,84253,1,2,0:0:0:0:
263,146,84410,6,0,P|213:152|168:145,1,76.4999976654053,4|2,0:3|0:0,0:0:0:0:
323,273,84722,2,0,P|373:267|418:274,1,76.4999976654053,4|2,0:3|0:0,0:0:0:0:
179,355,85035,1,8,0:2:0:0:
496,321,85347,1,4,0:3:0:0:
496,321,85425,1,4,0:3:0:0:
496,321,85503,1,4,0:3:0:0:
314,167,85660,5,4,0:3:0:0:
287,265,85816,1,10,0:2:0:0:
189,238,85972,1,4,0:3:0:0:
216,140,86128,1,10,0:2:0:0:
335,180,86285,5,4,0:3:0:0:
273,286,86441,1,10,0:2:0:0:
167,224,86597,1,4,0:3:0:0:
229,118,86753,1,10,0:2:0:0:
356,202,86910,5,4,0:3:0:0:
251,307,87066,1,8,0:2:0:0:
146,202,87222,1,4,0:3:0:0:
251,97,87378,1,8,0:2:0:0:
356,202,87535,6,0,L|405:187,1,38.2499988327027,4|0,0:3|0:0,0:0:0:0:
326,327,87691,2,0,L|277:311,1,38.2499988327027,8|0,0:0|0:0,0:0:0:0:
168,236,87847,2,0,L|200:226,6,19.1249994163513,8|0|2|0|4|0|2,0:0|0:0|0:0|0:0|0:3|0:0|0:0,0:0:0:0:
142,266,88160,6,0,P|96:275|74:272,2,63.7500024318696,6|0|4,0:0|0:0|0:3,0:0:0:0:
263,143,88785,2,0,P|308:131|401:136,1,127.500004863739,2|8,0:0|0:3,0:0:0:0:
470,203,89253,1,0,0:0:0:0:
323,321,89410,1,2,0:0:0:0:
216,279,89722,1,8,0:3:0:0:
108,320,90035,1,2,0:0:0:0:
132,213,90269,5,8,0:3:0:0:
132,213,90347,1,8,0:3:0:0:
108,320,90503,1,0,0:0:0:0:
216,279,90660,6,0,P|247:272|284:273,1,63.7500024318696,2|0,0:0|0:0,0:0:0:0:
345,156,90972,2,0,P|352:187|351:224,1,63.7500024318696,8|0,0:3|0:0,0:0:0:0:
492,244,91285,2,0,P|461:251|424:250,1,63.7500024318696,2|0,0:0|0:0,0:0:0:0:
363,367,91597,2,0,P|356:336|357:299,1,63.7500024318696,8|4,0:3|0:3,0:0:0:0:
405,138,91910,6,0,P|369:144|343:156,1,63.7500024318696,2|0,0:0|0:0,0:0:0:0:
333,34,92222,2,0,B|304:62|299:87,1,63.7500024318696,8|0,0:3|0:0,0:0:0:0:
179,34,92535,2,0,B|208:62|212:87,1,63.7500024318696,2|0,0:0|0:0,0:0:0:0:
106,137,92847,2,0,P|138:142|167:155,1,63.7500024318696,8|2,0:3|0:0,0:0:0:0:
257,329,93160,6,0,P|262:279|260:175,2,127.500004863739,4|8|2,0:0|0:3|0:0,0:0:0:0:
94,268,94097,1,2,0:0:0:0:
47,177,94253,1,8,0:3:0:0:
95,86,94410,2,0,P|138:101|228:80,1,127.500004863739,8|2,0:3|0:0,0:0:0:0:
450,153,95035,2,0,P|416:143|362:145,1,63.7500024318696,2|0,0:0|0:0,0:0:0:0:
356,148,95269,1,8,0:3:0:0:
356,148,95347,1,8,0:3:0:0:
257,234,95503,1,8,0:3:0:0:
304,345,95660,6,0,P|343:344|395:333,1,76.4999976654053,6|0,0:0|0:0,0:0:0:0:
238,221,95972,2,0,P|198:221|147:233,1,76.4999976654053,8|0,0:3|0:0,0:0:0:0:
354,170,96285,2,0,P|360:117|349:65,1,76.4999976654053,4|0,0:3|0:0,0:0:0:0:
135,245,96597,2,0,P|129:298|140:350,1,76.4999976654053,8|0,0:3|0:0,0:0:0:0:
371,253,96910,5,12,0:0:0:0:
101,160,97222,1,12,0:0:0:0:
371,253,97535,5,12,0:0:0:0:
101,160,97691,1,12,0:0:0:0:
358,83,98003,6,0,P|367:150|370:264,1,170,14|0,0:0|0:0,0:0:0:0:
235,347,98472,2,0,P|191:352|139:348,1,85,8|2,0:0|0:0,0:0:0:0:
279,267,98785,1,0,0:0:0:0:
386,332,98941,2,0,P|427:330|481:337,1,85,4|2,0:3|0:0,0:0:0:0:
319,377,99253,1,8,0:2:0:0:
200,239,99410,6,0,P|212:199|208:141,1,85,0|0,0:0|0:0,0:0:0:0:
26,98,99722,2,0,P|62:69|106:56,1,85,8|2,0:0|0:0,0:0:0:0:
211,156,100035,1,2,0:0:0:0:
189,32,100191,1,4,0:3:0:0:
322,126,100347,1,8,0:0:0:0:
322,126,100503,1,2,0:0:0:0:
126,181,100660,5,4,0:3:0:0:
209,299,100816,1,0,0:0:0:0:
343,201,100972,2,0,P|334:153|308:104,1,85,8|0,0:0|0:0,0:0:0:0:
127,279,101285,2,0,P|174:295|229:297,1,85,2|4,0:2|0:3,0:0:0:0:
320,287,101597,1,4,0:3:0:0:
211,191,101753,1,8,0:0:0:0:
301,53,101910,6,0,P|349:40|413:45,1,85,2|0,0:0|0:0,0:0:0:0:
501,190,102222,1,8,0:0:0:0:
474,71,102378,1,8,0:0:0:0:
355,198,102535,1,12,0:3:0:0:
349,239,102613,1,4,0:3:0:0:
357,281,102691,1,4,0:3:0:0:
378,317,102769,1,4,0:3:0:0:
411,345,102847,1,8,0:0:0:0:
227,291,103003,1,2,0:0:0:0:
227,291,103081,1,0,0:0:0:0:
227,291,103160,6,0,L|139:297,1,85,6|0,0:0|0:0,0:0:0:0:
0,168,103472,2,0,L|84:162,1,85,8|0,0:0|0:0,0:0:0:0:
258,199,103785,1,4,0:3:0:0:
142,296,103941,1,4,0:3:0:0:
303,320,104097,1,2,0:0:0:0:
162,145,104253,6,0,B|140:88|169:23|169:23|191:42|215:48,1,170,8|4,0:0|0:3,0:0:0:0:
340,191,104722,2,0,P|312:202|258:199,1,85,8|0,0:0|0:0,0:0:0:0:
375,92,105035,1,4,0:3:0:0:
440,225,105191,1,4,0:3:0:0:
256,283,105347,2,0,L|258:182,1,85,8|2,0:0|0:0,0:0:0:0:
191,47,105660,5,6,0:2:0:0:
95,102,105816,1,4,0:3:0:0:
79,211,105972,2,0,P|80:260|84:304,1,85,8|0,0:0|0:0,0:0:0:0:
204,341,106285,2,0,P|154:314|72:387,1,170,4|8,0:3|0:0,0:0:0:0:
337,384,106753,6,0,B|327:343|346:316|346:316|327:279|327:279|352:247|346:190,1,203.999993774414,6|4,0:0|0:3,0:0:0:0:
216,73,107222,5,8,0:0:0:0:
238,201,107378,1,4,0:3:0:0:
423,265,107535,5,8,0:0:0:0:
441,165,107691,1,4,0:3:0:0:
338,26,107847,5,4,0:3:0:0:
340,119,108003,1,0,0:0:0:0:
183,261,108160,5,6,0:0:0:0:
168,170,108316,1,2,0:0:0:0:
183,261,108472,2,0,P|182:304|175:338,1,76.4999976654053,4|2,0:3|0:0,0:0:0:0:
59,242,108785,2,0,P|52:163|58:75,1,152.999995330811,4|4,0:3|0:3,0:0:0:0:
148,27,109253,1,0,0:0:0:0:
148,27,109410,6,0,P|185:48|223:47,1,76.4999976654053,4|0,0:3|0:0,0:0:0:0:
371,43,109722,2,0,P|334:22|296:23,1,76.4999976654053,4|2,0:3|0:0,0:0:0:0:
256,149,110035,1,4,0:3:0:0:
256,149,110191,2,0,P|293:170|331:169,1,76.4999976654053,2|4,0:0|0:3,0:0:0:0:
140,177,110503,1,6,0:0:0:0:
199,343,110660,6,0,P|212:306|213:267,1,76.4999976654053,4|2,0:3|0:0,0:0:0:0:
128,70,110972,2,0,P|115:107|114:146,1,76.4999976654053,4|2,0:3|0:0,0:0:0:0:
213,269,111285,1,4,0:3:0:0:
316,203,111441,1,8,0:3:0:0:
437,215,111597,1,8,0:3:0:0:
354,383,111753,1,6,0:0:0:0:
304,179,111910,6,0,P|305:134|308:81,1,76.4999976654053,4|0,0:3|0:0,0:0:0:0:
165,237,112222,2,0,P|166:282|169:335,1,76.4999976654053,4|2,0:3|0:0,0:0:0:0:
89,133,112535,1,4,0:3:0:0:
274,194,112691,1,4,0:3:0:0:
316,203,112769,1,4,0:3:0:0:
356,187,112847,1,4,0:3:0:0:
165,43,113003,1,4,0:3:0:0:
155,85,113081,1,4,0:3:0:0:
171,125,113160,6,0,P|189:157|239:184,1,85,6|0,0:0|0:0,0:0:0:0:
429,110,113472,1,8,0:0:0:0:
273,80,113628,1,8,0:0:0:0:
218,281,113785,1,8,0:2:0:0:
412,241,113941,1,8,0:2:0:0:
251,50,114097,1,8,0:0:0:0:
218,281,114253,6,0,B|273:303|273:303|442:273,1,203.999993774414,14|8,0:0|0:0,0:0:0:0:
136,234,114722,1,8,0:0:0:0:
325,371,114878,1,8,0:0:0:0:
261,163,115035,1,8,0:0:0:0:
153,359,115191,1,8,0:0:0:0:
276,140,115347,1,8,0:0:0:0:
36,165,115503,6,0,P|9:215|122:253,1,203.999993774414,14|4,0:0|0:3,0:0:0:0:
163,28,115972,6,0,L|172:79,1,50.9999984436036,8|0,0:0|0:0,0:0:0:0:
276,140,116128,2,0,L|286:82,1,50.9999984436036,4|0,0:3|0:0,0:0:0:0:
443,108,116285,5,8,0:0:0:0:
469,127,116363,1,8,0:0:0:0:
471,161,116441,1,8,0:0:0:0:
447,183,116519,1,8,0:0:0:0:
414,179,116597,1,8,0:0:0:0:
359,189,116675,1,8,0:0:0:0:
336,239,116753,1,8,0:0:0:0:
365,286,116831,1,8,0:0:0:0:
419,290,116910,6,0,P|365:278|401:378,1,203.999993774414,6|0,0:0|0:0,0:0:0:0:
216,230,117378,1,4,0:3:0:0:
216,230,117456,1,0,0:0:0:0:
216,230,117535,1,8,0:0:0:0:
100,268,117691,1,4,0:3:0:0:
7,188,117847,1,0,0:0:0:0:
200,27,118003,6,0,P|215:107|213:253,1,203.999993774414,6|4,0:0|0:3,0:0:0:0:
7,188,118472,2,0,P|61:168|122:162,1,101.999996887207,8|2,0:0|0:0,0:0:0:0:
306,185,118785,1,4,0:3:0:0:
126,82,118941,1,4,0:3:0:0:
200,256,119097,1,8,0:0:0:0:
278,77,119253,6,0,B|342:62|342:62|411:89|411:89|475:75,1,203.999993774414,4|4,0:3|0:3,0:0:0:0:
312,284,119722,2,0,B|299:234|299:234|307:170,1,101.999996887207,8|2,0:0|0:0,0:0:0:0:
401,229,120035,1,4,0:3:0:0:
327,373,120191,1,4,0:3:0:0:
416,204,120347,1,8,0:0:0:0:
196,266,120503,6,0,B|145:279|100:234|100:234|44:220|-5:297,1,203.999993774414,4|4,0:3|0:3,0:0:0:0:
176,170,120972,2,0,P|172:122|206:59,1,101.999996887207,8|2,0:0|0:0,0:0:0:0:
388,114,121285,2,0,P|392:162|358:225,1,101.999996887207,4|0,0:3|0:0,0:0:0:0:
256,265,121597,1,8,0:0:0:0:
318,49,121753,6,0,P|363:19|482:92,1,203.999993774414,4|4,0:3|0:3,0:0:0:0:
360,242,122222,1,8,0:0:0:0:
280,126,122378,1,2,0:0:0:0:
465,254,122535,1,4,0:3:0:0:
290,283,122691,1,0,0:0:0:0:
394,141,122847,1,8,0:0:0:0:
169,178,123003,6,0,P|163:246|177:388,1,203.999993774414,2|2,0:0|0:0,0:0:0:0:
405,292,123472,2,0,P|405:225|398:183,1,101.999996887207,8|2,0:0|0:0,0:0:0:0:
283,89,123785,1,4,0:3:0:0:
132,165,123941,1,4,0:3:0:0:
255,278,124097,1,8,0:0:0:0:
399,190,124253,6,0,B|395:151|415:117|415:117|388:92|388:92|403:47|377:0,1,203.999993774414,4|4,0:3|0:3,0:0:0:0:
194,75,124722,2,0,P|136:83|79:86,1,101.999996887207,8|0,0:2|0:0,0:0:0:0:
0,287,125035,2,0,P|58:279|115:276,1,101.999996887207,4|0,0:3|0:0,0:0:0:0:
229,166,125347,1,8,0:0:0:0:
345,255,125503,1,2,0:0:0:0:
351,74,125660,6,0,L|364:181,1,101.999996887207,4|2,0:3|0:0,0:0:0:0:
135,154,125972,2,0,L|122:261,1,101.999996887207,8|0,0:0|0:0,0:0:0:0:
345,255,126285,5,4,0:3:0:0:
144,78,126441,1,4,0:3:0:0:
113,333,126597,1,8,0:0:0:0:
321,329,126753,6,0,P|419:288|378:190,1,178.499994552612,12|0,0:0|0:0,0:0:0:0:
375,153,127066,6,0,B|366:107|366:107|479:115|479:115|459:158,1,204,12|0,0:0|0:0,0:0:0:0:
418,229,127378,5,12,0:0:0:0:
269,103,127535,2,0,P|268:83|278:55,1,42.5,8|8,0:0|0:0,0:0:0:0:
375,153,127691,1,8,0:0:0:0:
332,150,127769,1,8,0:0:0:0:
290,148,127847,1,8,0:0:0:0:
247,146,127925,1,8,0:0:0:0:
205,143,128003,6,0,P|165:192|223:323,1,203.999993774414,6|4,0:0|0:3,0:0:0:0:
399,263,128472,2,0,P|346:238|286:233,1,101.999996887207,8|2,0:0|0:2,0:0:0:0:
424,359,128785,1,4,0:3:0:0:
205,314,128941,1,4,0:3:0:0:
447,202,129097,1,8,0:0:0:0:
220,158,129253,6,0,B|162:137|162:137|194:279,1,203.999993774414,4|4,0:3|0:3,0:0:0:0:
447,202,129722,2,0,P|400:203|330:205,1,101.999996887207,8|0,0:0|0:0,0:0:0:0:
220,158,130035,1,4,0:3:0:0:
447,202,130191,1,4,0:3:0:0:
318,327,130347,1,8,0:0:0:0:
220,158,130503,6,0,P|254:70|351:76,1,203.999993774414,4|4,0:3|0:3,0:0:0:0:
318,327,130972,1,8,0:0:0:0:
299,139,131128,1,2,0:0:0:0:
154,251,131285,2,0,P|142:282|136:354,1,101.999996887207,4|0,0:3|0:0,0:0:0:0:
318,327,131597,1,8,0:0:0:0:
209,170,131753,6,0,B|114:121|99:210|13:161,1,203.999993774414,4|4,0:3|0:3,0:0:0:0:
286,109,132222,2,0,P|306:164|299:209,1,101.999996887207,8|0,0:0|0:0,0:0:0:0:
209,170,132535,1,4,0:3:0:0:
405,100,132691,1,4,0:3:0:0:
405,286,132847,1,8,0:0:0:0:
209,170,133003,6,0,P|216:106|205:-5,1,170,6|4,0:0|0:3,0:0:0:0:
24,181,133472,2,0,P|27:118|38:71,1,85,8|2,0:0|0:0,0:0:0:0:
92,0,133785,1,4,0:3:0:0:
258,91,133941,1,4,0:3:0:0:
118,163,134097,1,8,0:2:0:0:
243,307,134253,6,0,B|287:338|287:338|417:306,1,170,6|4,0:0|0:3,0:0:0:0:
234,195,134722,2,0,P|228:243|237:288,1,85,8|2,0:0|0:2,0:0:0:0:
366,93,135035,1,4,0:3:0:0:
335,238,135191,1,8,0:2:0:0:
488,168,135347,1,8,0:0:0:0:
256,47,135503,6,0,B|211:37|173:57|173:57|143:31|93:34,1,170,6|4,0:0|0:3,0:0:0:0:
116,245,135972,2,0,P|109:195|113:123,1,85,8|4,0:0|0:3,0:0:0:0:
286,122,136285,1,2,0:0:0:0:
208,273,136441,1,4,0:3:0:0:
160,93,136597,1,8,0:0:0:0:
313,226,136753,6,0,B|378:259|434:226|434:226|460:177,1,170,6|4,0:0|0:3,0:0:0:0:
442,66,137222,1,8,0:3:0:0:
256,138,137378,2,0,P|260:204|271:333,1,170,6|4,0:0|0:3,0:0:0:0:
387,382,137847,1,8,0:0:0:0:
145,315,138003,6,0,B|116:279|61:258|61:258|113:264|159:228|159:228|192:254|228:249,1,272,6|0,0:0|0:0,0:0:0:0:
83,165,138785,1,0,0:0:0:0:
181,138,138941,1,0,0:0:0:0:
279,111,139097,1,8,0:3:0:0:
475,57,139253,5,6,0:0:0:0:
181,138,139722,5,2,0:0:0:0:
279,111,140035,1,2,0:0:0:0:
377,84,140347,1,2,0:0:0:0:
475,57,140503,6,0,P|470:127|401:186,1,159.375006079674,0|0,0:0|0:0,0:0:0:0:
374,179,140972,5,2,0:0:0:0:
165,39,141441,5,2,0:0:0:0:
368,384,141910,5,8,0:0:0:0:
171,220,142222,5,2,0:0:0:0:
190,132,142378,1,8,0:3:0:0:
390,215,142691,5,4,0:3:0:0:
409,303,142847,1,6,0:0:0:0:
283,116,143160,6,0,L|290:88,12,15.9375006079674,0|0|0|0|0|0|0|0|0|0|0|0|0,0:0|0:0|0:0|0:0|0:0|0:0|0:0|0:0|0:0|0:0|0:0|0:0|0:0,0:0:0:0:
112,233,143785,6,0,L|78:227,2,31.8750012159348,4|0|4,0:3|0:0|0:3,0:0:0:0:
265,310,152535,6,0,P|272:333|272:353,1,42.5000016212464,8|8,0:0|0:0,0:0:0:0:
178,362,152743,1,8,0:0:0:0:
178,362,152847,6,0,P|176:327|183:303,1,56.6666666666667,8|8,0:0|0:0,0:0:0:0:
231,228,153055,1,8,0:0:0:0:
231,228,153160,6,0,P|185:214|150:219,1,70.8333333333333,8|8,0:0|0:0,0:0:0:0:
78,235,153368,1,8,0:0:0:0:
78,235,153472,6,0,P|83:182|122:145,1,85.0000032424928,8|8,0:0|0:0,0:0:0:0:
176,109,153680,1,8,0:0:0:0:
176,109,153785,6,0,P|247:92|385:97,1,170,14|4,0:0|0:3,0:0:0:0:
507,268,154253,2,0,P|436:285|298:280,1,170,8|4,0:0|0:3,0:0:0:0:
107,204,154722,2,0,P|89:156|191:120,1,170,8|4,0:0|0:3,0:0:0:0:
339,286,155191,2,0,P|357:334|255:370,1,170,8|4,0:0|0:3,0:0:0:0:
105,309,155660,5,8,0:0:0:0:
262,225,155816,1,4,0:3:0:0:
81,82,155972,2,0,P|73:123|77:169,1,85,8|0,0:0|0:0,0:0:0:0:
339,124,156285,6,0,B|269:90|255:163|164:127,1,170,14|4,0:0|0:3,0:0:0:0:
310,323,156753,2,0,B|390:355|404:282|474:316,1,170,8|4,0:0|0:3,0:0:0:0:
236,31,157222,2,0,B|218:78|218:78|236:215,1,170,8|4,0:0|0:3,0:0:0:0:
473,315,157691,2,0,B|491:268|491:268|473:131,1,170,8|4,0:0|0:3,0:0:0:0:
309,81,158160,5,8,0:0:0:0:
429,27,158316,1,4,0:3:0:0:
344,170,158472,2,0,P|302:176|261:166,1,85,8|0,0:0|0:0,0:0:0:0:
91,68,158785,6,0,P|77:134|17:80,1,170,12|4,0:0|0:3,0:0:0:0:
169,288,159253,2,0,P|183:222|243:276,1,170,8|4,0:0|0:3,0:0:0:0:
338,73,159722,2,0,B|327:103|340:137|340:137|324:163|324:163|350:196|348:244,1,170,8|4,0:0|0:3,0:0:0:0:
61,336,160191,2,0,B|72:306|59:272|59:272|75:246|75:246|49:213|51:165,1,170,8|4,0:0|0:3,0:0:0:0:
247,64,160660,5,8,0:0:0:0:
137,186,160816,1,4,0:3:0:0:
83,33,160972,2,0,L|-17:43,1,85,8|0,0:0|0:0,0:0:0:0:
247,64,161285,6,0,B|291:31|338:41|338:41|360:82|422:93,1,170,12|4,0:0|0:3,0:0:0:0:
247,320,161753,2,0,B|291:353|338:343|338:343|360:302|422:291,1,170,8|4,0:0|0:3,0:0:0:0:
149,178,162222,2,0,P|104:182|76:298,1,170,8|4,0:0|0:3,0:0:0:0:
246,201,162691,5,8,0:0:0:0:
6,162,162847,1,8,0:0:0:0:
147,330,163003,1,8,0:3:0:0:
146,78,163160,1,8,0:3:0:0:
247,35,163316,1,8,0:3:0:0:
344,86,163472,6,0,B|413:105|413:105|505:81,1,152.999995330811,12|0,0:0|0:0,0:0:0:0:
418,28,163785,6,0,P|400:97|472:174,1,170,12|4,0:0|0:3,0:0:0:0:
270,351,164253,2,0,P|288:282|216:205,1,170,8|4,0:0|0:3,0:0:0:0:
30,286,164722,2,0,P|110:311|193:297,1,170,8|4,0:0|0:3,0:0:0:0:
428,118,165191,1,8,0:0:0:0:
428,118,165347,6,0,P|432:167|430:206,1,85,0|4,0:0|0:3,0:0:0:0:
177,103,165660,2,0,P|173:54|175:15,1,85,8|4,0:0|0:3,0:0:0:0:
316,257,165972,2,0,P|320:306|318:345,1,85,12|0,0:0|0:0,0:0:0:0:
5,185,166285,6,0,B|59:170|102:201|102:201|138:170|199:190,1,203.999993774414,12|4,0:0|0:3,0:0:0:0:
512,348,166753,2,0,B|458:363|415:332|415:332|379:363|317:342,1,203.999993774414,8|4,0:0|0:3,0:0:0:0:
470,56,167222,2,0,B|497:104|497:104|478:265,1,203.999993774414,8|4,0:0|0:3,0:0:0:0:
163,322,167691,2,0,B|190:274|190:274|171:113,1,203.999993774414,8|4,0:0|0:3,0:0:0:0:
163,322,168159,5,8,0:2:0:0:
330,258,168315,1,4,0:3:0:0:
197,158,168472,1,8,0:3:0:0:
239,262,168628,1,8,0:3:0:0:
267,70,168784,5,12,0:0:0:0:
134,221,168940,1,4,0:3:0:0:
330,258,169097,1,4,0:3:0:0:
119,139,169253,5,12,0:0:0:0:
269,333,169409,1,4,0:3:0:0:
358,101,169565,1,4,0:3:0:0:
174,311,169722,5,12,0:0:0:0:
391,183,169878,1,4,0:3:0:0:
175,61,170034,1,4,0:3:0:0:
268,331,170190,5,12,0:0:0:0:
268,77,170347,1,4,0:3:0:0:
107,251,170503,1,4,0:3:0:0:
364,264,170660,5,12,0:2:0:0:
188,147,170816,1,4,0:3:0:0:
464,37,170972,2,0,P|467:82|468:142,1,101.999996887207,12|4,0:2|0:3,0:0:0:0:
411,308,171285,6,0,P|372:305|330:286,1,76.4999976654053,12|4,0:2|0:3,0:0:0:0:
188,147,171597,2,0,P|196:185|188:230,1,76.4999976654053,4|8,0:3|0:0,0:0:0:0:
106,300,171910,1,4,0:3:0:0:
87,188,172066,1,4,0:3:0:0:
261,89,172222,2,0,P|297:101|332:130,1,76.4999976654053,8|4,0:0|0:3,0:0:0:0:
191,222,172535,5,4,0:3:0:0:
408,119,172691,1,8,0:0:0:0:
382,281,172847,1,4,0:3:0:0:
259,51,173003,1,4,0:3:0:0:
260,70,173081,1,0,0:0:0:0:
261,89,173160,1,8,0:0:0:0:
262,308,173316,1,8,0:0:0:0:
249,336,173628,6,0,P|194:330|95:328,1,136,12|0,0:0|0:0,0:0:0:0:
13,351,174097,1,0,0:0:0:0:
82,153,174410,2,0,P|153:160|245:159,1,136,0|0,0:0|0:0,0:0:0:0:
289,89,174878,6,0,P|242:121|369:205,1,272,0|4,0:0|0:3,0:0:0:0:
305,162,175660,1,8,0:0:0:0:
172,245,175816,2,0,P|168:281|169:328,1,68,4|0,0:3|0:0,0:0:0:0:
355,343,176128,6,0,B|413:294|521:317|521:317|444:259|451:150,1,340,12|0,0:0|0:0,0:0:0:0:
324,14,176910,2,0,P|266:24|239:138,1,170,0|0,0:0|0:0,0:0:0:0:
292,271,177378,1,4,0:3:0:0:
308,94,177535,5,8,0:2:0:0:
408,184,177691,1,4,0:3:0:0:
408,184,177847,2,0,P|353:181|323:190,1,85,0|12,0:0|0:0,0:0:0:0:
184,252,178160,1,0,0:0:0:0:
347,280,178316,1,4,0:3:0:0:
150,245,178472,1,4,0:3:0:0:
292,76,178628,6,0,P|342:52|469:66,1,170,6|4,0:0|0:3,0:0:0:0:
318,313,179097,2,0,P|293:270|288:219,1,85,8|0,0:0|0:0,0:0:0:0:
386,241,179410,1,2,0:2:0:0:
381,374,179566,1,4,0:3:0:0:
200,216,179722,2,0,P|224:172|270:146,1,85,8|2,0:0|0:0,0:0:0:0:
182,300,180035,5,4,0:3:0:0:
89,182,180191,1,2,0:0:0:0:
252,152,180347,2,0,P|303:165|363:158,1,85,8|0,0:0|0:0,0:0:0:0:
158,298,180660,1,4,0:3:0:0:
99,160,180816,1,4,0:3:0:0:
264,174,180972,1,8,0:0:0:0:
247,366,181128,6,0,B|293:376|293:376|427:348,1,170,4|4,0:3|0:3,0:0:0:0:
494,198,181597,2,0,P|489:148|491:86,1,85,8|2,0:0|0:0,0:0:0:0:
387,3,181910,1,2,0:0:0:0:
384,156,182066,1,4,0:3:0:0:
289,48,182222,1,2,0:0:0:0:
469,93,182378,1,8,0:0:0:0:
309,222,182535,6,0,P|289:182|290:130,1,85,4|2,0:3|0:0,0:0:0:0:
387,3,182847,1,8,0:0:0:0:
384,156,183003,1,8,0:0:0:0:
190,90,183160,1,4,0:3:0:0:
232,276,183316,1,4,0:3:0:0:
384,156,183472,1,8,0:0:0:0:
153,205,183628,6,0,P|146:89|144:-4,1,203.999993774414,6|4,0:2|0:3,0:0:0:0:
288,161,184097,1,8,0:0:0:0:
45,121,184253,1,2,0:0:0:0:
179,344,184410,1,4,0:3:0:0:
219,101,184566,1,4,0:3:0:0:
340,298,184722,1,8,0:0:0:0:
97,258,184878,1,2,0:0:0:0:
302,76,185035,5,2,0:0:0:0:
317,74,185113,1,2,0:0:0:0:
332,72,185191,2,0,L|440:79,1,101.999996887207,12|2,0:0|0:0,0:0:0:0:
495,265,185503,1,8,0:0:0:0:
249,194,185660,1,8,0:3:0:0:
498,136,185816,1,8,0:0:0:0:
360,314,185972,1,4,0:3:0:0:
242,89,186128,6,0,B|235:45|207:27|207:27|56:39|-33:182|203:264|234:104|92:-4|92:-4|51:1|27:41,1,595,14|0,0:0|0:0,0:0:0:0:
7,180,187378,5,8,0:0:0:0:
300,212,187535,1,12,0:2:0:0:
300,212,188003,5,2,0:0:0:0:
222,272,188160,2,0,P|184:276|155:274,2,50.9999984436036,2|0|2,0:0|0:0|0:0,0:0:0:0:
7,180,188628,5,12,0:0:0:0:
96,245,196128,5,4,0:3:0:0:
96,245,196206,1,4,0:3:0:0:
96,245,196285,2,0,P|138:251|183:245,1,85,12|4,0:2|0:3,0:0:0:0:
347,179,196597,1,8,0:2:0:0:
173,129,196753,1,4,0:3:0:0:
419,92,196910,1,8,0:0:0:0:
260,307,197066,1,8,0:0:0:0:
209,56,197222,1,8,0:0:0:0:
461,184,197378,6,0,B|493:224|493:224|479:342,1,165.749992412568,12|0,0:0|0:0,0:0:0:0:
390,377,197691,6,0,P|401:281|492:245,1,204,12|0,0:0|0:0,0:0:0:0:
479,337,198003,5,12,0:0:0:0:
296,212,198160,2,0,L|356:196,1,42.5,0|0,0:0|0:0,0:0:0:0:
157,306,198316,1,8,0:0:0:0:
131,261,198394,1,8,0:0:0:0:
124,211,198472,1,8,0:0:0:0:
134,160,198550,1,8,0:0:0:0:
161,118,198628,6,0,P|178:192|60:230,1,203.999993774414,12|4,0:0|0:3,0:0:0:0:
282,138,199097,2,0,P|288:187|275:238,1,101.999996887207,8|2,0:0|0:0,0:0:0:0:
176,326,199410,1,4,0:3:0:0:
179,182,199566,1,4,0:3:0:0:
346,299,199722,1,8,0:0:0:0:
337,83,199878,6,0,B|313:33|313:33|229:-8|162:65,1,203.999993774414,4|4,0:3|0:3,0:0:0:0:
244,310,200347,2,0,P|293:307|358:295,1,101.999996887207,8|2,0:0|0:0,0:0:0:0:
462,230,200660,1,4,0:3:0:0:
281,196,200816,1,4,0:3:0:0:
483,210,200972,1,8,0:0:0:0:
318,34,201128,6,0,P|248:116|289:202,1,203.999993774414,4|4,0:3|0:3,0:0:0:0:
344,124,201597,1,8,0:0:0:0:
136,116,201753,1,2,0:0:0:0:
285,296,201910,2,0,P|278:236|281:190,1,101.999996887207,4|0,0:3|0:0,0:0:0:0:
344,124,202222,1,8,0:0:0:0:
426,365,202378,6,0,B|364:354|364:354|290:385|290:385|230:372,1,203.999993774414,4|4,0:3|0:3,0:0:0:0:
62,206,202847,2,0,B|108:189|108:189|161:197,1,101.999996887207,8|2,0:0|0:0,0:0:0:0:
306,284,203160,1,4,0:3:0:0:
117,304,203316,1,4,0:3:0:0:
249,152,203472,1,8,0:0:0:0:
239,373,203628,6,0,P|221:270|220:145,1,203.999993774414,6|4,0:0|0:3,0:0:0:0:
430,17,204097,2,0,P|438:77|435:128,1,101.999996887207,8|0,0:0|0:0,0:0:0:0:
344,259,204410,1,4,0:3:0:0:
218,170,204566,1,4,0:3:0:0:
309,53,204722,1,8,0:0:0:0:
149,256,204878,6,0,B|196:284|196:284|343:259,1,203.999993774414,6|4,0:0|0:3,0:0:0:0:
161,79,205347,2,0,L|39:93,1,101.999996887207,8|0,0:0|0:0,0:0:0:0:
236,141,205660,1,4,0:3:0:0:
73,207,205816,1,4,0:3:0:0:
259,119,205972,1,8,0:0:0:0:
313,375,206128,6,0,P|255:344|184:221,1,203.999993774414,6|4,0:0|0:3,0:0:0:0:
466,136,206597,2,0,P|480:197|472:254,1,101.999996887207,8|2,0:0|0:0,0:0:0:0:
280,201,206910,1,2,0:0:0:0:
444,325,207066,1,4,0:3:0:0:
376,114,207222,1,8,0:0:0:0:
273,305,207378,6,0,B|239:319|200:302|200:302|189:330|189:330|135:310|85:337,1,203.999993774414,6|4,0:0|0:3,0:0:0:0:
0,248,207847,1,8,0:3:0:0:
80,106,208003,2,0,P|133:92|219:209,1,203.999993774414,6|4,0:0|0:3,0:0:0:0:
128,189,208472,1,8,0:0:0:0:
344,92,208628,6,0,B|382:109|382:109|424:96|424:96|458:119|458:119|499:114|499:114|449:194|460:293,1,340,6|0,0:2|0:0,0:0:0:0:
339,361,209410,1,2,0:0:0:0:
264,267,209566,2,0,P|300:246|342:243,1,85,0|4,0:0|0:3,0:0:0:0:
175,359,209878,5,6,0:0:0:0:
32,118,210347,5,2,0:0:0:0:
40,149,210660,1,2,0:0:0:0:
48,180,210972,5,0,0:3:0:0:
313,145,211128,1,6,0:2:0:0:
256,192,211206,12,8,212847,0:0:0:0:
235,94,213160,5,8,0:0:0:0:
278,347,213316,1,8,0:0:0:0:
108,346,213628,6,0,P|180:347|296:346,1,170,6|4,0:0|0:3,0:0:0:0:
376,228,214097,2,0,P|362:193|363:126,1,85,8|2,0:0|0:0,0:0:0:0:
417,37,214410,1,4,0:3:0:0:
467,167,214566,1,4,0:3:0:0:
404,7,214722,1,8,0:0:0:0:
376,228,214878,6,0,B|329:254|329:254|274:230|201:241,1,170,4|4,0:3|0:3,0:0:0:0:
105,353,215347,1,10,0:2:0:0:
116,159,215503,1,4,0:3:0:0:
219,337,215660,1,2,0:0:0:0:
116,159,215816,1,4,0:3:0:0:
219,337,215972,2,0,P|268:342|305:342,1,85,8|2,0:2|0:2,0:0:0:0:
422,134,216285,6,0,P|373:129|336:129,1,85,6|2,0:0|0:0,0:0:0:0:
156,233,216597,2,0,P|205:238|242:238,1,85,8|0,0:0|0:0,0:0:0:0:
277,217,216831,1,4,0:3:0:0:
277,217,216910,1,4,0:3:0:0:
219,337,217066,1,4,0:3:0:0:
72,268,217222,2,0,P|68:210|82:176,1,85,8|2,0:0|0:0,0:0:0:0:
242,83,217535,5,12,0:0:0:0:
125,59,217691,1,4,0:3:0:0:
277,217,217847,1,12,0:0:0:0:
326,49,218003,1,4,0:3:0:0:
264,243,218160,1,12,0:2:0:0:
408,123,218316,2,0,P|462:110|494:119,1,85,4|4,0:3|0:3,0:0:0:0:
464,367,218628,6,0,B|433:253|433:253|455:205,1,170,6|4,0:0|0:3,0:0:0:0:
363,323,219097,2,0,L|264:299,1,85,8|2,0:0|0:0,0:0:0:0:
160,315,219410,1,4,0:3:0:0:
1,267,219566,2,0,L|100:243,1,85,4|8,0:3|0:0,0:0:0:0:
213,147,219878,6,0,P|226:107|220:59,1,85,4|2,0:3|0:0,0:0:0:0:
372,216,220191,1,4,0:3:0:0:
372,216,220347,2,0,P|359:256|365:304,1,85,8|4,0:2|0:3,0:0:0:0:
466,266,220660,1,2,0:0:0:0:
416,139,220816,1,4,0:3:0:0:
281,120,220972,2,0,P|220:137|177:134,1,85,8|2,0:2|0:0,0:0:0:0:
149,345,221285,6,0,P|210:328|253:331,1,85,6|2,0:0|0:0,0:0:0:0:
360,201,221597,1,8,0:0:0:0:
332,343,221753,1,8,0:0:0:0:
281,120,221910,1,4,0:3:0:0:
434,111,222066,1,4,0:3:0:0:
283,241,222222,1,8,0:0:0:0:
343,14,222378,1,0,0:0:0:0:
343,14,222456,1,8,0:3:0:0:
343,14,222535,5,4,0:3:0:0:
437,194,222691,1,2,0:0:0:0:
437,194,222769,1,4,0:3:0:0:
437,194,222847,2,0,P|445:236|439:309,1,85,4|2,0:3|0:0,0:0:0:0:
327,347,223160,1,4,0:3:0:0:
223,259,223316,1,4,0:3:0:0:
23,303,223472,6,0,B|91:308|186:238|186:238|245:272,1,220.999989883423,12|0,0:0|0:0,0:0:0:0:
183,56,224410,1,14,0:0:0:0:
256,192,224488,12,0,226128,0:0:0:0:
437,187,226285,5,12,0:0:0:0:
119,264,226597,5,4,0:3:0:0:
437,187,226753,1,14,0:0:0:0:
