osu file format v14

[General]
AudioFilename: audio.mp3
AudioLeadIn: 0
PreviewTime: 52310
Countdown: 0
SampleSet: Soft
StackLeniency: 0.7
Mode: 0
LetterboxInBreaks: 0
WidescreenStoryboard: 0

[Editor]
DistanceSpacing: 1
BeatDivisor: 2
GridSize: 16
TimelineZoom: 1.5

[Metadata]
Title:Key of Truth
TitleUnicode:Key of Truth
Artist:sweet ARMS
ArtistUnicode:sweet ARMS
Creator:sahuang
Version:Advanced
Source:デート・ア・ライブTwin Edition凜緒リンカーネイション
Tags:DATE A LIVE Twin Edition Rio Reincarnation game opening theme song ps vita kawaiwkyik rizia wkyik gaia my angel azusa Celsiuslk
BeatmapID:1410165
BeatmapSetID:665179

[Difficulty]
HPDrainRate:4
CircleSize:3.5
OverallDifficulty:4
ApproachRate:5
SliderMultiplier:1.1
SliderTickRate:1

[Events]
//Background and Video events
0,0,"bg.jpg",0,0
//Break Periods
2,23360,30710
2,78360,86960
2,143985,151335
2,188628,196178
//Storyboard Layer 0 (Background)
//Storyboard Layer 1 (Fail)
//Storyboard Layer 2 (Pass)
//Storyboard Layer 3 (Foreground)
//Storyboard Sound Samples

[TimingPoints]
660,312.5,4,2,1,40,1,0
2378,-100,4,2,1,40,0,0
3003,-100,4,2,1,40,0,0
13003,-100,4,2,1,40,0,0
22847,-100,4,2,1,40,0,0
23160,-100,4,2,1,40,0,0
33003,-100,4,2,1,40,0,0
41753,-100,4,2,1,40,0,0
43160,-100,4,2,1,40,0,0
45660,-100,4,2,1,40,0,0
50503,-100,4,2,1,40,0,0
51910,-100,4,2,1,40,0,0
52535,-100,4,2,1,40,0,0
52847,-100,4,2,1,40,0,0
53003,-100,4,2,1,80,0,1
61753,-100,4,2,1,80,0,1
62066,-100,4,2,1,80,0,1
62378,-100,4,2,1,80,0,0
63003,-100,4,2,1,80,0,1
68003,-100,4,2,1,80,0,1
73003,-100,4,2,1,80,0,0
78160,-100,4,2,1,80,0,0
88160,-100,4,2,1,80,0,0
95660,-100,4,2,1,80,0,0
98003,-100,4,2,1,80,0,0
106753,-100,4,2,1,80,0,0
108160,-100,4,2,1,80,0,0
113160,-100,4,2,1,80,0,0
114253,-100,4,2,1,80,0,0
118003,-100,4,2,1,80,0,1
126753,-100,4,2,1,80,0,1
127066,-100,4,2,1,80,0,1
127378,-100,4,2,1,80,0,0
128003,-100,4,2,1,80,0,1
133003,-100,4,2,1,80,0,1
138003,-100,4,2,1,80,0,0
140503,-100,4,2,1,80,0,0
143785,312.5,4,2,1,70,1,0
143785,-100,4,2,1,70,0,0
152535,-100,4,2,1,70,0,0
152847,-100,4,2,1,70,0,0
153160,-100,4,2,1,70,0,0
153472,-100,4,2,1,70,0,0
153785,-100,4,2,1,70,0,0
163472,-100,4,2,1,70,0,0
163785,-100,4,2,1,70,0,0
166285,-100,4,2,1,70,0,0
168785,-100,4,2,1,70,0,0
171285,-100,4,2,1,70,0,0
173628,-100,4,2,1,70,0,0
176128,-100,4,2,1,70,0,0
183628,-100,4,2,1,70,0,0
186128,-100,4,2,1,70,0,0
188003,-100,4,2,1,70,0,0
196285,-100,4,2,1,70,0,0
197378,-100,4,2,1,70,0,0
197691,-100,4,2,1,70,0,0
198003,-100,4,2,1,70,0,0
198628,-100,4,2,1,70,0,1
208628,-100,4,2,1,70,0,0
223472,-100,4,2,1,70,0,0

[Colours]
Combo1 : 255,196,255
Combo2 : 0,128,128
Combo3 : 255,128,128
Combo4 : 0,64,128

[HitObjects]
129,129,2378,5,0,0:0:0:0:
129,129,2535,2,0,L|120:63,2,55,0|0|0,0:0|0:0|0:0,0:0:0:0:
108,179,3003,6,0,P|108:223|103:316,1,110,2|0,0:0|0:0,0:0:0:0:
121,341,3472,1,2,0:0:0:0:
226,310,3785,2,0,P|288:296|371:315,1,110,2|0,0:0|0:0,0:0:0:0:
370,341,4253,2,0,B|355:278|355:278|373:167,1,165,2|0,0:0|0:0,0:0:0:0:
425,82,5035,2,0,L|412:-2,2,55,0|0|0,0:0|0:0|0:0,0:0:0:0:
374,102,5503,6,0,P|320:90|244:105,1,110,2|0,0:0|0:0,0:0:0:0:
222,129,5972,1,2,0:0:0:0:
157,217,6285,2,0,P|103:229|27:214,1,110,2|0,0:0|0:0,0:0:0:0:
14,179,6753,2,0,P|51:226|-17:299,1,165,2|0,0:0|0:0,0:0:0:0:
89,356,7535,2,0,L|238:365,1,110,2|2,0:0|0:0,0:0:0:0:
247,337,8003,6,0,B|334:294|335:366|419:324,1,165,2|0,0:0|0:0,0:0:0:0:
477,245,8785,2,0,P|499:181|491:129,1,110,2|0,0:0|0:0,0:0:0:0:
460,96,9253,2,0,B|420:82|366:81|366:81|331:110|261:118,1,165,2|2,0:0|0:0,0:0:0:0:
196,84,10035,1,2,0:0:0:0:
96,130,10347,1,2,0:0:0:0:
96,130,10503,1,2,0:0:0:0:
256,192,10660,12,0,11910,0:0:0:0:
396,170,12535,6,0,L|403:242,1,55,8|8,0:0|0:0,0:0:0:0:
316,294,13003,6,0,P|240:285|176:290,1,110,6|0,0:0|0:0,0:0:0:0:
151,293,13472,1,8,0:0:0:0:
43,269,13785,2,0,L|36:185,1,55,4|4,0:3|0:3,0:0:0:0:
64,165,14097,1,8,0:0:0:0:
64,165,14253,2,0,P|122:141|173:137,1,110,4|4,0:3|0:3,0:0:0:0:
261,196,14878,2,0,P|315:189|365:167,1,110,2|4,0:0|0:3,0:0:0:0:
409,134,15347,1,8,0:0:0:0:
460,231,15660,6,0,L|468:345,1,110,6|8,0:0|0:0,0:0:0:0:
424,374,16128,1,2,0:0:0:0:
424,374,16285,2,0,L|310:382,1,110,4|8,0:3|0:0,0:0:0:0:
231,308,16910,2,0,L|117:300,1,110,12|12,0:0|0:0,0:0:0:0:
73,273,17378,1,4,0:3:0:0:
73,273,17535,2,0,P|67:244|78:196,1,55,12|8,0:0|0:0,0:0:0:0:
135,130,18003,6,0,P|190:111|284:172,1,165,6|8,0:0|0:0,0:0:0:0:
358,236,18785,2,0,L|428:221,2,55,4|4|8,0:3|0:3|0:0,0:0:0:0:
308,212,19253,2,0,L|300:58,2,110,4|4|2,0:3|0:3|0:0,0:0:0:0:
271,315,20191,1,2,0:0:0:0:
271,315,20347,2,0,L|180:319,1,55,8|0,0:0|0:0,0:0:0:0:
163,300,20660,6,0,P|118:266|116:203,1,110,6|8,0:0|0:0,0:0:0:0:
136,166,21128,1,8,0:0:0:0:
136,166,21285,2,0,L|39:180,2,55,4|4|8,0:3|0:3|0:0,0:0:0:0:
65,81,21910,2,0,L|173:64,1,110,4|8,0:3|0:0,0:0:0:0:
276,102,22535,2,0,L|285:166,2,55,8|4|12,0:0|0:3|0:0,0:0:0:0:
349,19,23160,5,4,0:0:0:0:
339,32,31910,5,12,0:0:0:0:
241,83,32222,1,12,0:0:0:0:
138,42,32535,1,12,0:0:0:0:
138,42,32691,1,12,0:0:0:0:
80,135,33003,6,0,P|72:234|73:253,1,110,14|0,0:0|0:0,0:0:0:0:
103,290,33472,1,8,0:0:0:0:
201,340,33785,2,0,P|262:351|319:344,1,110,2|2,0:0|0:0,0:0:0:0:
320,236,34410,2,0,P|259:225|202:232,2,110,4|8|4,0:3|0:0|0:3,0:0:0:0:
414,291,35347,1,8,0:0:0:0:
420,181,35660,6,0,L|424:112,1,55,4|2,0:3|0:0,0:0:0:0:
397,77,35972,1,8,0:0:0:0:
299,128,36285,2,0,L|295:182,2,55,4|0|0,0:3|0:0|0:0,0:0:0:0:
267,82,36753,2,0,L|132:87,1,110,6|4,0:0|0:3,0:0:0:0:
108,112,37222,2,0,L|44:103,1,55,8|8,0:0|0:0,0:0:0:0:
2,124,37535,1,4,0:3:0:0:
58,218,37847,2,0,L|67:283,1,55,8|8,0:0|0:0,0:0:0:0:
109,306,38160,6,0,L|-15:301,2,110,6|8|4,0:0|0:0|0:3,0:0:0:0:
208,353,39097,1,2,0:0:0:0:
208,353,39253,2,0,P|265:338|332:342,1,110,8|4,0:0|0:3,0:0:0:0:
366,361,39722,2,0,L|427:363,1,55,8|0,0:0|0:0,0:0:0:0:
463,327,40035,2,0,L|457:207,1,110,4|8,0:3|0:0,0:0:0:0:
381,137,40660,6,0,L|386:27,2,110,6|8|4,0:0|0:0|0:3,0:0:0:0:
303,215,41597,1,8,0:0:0:0:
303,215,41753,2,0,P|252:185|189:192,1,110,4|4,0:2|0:3,0:0:0:0:
157,219,42222,2,0,P|126:227|91:221,1,55,8|4,0:0|0:3,0:0:0:0:
65,184,42535,2,0,P|42:161|30:127,1,55,8|8,0:0|0:3,0:0:0:0:
52,89,42847,1,8,0:3:0:0:
133,15,43160,6,0,P|203:4|252:13,1,110,6|4,0:0|0:3,0:0:0:0:
318,87,43785,2,0,P|372:92|426:81,1,110,4|4,0:3|0:3,0:0:0:0:
503,160,44410,2,0,P|497:214|508:268,1,110,4|4,0:3|0:3,0:0:0:0:
441,356,45035,2,0,P|386:350|332:361,1,110,4|4,0:3|0:3,0:0:0:0:
282,338,45503,1,6,0:0:0:0:
282,338,45660,6,0,L|284:204,1,110,4|4,0:3|0:3,0:0:0:0:
248,123,46285,2,0,P|244:91|234:62,2,55,4|0|4,0:3|0:0|0:3,0:0:0:0:
208,160,46753,2,0,L|90:149,1,110,12|2,0:0|0:0,0:0:0:0:
45,164,47222,1,4,0:3:0:0:
72,270,47535,2,0,L|181:280,1,110,4|8,0:3|0:3,0:0:0:0:
282,324,48160,6,0,P|340:309|397:314,1,110,6|4,0:0|0:3,0:0:0:0:
458,226,48785,2,0,P|443:168|448:111,1,110,4|4,0:3|0:3,0:0:0:0:
484,78,49253,2,0,L|353:77,1,110,12|4,0:0|0:3,0:0:0:0:
324,52,49722,2,0,L|262:62,1,55,8|4,0:0|0:3,0:0:0:0:
228,97,50035,2,0,L|166:87,2,55,4|8|8,0:3|0:0|0:0,0:0:0:0:
264,137,50503,1,6,0:0:0:0:
256,192,50660,12,6,51910,0:0:0:0:
110,23,53003,6,0,L|113:132,1,110,6|4,0:0|0:3,0:0:0:0:
152,171,53472,2,0,P|183:166|222:160,1,55,8|2,0:0|0:0,0:0:0:0:
246,124,53785,2,0,P|310:111|374:128,1,110,4|8,0:3|0:0,0:0:0:0:
397,151,54253,2,0,L|404:294,1,110,4|4,0:3|0:3,0:0:0:0:
388,314,54722,1,8,0:0:0:0:
295,373,55035,2,0,P|231:386|167:369,1,110,4|8,0:3|0:0,0:0:0:0:
141,348,55503,6,0,P|128:284|145:220,1,110,4|4,0:3|0:3,0:0:0:0:
165,194,55972,2,0,L|156:116,1,55,8|2,0:0|0:0,0:0:0:0:
140,87,56285,2,0,L|251:94,1,110,4|8,0:3|0:0,0:0:0:0:
282,49,56753,2,0,L|393:42,1,110,4|4,0:3|0:3,0:0:0:0:
437,72,57222,1,8,0:0:0:0:
490,168,57535,2,0,L|497:230,2,55,4|4|8,0:3|0:3|0:0,0:0:0:0:
379,168,58160,5,0,0:0:0:0:
429,265,58472,1,8,0:0:0:0:
365,354,58785,2,0,P|307:331|243:333,1,110,4|8,0:3|0:0,0:0:0:0:
209,351,59253,2,0,L|93:353,1,110,4|4,0:3|0:3,0:0:0:0:
49,327,59722,1,8,0:2:0:0:
11,223,60035,2,0,L|24:100,1,110,4|8,0:3|0:0,0:0:0:0:
104,40,60660,5,4,0:3:0:0:
188,109,60972,1,8,0:0:0:0:
269,35,61285,2,0,L|337:24,1,55,4|4,0:3|0:3,0:0:0:0:
370,54,61597,1,8,0:0:0:0:
370,54,61753,2,0,L|364:194,2,110,12|12|12,0:0|0:0|0:0,0:0:0:0:
417,268,63003,6,0,P|362:284|302:262,1,110,6|4,0:0|0:3,0:0:0:0:
276,227,63472,2,0,L|206:234,1,55,8|2,0:0|0:0,0:0:0:0:
175,263,63785,2,0,L|46:250,1,110,4|8,0:3|0:2,0:0:0:0:
24,215,64253,2,0,P|36:278|15:343,1,110,4|4,0:3|0:3,0:0:0:0:
2,372,64722,1,8,0:0:0:0:
111,379,65035,2,0,L|226:367,1,110,4|8,0:3|0:0,0:0:0:0:
262,331,65503,6,0,P|327:321|384:334,1,110,2|2,0:0|0:0,0:0:0:0:
413,295,65972,2,0,L|425:218,1,55,8|2,0:2|0:0,0:0:0:0:
454,195,66285,2,0,L|442:118,2,55,4|0|8,0:3|0:0|0:0,0:0:0:0:
399,202,66753,2,0,L|260:212,1,110,4|4,0:3|0:3,0:0:0:0:
240,183,67222,1,8,0:0:0:0:
153,114,67535,2,0,L|160:48,2,55,4|4|8,0:3|0:3|0:0,0:0:0:0:
115,154,68003,6,0,B|97:196|110:224|110:224|95:247|95:247|107:281|106:327,1,165,6|8,0:0|0:0,0:0:0:0:
206,357,68785,2,0,L|216:283,1,55,4|4,0:3|0:3,0:0:0:0:
238,253,69097,1,8,0:0:0:0:
238,253,69253,2,0,B|282:237|320:259|320:259|353:241|402:253,1,165,6|8,0:0|0:0,0:0:0:0:
490,312,70035,2,0,L|501:371,2,55,4|8|8,0:3|0:0|0:0,0:0:0:0:
499,257,70503,6,0,L|505:136,1,110,6|4,0:0|0:3,0:0:0:0:
471,102,70972,1,8,0:0:0:0:
361,90,71285,2,0,P|304:109|247:99,1,110,4|8,0:3|0:0,0:0:0:0:
211,69,71753,2,0,L|213:202,1,110,6|4,0:0|0:3,0:0:0:0:
175,219,72222,1,8,0:3:0:0:
175,219,72379,2,0,L|177:352,1,110,6|4,0:0|0:3,0:0:0:0:
205,375,72847,1,8,0:0:0:0:
205,375,73003,6,0,P|255:328|367:349,1,165,6|0,0:0|0:0,0:0:0:0:
448,375,73785,2,0,P|455:325|430:264,1,110,0|4,0:0|0:3,0:0:0:0:
388,240,74253,2,0,L|393:28,1,165,6|0,0:0|0:0,0:0:0:0:
293,24,75035,1,0,0:0:0:0:
213,99,75347,1,0,0:0:0:0:
213,99,75503,6,0,L|148:90,1,55,2|2,0:0|0:0,0:0:0:0:
256,192,75816,12,4,78160,0:3:0:0:
136,250,88160,6,0,P|133:276|139:314,2,55,6|0|4,0:0|0:0|0:3,0:0:0:0:
243,275,88785,2,0,P|303:291|356:283,1,110,2|8,0:0|0:3,0:0:0:0:
364,175,89410,2,0,P|304:159|251:167,1,110,2|8,0:0|0:3,0:0:0:0:
155,207,90035,2,0,P|100:212|48:196,1,110,2|8,0:0|0:3,0:0:0:0:
63,87,90660,6,0,P|117:81|169:97,1,110,2|8,0:0|0:3,0:0:0:0:
273,133,91285,2,0,L|393:118,1,110,2|8,0:0|0:3,0:0:0:0:
420,222,91910,2,0,L|310:235,1,110,2|8,0:0|0:3,0:0:0:0:
201,247,92535,2,0,P|196:297|218:360,1,110,2|8,0:0|0:3,0:0:0:0:
321,374,93160,6,0,L|430:360,1,110,4|8,0:0|0:3,0:0:0:0:
484,264,93785,2,0,L|494:139,1,110,2|2,0:0|0:0,0:0:0:0:
468,105,94253,1,8,0:3:0:0:
468,105,94410,2,0,P|415:132|360:113,1,110,8|2,0:3|0:0,0:0:0:0:
303,30,95035,2,0,P|250:17|188:39,1,110,2|8,0:0|0:3,0:0:0:0:
153,65,95503,1,8,0:3:0:0:
153,65,95660,6,0,L|162:188,1,110,6|8,0:0|0:3,0:0:0:0:
234,256,96285,2,0,P|211:305|225:379,1,110,4|8,0:3|0:3,0:0:0:0:
320,325,96910,1,12,0:0:0:0:
391,242,97222,1,12,0:0:0:0:
501,244,97535,1,12,0:0:0:0:
501,244,97691,1,12,0:0:0:0:
446,148,98003,6,0,P|388:132|331:151,1,110,14|0,0:0|0:0,0:0:0:0:
298,179,98472,1,8,0:0:0:0:
219,256,98785,2,0,P|208:317|215:374,1,110,0|0,0:0|0:0,0:0:0:0:
322,374,99410,2,0,P|333:313|326:256,2,110,0|8|2,0:0|0:0|0:0,0:0:0:0:
212,364,100347,1,8,0:0:0:0:
110,321,100660,6,0,L|41:325,1,55,4|0,0:3|0:0,0:0:0:0:
6,298,100972,1,8,0:0:0:0:
39,193,101285,2,0,L|27:132,2,55,2|4|4,0:2|0:3|0:3,0:0:0:0:
93,201,101753,2,0,P|147:190|210:195,1,110,8|0,0:0|0:0,0:0:0:0:
255,179,102222,2,0,L|264:115,1,55,8|8,0:0|0:0,0:0:0:0:
249,70,102535,1,8,0:3:0:0:
341,11,102847,2,0,P|377:3|409:16,1,55,8|2,0:0|0:0,0:0:0:0:
430,49,103160,6,0,L|425:173,2,110,6|8|4,0:0|0:0|0:3,0:0:0:0:
331,98,104097,1,2,0:0:0:0:
331,98,104253,2,0,L|326:222,1,110,8|4,0:0|0:3,0:0:0:0:
287,246,104722,2,0,L|285:307,1,55,8|0,0:0|0:0,0:0:0:0:
318,344,105035,2,0,L|208:349,1,110,4|8,0:3|0:0,0:0:0:0:
116,288,105660,6,0,L|6:282,2,110,6|8|4,0:2|0:0|0:3,0:0:0:0:
216,243,106597,1,8,0:0:0:0:
216,243,106753,2,0,P|246:192|239:129,1,110,6|4,0:0|0:3,0:0:0:0:
199,110,107222,2,0,P|191:79|197:44,1,55,8|4,0:0|0:3,0:0:0:0:
247,48,107535,2,0,P|270:25|304:13,1,55,8|4,0:0|0:3,0:0:0:0:
341,35,107847,1,4,0:3:0:0:
439,84,108160,6,0,P|450:154|441:203,1,110,6|4,0:0|0:3,0:0:0:0:
352,252,108785,2,0,P|347:306|358:360,1,110,4|4,0:3|0:3,0:0:0:0:
247,360,109410,2,0,P|252:306|241:252,1,110,4|4,0:3|0:3,0:0:0:0:
141,204,110035,2,0,P|130:150|136:95,1,110,4|4,0:3|0:3,0:0:0:0:
177,58,110503,1,6,0:0:0:0:
177,58,110660,6,0,L|311:60,1,110,4|4,0:3|0:3,0:0:0:0:
390,98,111285,2,0,P|422:94|451:84,2,55,4|8|8,0:3|0:3|0:3,0:0:0:0:
360,144,111753,1,6,0:0:0:0:
360,144,111910,2,0,L|361:266,1,110,4|4,0:3|0:3,0:0:0:0:
303,348,112535,2,0,P|249:321|193:328,1,110,4|4,0:3|0:3,0:0:0:0:
95,358,113160,6,0,L|84:214,1,110,6|8,0:0|0:0,0:0:0:0:
124,145,113785,2,0,L|268:134,1,110,8|8,0:2|0:0,0:0:0:0:
277,103,114253,2,0,P|338:87|389:105,1,110,14|8,0:0|0:0,0:0:0:0:
403,150,114722,2,0,L|406:205,1,55,8|8,0:0|0:0,0:0:0:0:
446,243,115035,2,0,L|442:298,2,55,8|8|8,0:0|0:0|0:0,0:0:0:0:
496,220,115503,1,14,0:0:0:0:
256,192,115660,12,6,116910,0:0:0:0:
451,63,118003,6,0,L|342:66,1,110,6|4,0:0|0:3,0:0:0:0:
291,90,118472,2,0,P|296:121|302:160,1,55,8|2,0:0|0:0,0:0:0:0:
334,187,118785,2,0,P|347:251|330:315,1,110,4|8,0:3|0:0,0:0:0:0:
292,322,119253,2,0,P|239:313|149:329,1,110,4|4,0:3|0:3,0:0:0:0:
140,352,119722,1,8,0:0:0:0:
65,271,120035,2,0,L|7:282,2,55,4|4|8,0:3|0:3|0:0,0:0:0:0:
90,222,120503,6,0,L|218:226,1,110,4|4,0:3|0:3,0:0:0:0:
233,181,120972,2,0,L|311:172,1,55,8|2,0:0|0:0,0:0:0:0:
335,146,121285,2,0,L|328:257,1,110,4|8,0:3|0:0,0:0:0:0:
300,303,121753,2,0,P|347:288|411:296,1,110,4|4,0:3|0:3,0:0:0:0:
458,311,122222,1,8,0:0:0:0:
503,210,122535,2,0,L|496:155,2,55,4|0|8,0:3|0:0|0:0,0:0:0:0:
404,159,123160,5,0,0:0:0:0:
309,214,123472,1,8,0:0:0:0:
213,158,123785,2,0,L|203:41,1,110,4|8,0:3|0:0,0:0:0:0:
244,11,124253,2,0,P|190:32|128:13,1,110,4|4,0:3|0:3,0:0:0:0:
85,27,124722,1,8,0:2:0:0:
55,133,125035,2,0,L|-3:120,2,55,4|0|8,0:3|0:0|0:0,0:0:0:0:
143,198,125660,5,4,0:3:0:0:
59,269,125972,1,8,0:0:0:0:
149,332,126285,2,0,L|217:321,1,55,4|4,0:3|0:3,0:0:0:0:
223,272,126597,1,8,0:0:0:0:
223,272,126753,2,0,L|217:412,2,110,12|12|12,0:0|0:0|0:0,0:0:0:0:
399,140,128003,6,0,L|394:249,1,110,6|4,0:0|0:3,0:0:0:0:
353,287,128472,2,0,P|331:285|283:294,1,55,8|2,0:0|0:2,0:0:0:0:
269,336,128785,2,0,P|226:355|147:346,1,110,4|8,0:3|0:0,0:0:0:0:
126,312,129253,2,0,P|107:269|116:190,1,110,4|4,0:3|0:3,0:0:0:0:
128,155,129722,1,8,0:0:0:0:
222,98,130035,2,0,L|216:22,2,55,4|4|8,0:3|0:3|0:0,0:0:0:0:
266,130,130503,6,0,P|276:195|263:252,1,110,4|4,0:3|0:3,0:0:0:0:
292,287,130972,2,0,L|369:299,1,55,8|2,0:0|0:0,0:0:0:0:
392,325,131285,2,0,L|469:313,2,55,4|0|8,0:3|0:0|0:0,0:0:0:0:
394,270,131753,2,0,L|384:131,1,110,4|4,0:3|0:3,0:0:0:0:
377,105,132222,1,8,0:0:0:0:
276,60,132535,2,0,L|283:-5,2,55,4|4|8,0:3|0:3|0:0,0:0:0:0:
228,88,133003,6,0,B|186:70|158:83|158:83|135:68|135:68|101:80|55:79,1,165,6|8,0:0|0:0,0:0:0:0:
9,170,133785,2,0,P|8:196|13:232,1,55,4|4,0:3|0:3,0:0:0:0:
47,266,134097,1,8,0:2:0:0:
47,266,134253,2,0,B|122:287|122:287|211:266,1,165,6|8,0:0|0:0,0:0:0:0:
292,198,135035,2,0,P|322:188|348:192,2,55,4|8|8,0:3|0:2|0:0,0:0:0:0:
240,180,135503,6,0,L|231:49,1,110,6|4,0:0|0:3,0:0:0:0:
267,27,135972,1,8,0:0:0:0:
350,99,136285,2,0,P|407:80|464:90,1,110,2|8,0:0|0:0,0:0:0:0:
486,131,136753,2,0,L|488:264,1,110,6|4,0:0|0:3,0:0:0:0:
451,282,137222,1,8,0:3:0:0:
451,282,137379,2,0,L|318:284,1,110,6|4,0:0|0:3,0:0:0:0:
324,231,137847,1,8,0:0:0:0:
324,231,138003,6,0,P|274:278|162:257,1,165,6|0,0:0|0:0,0:0:0:0:
93,207,138785,2,0,L|94:128,1,55
140,123,139097,1,8,0:3:0:0:
140,123,139253,2,0,P|212:116|180:190,1,165,6|0,0:0|0:0,0:0:0:0:
142,279,140035,1,0,0:0:0:0:
224,351,140347,2,0,P|253:353|286:343,1,55
421,268,140972,6,0,B|437:220|437:220|418:83,2,165,2|2|8,0:0|0:0|0:0,0:0:0:0:
323,216,142222,2,0,L|260:204,1,55,2|8,0:0|0:3,0:0:0:0:
183,275,142691,2,0,L|120:287,1,55,4|6,0:3|0:0,0:0:0:0:
371,61,143785,5,4,0:3:0:0:
87,256,152535,5,8,0:0:0:0:
125,153,152847,1,8,0:0:0:0:
228,191,153160,1,8,0:0:0:0:
190,294,153472,1,8,0:0:0:0:
293,332,153785,6,0,L|441:318,1,110,14|4,0:0|0:3,0:0:0:0:
448,291,154253,2,0,P|426:231|445:181,1,110,8|4,0:0|0:3,0:0:0:0:
481,153,154722,2,0,L|355:158,1,110,8|4,0:0|0:3,0:0:0:0:
316,167,155191,2,0,P|253:192|196:184,1,110,8|4,0:0|0:3,0:0:0:0:
173,149,155660,1,8,0:0:0:0:
82,211,155972,1,8,0:0:0:0:
74,101,156285,6,0,P|111:53|169:37,1,110,14|4,0:0|0:3,0:0:0:0:
206,59,156753,2,0,L|342:64,1,110,8|4,0:0|0:3,0:0:0:0:
370,73,157222,2,0,P|392:131|382:207,1,110,8|4,0:0|0:3,0:0:0:0:
354,220,157691,2,0,P|332:278|342:354,1,110,8|4,0:0|0:3,0:0:0:0:
379,355,158160,2,0,L|437:343,2,55,8|4|8,0:0|0:3|0:0,0:0:0:0:
269,370,158785,6,0,L|132:366,1,110,12|4,0:0|0:3,0:0:0:0:
118,329,159253,2,0,L|122:192,1,110,8|4,0:0|0:3,0:0:0:0:
70,197,159722,2,0,L|66:60,1,110,8|4,0:0|0:3,0:0:0:0:
99,41,160191,2,0,P|156:27|214:45,1,110,8|4,0:0|0:3,0:0:0:0:
248,73,160660,1,8,0:0:0:0:
351,37,160972,1,8,0:0:0:0:
443,96,161285,6,0,B|458:151|458:151|443:219,1,110,12|4,0:0|0:3,0:0:0:0:
398,229,161753,2,0,B|383:284|383:284|398:352,1,110,8|4,0:0|0:3,0:0:0:0:
434,373,162222,2,0,L|304:364,1,110,8|4,0:0|0:3,0:0:0:0:
288,323,162691,2,0,L|216:330,1,55,8|8,0:0|0:0,0:0:0:0:
147,259,163160,2,0,L|75:252,1,55,8|8,0:3|0:3,0:0:0:0:
39,268,163472,1,12,0:0:0:0:
49,158,163785,6,0,P|83:92|123:73,1,110,12|4,0:0|0:3,0:0:0:0:
167,76,164253,2,0,P|211:107|230:158,1,110,8|4,0:0|0:3,0:0:0:0:
210,209,164722,2,0,L|336:195,1,110,8|4,0:0|0:3,0:0:0:0:
354,153,165191,2,0,L|480:167,1,110,8|4,0:0|0:3,0:0:0:0:
482,217,165660,1,8,0:0:0:0:
503,324,165972,1,12,0:0:0:0:
396,293,166285,6,0,P|342:283|262:291,1,110,12|4,0:0|0:3,0:0:0:0:
240,314,166753,2,0,P|185:316|131:306,1,110,8|4,0:0|0:3,0:0:0:0:
97,263,167222,2,0,L|87:120,1,110,8|4,0:0|0:3,0:0:0:0:
124,110,167691,2,0,L|267:100,1,110,8|4,0:0|0:3,0:0:0:0:
277,68,168160,1,8,0:2:0:0:
374,119,168472,2,0,P|380:150|379:183,1,55,8|8,0:3|0:3,0:0:0:0:
332,201,168785,6,0,L|338:325,1,110,12|4,0:0|0:3,0:0:0:0:
339,365,169253,2,0,P|391:351|475:367,1,110,12|4,0:0|0:3,0:0:0:0:
499,342,169722,2,0,L|493:232,1,110,12|4,0:0|0:3,0:0:0:0:
487,177,170191,2,0,P|480:113|438:71,1,110,12|4,0:0|0:3,0:0:0:0:
398,66,170660,2,0,L|331:62,2,55,12|4|12,0:2|0:3|0:2,0:0:0:0:
367,172,171285,6,0,L|229:159,1,110,12|4,0:2|0:3,0:0:0:0:
203,172,171753,1,8,0:0:0:0:
203,172,171910,2,0,P|222:103|204:59,1,110,4|8,0:3|0:0,0:0:0:0:
101,87,172535,2,0,L|95:147,1,55,4|8,0:3|0:0,0:0:0:0:
61,185,172847,2,0,L|72:307,1,110,4|8,0:3|0:0,0:0:0:0:
45,343,173316,1,8,0:0:0:0:
154,354,173628,6,0,P|229:330|333:341,1,165,12|0,0:0|0:0,0:0:0:0:
421,359,174410,2,0,B|455:312|455:312|429:166,1,165,0|0,0:0|0:0,0:0:0:0:
231,22,175660,2,0,P|273:12|309:12,1,55,8|4,0:0|0:3,0:0:0:0:
273,120,176128,6,0,P|202:125|132:53,1,165,12|0,0:0|0:0,0:0:0:0:
28,88,176910,2,0,L|31:212,1,110,0|0,0:0|0:0,0:0:0:0:
54,247,177378,1,4,0:3:0:0:
54,247,177535,2,0,L|131:242,1,55,8|4,0:2|0:3,0:0:0:0:
194,312,178003,1,12,0:0:0:0:
194,312,178160,2,0,L|271:317,1,55,0|4,0:0|0:3,0:0:0:0:
356,295,178628,6,0,P|390:241|373:173,1,110,6|4,0:0|0:3,0:0:0:0:
358,149,179097,1,8,0:0:0:0:
267,86,179410,2,0,L|284:10,2,55,2|4|8,0:2|0:3|0:0,0:0:0:0:
185,160,180035,2,0,L|48:152,2,110,4|8|4,0:3|0:0|0:3,0:0:0:0:
230,260,180972,1,8,0:0:0:0:
230,260,181128,6,0,P|287:270|351:252,1,110,4|4,0:3|0:3,0:0:0:0:
371,215,181597,2,0,L|365:160,1,55,8|2,0:0|0:0,0:0:0:0:
327,120,181910,2,0,L|332:65,2,55,2|4|2,0:0|0:3|0:0,0:0:0:0:
224,161,182535,1,4,0:3:0:0:
130,103,182847,2,0,L|61:99,1,55,8|8,0:0|0:0,0:0:0:0:
22,117,183160,2,0,L|18:186,1,55,4|4,0:3|0:3,0:0:0:0:
44,220,183472,1,8,0:0:0:0:
44,220,183628,6,0,P|102:210|166:230,1,110,6|4,0:2|0:3,0:0:0:0:
190,261,184097,2,0,P|221:280|244:282,1,55,8|2,0:0|0:0,0:0:0:0:
279,320,184410,2,0,P|314:311|332:296,1,55,4|4,0:3|0:3,0:0:0:0:
352,250,184722,1,8,0:0:0:0:
293,156,185035,1,2,0:0:0:0:
293,156,185191,2,0,L|308:15,2,110,12|8|8,0:0|0:0|0:0,0:0:0:0:
256,192,186128,12,8,187378,0:0:0:0:
317,294,197378,6,0,L|444:288,2,110,12|12|12,0:0|0:0|0:0,0:0:0:0:
99,260,198628,6,0,L|102:151,1,110,12|4,0:0|0:3,0:0:0:0:
106,94,199097,2,0,P|139:105|176:105,1,55,8|2,0:0|0:0,0:0:0:0:
203,73,199410,2,0,P|267:60|331:77,1,110,4|8,0:3|0:0,0:0:0:0:
352,102,199878,2,0,L|346:211,1,110,4|4,0:3|0:3,0:0:0:0:
371,261,200347,1,8,0:0:0:0:
291,337,200660,2,0,P|227:324|163:341,1,110,4|8,0:3|0:0,0:0:0:0:
147,373,201128,6,0,L|144:221,1,110,4|4,0:3|0:3,0:0:0:0:
114,216,201597,2,0,L|124:142,1,55,8|2,0:0|0:0,0:0:0:0:
170,137,201910,2,0,P|220:119|281:130,1,110,4|8,0:3|0:0,0:0:0:0:
312,167,202378,2,0,P|365:175|417:157,1,110,4|4,0:3|0:3,0:0:0:0:
454,116,202847,1,8,0:0:0:0:
357,63,203160,2,0,L|364:1,2,55,4|4|8,0:3|0:3|0:0,0:0:0:0:
305,80,203628,6,0,L|180:69,1,110,6|4,0:0|0:3,0:0:0:0:
146,96,204097,1,8,0:0:0:0:
36,84,204410,2,0,P|47:139|27:205,1,110,4|8,0:3|0:0,0:0:0:0:
2,234,204878,2,0,P|57:223|123:243,1,110,6|4,0:0|0:3,0:0:0:0:
149,272,205347,2,0,L|285:258,2,110,8|4|8,0:0|0:3|0:0,0:0:0:0:
149,216,206128,6,0,L|154:85,1,110,6|4,0:0|0:3,0:0:0:0:
175,55,206597,1,8,0:0:0:0:
275,100,206910,2,0,P|307:111|343:111,1,55,2|4,0:0|0:3,0:0:0:0:
370,77,207222,1,8,0:0:0:0:
370,77,207378,2,0,L|380:207,1,110,6|4,0:0|0:3,0:0:0:0:
350,234,207847,1,8,0:3:0:0:
350,234,208003,2,0,L|340:364,1,110,6|4,0:0|0:3,0:0:0:0:
232,328,208628,6,0,B|163:299|144:368|62:332,1,165,6|0,0:2|0:0,0:0:0:0:
18,239,209410,2,0,P|14:190|49:122,1,110,0|4,0:0|0:3,0:0:0:0:
76,96,209878,1,6,0:0:0:0:
221,173,210347,1,0,0:0:0:0:
314,114,210660,1,0,0:0:0:0:
324,223,210972,1,0,0:3:0:0:
256,192,211128,12,0,212535,0:0:0:0:
57,258,213160,6,0,L|50:186,1,55,8|8,0:0|0:0,0:0:0:0:
127,124,213628,6,0,L|267:128,1,110,6|4,0:0|0:3,0:0:0:0:
287,103,214097,1,8,0:0:0:0:
374,169,214410,2,0,L|381:253,1,55,4|4,0:3|0:3,0:0:0:0:
361,276,214722,1,8,0:0:0:0:
361,276,214878,2,0,P|306:261|250:264,1,110,4|4,0:3|0:3,0:0:0:0:
167,332,215503,2,0,P|112:334|59:319,1,110,4|4,0:3|0:3,0:0:0:0:
22,278,215972,1,8,0:2:0:0:
67,177,216285,6,0,L|59:63,1,110,6|8,0:0|0:0,0:0:0:0:
101,32,216753,1,0,0:0:0:0:
101,32,216910,2,0,L|179:23,2,55,4|4|8,0:3|0:3|0:0,0:0:0:0:
166,120,217535,2,0,L|246:125,1,55,12|4,0:0|0:3,0:0:0:0:
265,91,217847,1,12,0:0:0:0:
323,184,218160,2,0,P|329:213|318:261,1,55,12|4,0:2|0:3,0:0:0:0:
388,328,218628,6,0,P|324:348|232:288,1,165,6|8,0:0|0:0,0:0:0:0:
146,248,219410,2,0,L|76:263,2,55,4|4|8,0:3|0:3|0:0,0:0:0:0:
167,197,219878,2,0,L|175:43,2,110,4|4|4,0:3|0:3|0:3,0:0:0:0:
235,283,220816,1,4,0:3:0:0:
235,283,220972,2,0,L|326:279,1,55,8|2,0:2|0:0,0:0:0:0:
338,253,221285,6,0,L|346:119,1,110,6|8,0:0|0:0,0:0:0:0:
294,45,221910,2,0,L|227:58,1,55,4|4,0:3|0:3,0:0:0:0:
195,87,222222,1,8,0:0:0:0:
128,175,222535,2,0,P|75:194|6:172,1,110,4|4,0:3|0:3,0:0:0:0:
67,82,223160,2,0,L|58:18,2,55,4|4|12,0:3|0:3|0:0,0:0:0:0:
256,192,224410,12,14,226753,0:0:0:0:
