osu file format v14

[General]
AudioFilename: sweet ARMS - Invisible Date.mp3
AudioLeadIn: 0
PreviewTime: 57357
Countdown: 0
SampleSet: Soft
StackLeniency: 0.7
Mode: 3
LetterboxInBreaks: 0
SpecialStyle: 0
WidescreenStoryboard: 0

[Editor]
DistanceSpacing: 1.3
BeatDivisor: 4
GridSize: 4
TimelineZoom: 0.9999989

[Metadata]
Title:Invisible Date
TitleUnicode:Invisible Date
Artist:sweet ARMS
ArtistUnicode:sweet ARMS
Creator:AnatOWJIya
Version:Normal
Source:劇場版デート・ア・ライブ 万由里ジャッジメント
Tags:TheGesk Mayuri Date a Live : Mayuri Judgement Movie OST ED
BeatmapID:923268
BeatmapSetID:427702

[Difficulty]
HPDrainRate:7
CircleSize:4
OverallDifficulty:7
ApproachRate:5
SliderMultiplier:1.4
SliderTickRate:1

[Events]
//Background and Video events
0,0,"Mayuri.jpg",0,0
//Break Periods
//Storyboard Layer 0 (Background)
//Storyboard Layer 1 (Fail)
//Storyboard Layer 2 (Pass)
//Storyboard Layer 3 (Foreground)
//Storyboard Sound Samples

[TimingPoints]
782,681.818181818182,4,2,1,40,1,0
782,-47.8468899521531,4,2,1,40,0,0
12372,638.297872340426,4,2,1,40,1,0
12372,-51.0204081632653,4,2,1,40,0,0
13010,326.086956521739,4,2,1,60,1,0
36488,-100,4,2,1,60,0,0
46923,-100,4,2,1,60,0,0
57357,-100,4,2,1,60,0,1
83444,-100,4,2,1,60,0,0
104314,-100,4,2,1,60,0,0
114749,-100,4,2,1,60,0,0
125183,-100,4,2,1,60,0,1
148662,-100,4,2,1,60,0,0
211270,-100,4,2,1,60,0,1
243879,-100,4,2,1,60,0,0

[HitObjects]
64,192,782,5,0,0:0:0:0:
320,192,952,1,0,0:0:0:0:
192,192,1293,1,0,0:0:0:0:
448,192,1634,1,0,0:0:0:0:
320,192,1804,1,0,0:0:0:0:
192,192,1975,128,0,2316:0:0:0:0:
64,192,2316,1,0,0:0:0:0:
448,192,2486,1,0,0:0:0:0:
320,192,2657,128,0,2997:0:0:0:0:
448,192,2997,1,0,0:0:0:0:
192,192,3168,1,0,0:0:0:0:
64,192,3338,1,0,0:0:0:0:
448,192,3509,1,0,0:0:0:0:
320,192,3679,1,0,0:0:0:0:
64,192,4020,1,0,0:0:0:0:
192,192,4361,1,0,0:0:0:0:
320,192,4532,1,0,0:0:0:0:
448,192,4702,128,0,5043:0:0:0:0:
320,192,5043,1,0,0:0:0:0:
192,192,5213,1,0,0:0:0:0:
64,192,5384,128,0,5725:0:0:0:0:
448,192,5725,1,0,0:0:0:0:
192,192,5895,1,0,0:0:0:0:
320,192,6066,1,0,0:0:0:0:
64,192,6236,1,0,0:0:0:0:
448,192,6407,1,0,0:0:0:0:
192,192,6747,1,0,0:0:0:0:
64,192,7088,1,0,0:0:0:0:
192,192,7259,1,0,0:0:0:0:
320,192,7429,128,0,7770:0:0:0:0:
192,192,7770,1,0,0:0:0:0:
448,192,7941,1,0,0:0:0:0:
64,192,8111,128,0,8452:0:0:0:0:
448,192,8452,1,0,0:0:0:0:
192,192,8622,1,0,0:0:0:0:
320,192,8793,1,0,0:0:0:0:
448,192,8963,1,0,0:0:0:0:
192,192,9134,1,0,0:0:0:0:
64,192,9475,1,0,0:0:0:0:
320,192,9816,1,0,0:0:0:0:
448,192,9986,1,0,0:0:0:0:
64,192,10157,1,0,0:0:0:0:
192,192,10327,1,2,0:0:0:0:
320,192,10327,1,0,0:0:0:0:
64,192,11691,128,0,13010:0:0:0:0:
192,192,13010,1,4,0:0:0:0:
448,192,13010,1,2,0:0:0:0:
320,192,13173,1,0,0:0:0:0:
192,192,13499,1,0,0:0:0:0:
64,192,13825,1,0,0:0:0:0:
192,192,14151,128,0,15618:0:0:0:0:
448,192,15618,1,6,0:0:0:0:
320,192,15781,1,0,0:0:0:0:
64,192,16107,1,0,0:0:0:0:
192,192,16433,1,0,0:0:0:0:
448,192,16760,128,0,17575:0:0:0:0:
64,192,17575,1,0,0:0:0:0:
192,192,17901,128,0,18227:0:0:0:0:
320,192,18227,1,2,0:0:0:0:
448,192,18227,1,4,0:0:0:0:
448,192,19368,1,8,0:0:0:0:
64,192,19368,1,4,0:0:0:0:
192,192,19857,1,8,0:0:0:0:
320,192,20020,1,8,0:0:0:0:
448,192,20183,1,0,0:0:0:0:
192,192,20346,1,0,0:0:0:0:
64,192,20509,1,0,0:0:0:0:
320,192,20673,1,0,0:0:0:0:
448,192,20836,1,4,0:0:0:0:
192,192,20836,128,0,21488:0:0:0:0:
64,192,21488,128,0,22140:0:0:0:0:
448,192,21488,1,8,0:0:0:0:
448,192,22140,128,0,22792:0:0:0:0:
320,192,22140,1,2,0:0:0:0:
192,192,22303,1,8,0:0:0:0:
64,192,22629,1,2,0:0:0:0:
192,192,22792,1,8,0:0:0:0:
320,192,22792,128,0,23444:0:0:0:0:
64,192,23444,1,8,0:0:0:0:
192,192,23607,1,0,0:0:0:0:
320,192,23770,1,8,0:0:0:0:
448,192,23933,1,2,0:0:0:0:
64,192,24096,1,8,0:0:0:0:
320,192,24423,1,8,0:0:0:0:
192,192,24586,1,8,0:0:0:0:
64,192,24749,1,2,0:0:0:0:
448,192,24749,128,0,26053:0:0:0:0:
320,192,25401,128,0,26053:0:0:0:0:
64,192,26053,1,6,0:0:0:0:
192,192,26379,1,2,0:0:0:0:
320,192,26705,1,2,0:0:0:0:
448,192,27031,1,2,0:0:0:0:
192,192,27357,1,2,0:0:0:0:
64,192,27683,1,2,0:0:0:0:
320,192,28009,1,2,0:0:0:0:
448,192,28336,1,2,0:0:0:0:
192,192,28662,1,2,0:0:0:0:
320,192,28988,1,2,0:0:0:0:
64,192,29314,1,2,0:0:0:0:
192,192,29640,1,2,0:0:0:0:
320,192,29966,1,2,0:0:0:0:
448,192,30292,1,2,0:0:0:0:
320,192,30618,1,2,0:0:0:0:
192,192,30944,1,2,0:0:0:0:
64,192,31270,1,0,0:0:0:0:
320,192,31270,1,2,0:0:0:0:
448,192,31596,1,2,0:0:0:0:
192,192,31923,1,2,0:0:0:0:
320,192,32249,1,2,0:0:0:0:
64,192,32575,1,2,0:0:0:0:
192,192,32901,1,2,0:0:0:0:
320,192,33227,1,2,0:0:0:0:
448,192,33553,1,2,0:0:0:0:
64,192,33879,1,0,0:0:0:0:
192,192,33879,1,2,0:0:0:0:
320,192,34205,1,2,0:0:0:0:
192,192,34531,1,2,0:0:0:0:
448,192,34857,1,2,0:0:0:0:
320,192,35183,1,0,0:0:0:0:
192,192,35183,1,2,0:0:0:0:
64,192,35509,1,2,0:0:0:0:
448,192,35836,1,2,0:0:0:0:
192,192,35999,1,8,0:0:0:0:
320,192,35999,1,0,0:0:0:0:
64,192,36162,1,8,0:0:0:0:
448,192,36162,1,0,0:0:0:70:Cowbell.wav
192,192,36325,1,8,0:0:0:0:
320,192,36325,1,0,0:0:0:0:
448,192,36488,1,2,0:0:0:0:
64,192,36488,1,4,0:0:0:0:
192,192,36814,1,0,0:0:0:0:
320,192,36814,1,8,0:0:0:0:
448,192,37140,1,2,0:0:0:0:
64,192,37466,1,8,0:0:0:0:
192,192,37466,1,0,0:0:0:0:
448,192,37792,1,2,0:0:0:0:
320,192,38118,1,8,0:0:0:0:
192,192,38118,1,0,0:0:0:0:
64,192,38444,1,2,0:0:0:0:
448,192,38770,1,8,0:0:0:0:
192,192,38770,1,0,0:0:0:0:
320,192,39096,1,2,0:0:0:0:
448,192,39423,1,8,0:0:0:0:
64,192,39423,1,0,0:0:0:0:
192,192,39749,1,2,0:0:0:0:
320,192,40075,1,8,0:0:0:0:
448,192,40075,1,0,0:0:0:0:
64,192,40401,1,2,0:0:0:0:
192,192,40727,1,8,0:0:0:0:
320,192,40727,1,0,0:0:0:0:
448,192,41053,1,2,0:0:0:0:
64,192,41379,1,8,0:0:0:0:
192,192,41379,1,0,0:0:0:0:
448,192,41705,1,0,0:0:0:0:
192,192,41705,1,2,0:0:0:0:
320,192,42031,1,8,0:0:0:0:
64,192,42031,1,0,0:0:0:0:
448,192,42357,1,2,0:0:0:0:
192,192,42683,1,0,0:0:0:0:
320,192,42683,1,8,0:0:0:0:
64,192,43009,1,2,0:0:0:0:
448,192,43336,1,8,0:0:0:0:
192,192,43336,1,0,0:0:0:0:
320,192,43662,1,2,0:0:0:0:
448,192,43988,1,8,0:0:0:0:
64,192,43988,1,0,0:0:0:0:
192,192,44314,1,2,0:0:0:0:
320,192,44314,1,0,0:0:0:0:
320,192,44640,1,8,0:0:0:0:
448,192,44640,1,0,0:0:0:0:
64,192,44966,1,2,0:0:0:0:
192,192,45292,1,8,0:0:0:0:
320,192,45292,1,0,0:0:0:0:
448,192,45618,1,2,0:0:0:0:
192,192,45944,5,8,0:0:0:0:
320,192,45944,1,0,0:0:0:0:
64,192,46270,1,2,0:0:0:0:
192,192,46433,1,8,0:0:0:0:
448,192,46433,1,0,0:0:0:0:
64,192,46596,1,8,0:0:0:0:
320,192,46596,1,0,0:0:0:0:
192,192,46759,1,8,0:0:0:0:
448,192,46759,1,0,0:0:0:0:
64,192,46923,1,12,0:0:0:0:
320,192,46923,1,2,0:0:0:0:
192,192,47412,1,0,0:0:0:0:
448,192,48227,1,0,0:0:0:0:
64,192,48716,1,0,0:0:0:0:
320,192,49531,1,0,0:0:0:0:
64,192,50020,1,0,0:0:0:0:
448,192,50836,128,0,52140:0:0:0:0:
192,192,50836,1,0,0:0:0:70:Clink.wav
64,192,51325,1,0,0:0:0:0:
64,192,52140,1,6,0:0:0:0:
320,192,52140,1,0,0:0:0:80:Cowbell.wav
448,192,52711,1,8,0:0:0:0:
320,192,52792,1,8,0:0:0:0:
64,192,53281,1,2,0:0:0:0:
192,192,53281,1,4,0:0:0:0:
320,192,53607,1,0,0:0:0:0:
448,192,53770,1,0,0:0:0:0:
192,192,53933,1,0,0:0:0:0:
448,192,54096,1,0,0:0:0:0:
192,192,54259,1,0,0:0:0:0:
320,192,54423,1,0,0:0:0:0:
64,192,54586,1,0,0:0:0:0:
320,192,54749,1,4,0:0:0:0:
448,192,54749,1,0,0:0:0:70:Cowbell.wav
64,192,55075,1,2,0:0:0:0:
320,192,55238,1,4,0:0:0:0:
192,192,55238,1,0,0:0:0:70:Cowbell.wav
448,192,55564,1,8,0:0:0:0:
64,192,55727,1,0,0:0:0:70:Cowbell.wav
192,192,55727,1,6,0:0:0:0:
448,192,56053,128,6,57357:0:0:0:0:
64,192,57357,1,6,0:0:0:0:
320,192,57357,1,0,0:0:0:0:
192,192,57846,1,2,0:0:0:0:
320,192,58009,1,8,0:0:0:0:
448,192,58009,1,0,0:0:0:0:
64,192,58662,1,2,0:0:0:0:
192,192,58988,1,0,0:0:0:0:
320,192,59151,1,2,0:0:0:0:
448,192,59314,1,0,0:0:0:0:
64,192,59314,1,8,0:0:0:0:
320,192,59640,1,0,0:0:0:0:
192,192,59966,1,6,0:0:0:0:
448,192,60455,1,2,0:0:0:0:
192,192,60618,1,0,0:0:0:0:
64,192,60618,1,8,0:0:0:0:
320,192,61270,1,2,0:0:0:0:
64,192,61759,1,2,0:0:0:0:
192,192,61759,1,0,0:0:0:0:
448,192,61923,1,0,0:0:0:0:
320,192,61923,1,8,0:0:0:0:
448,192,62249,1,0,0:0:0:0:
192,192,62575,1,6,0:0:0:0:
320,192,63064,1,2,0:0:0:0:
448,192,63227,1,0,0:0:0:0:
64,192,63227,1,8,0:0:0:0:
192,192,63879,1,2,0:0:0:0:
448,192,64205,1,0,0:0:0:0:
320,192,64368,1,2,0:0:0:0:
64,192,64531,1,8,0:0:0:0:
192,192,64531,1,0,0:0:0:0:
448,192,64857,1,0,0:0:0:0:
320,192,65183,1,6,0:0:0:0:
448,192,65509,1,0,0:0:0:0:
192,192,65673,1,2,0:0:0:0:
64,192,65836,1,8,0:0:0:0:
320,192,65836,1,0,0:0:0:0:
448,192,66162,1,0,0:0:0:0:
192,192,66488,1,2,0:0:0:0:
320,192,66814,1,0,0:0:0:0:
64,192,67140,1,8,0:0:0:0:
448,192,67303,1,8,0:0:0:0:
192,192,67466,1,8,0:0:0:0:
320,192,67629,1,8,0:0:0:0:
64,192,67792,1,6,0:0:0:0:
192,192,68118,1,8,0:0:0:0:
320,192,68118,1,0,0:0:0:0:
64,192,68607,1,2,0:0:0:0:
320,192,68770,1,8,0:0:0:0:
448,192,68770,1,0,0:0:0:0:
192,192,68933,1,6,0:0:0:0:
64,192,68933,1,0,0:0:0:0:
448,192,69259,1,2,0:0:0:0:
192,192,69423,1,8,0:0:0:0:
320,192,69423,1,0,0:0:0:0:
448,192,69749,1,8,0:0:0:0:
320,192,69912,1,2,0:0:0:0:
192,192,70075,1,8,0:0:0:0:
64,192,70075,1,0,0:0:0:0:
448,192,70401,1,6,0:0:0:0:
64,192,70727,1,0,0:0:0:0:
320,192,70727,1,8,0:0:0:0:
192,192,71216,1,2,0:0:0:0:
64,192,71379,1,0,0:0:0:0:
448,192,71379,1,8,0:0:0:0:
320,192,71542,1,6,0:0:0:0:
192,192,71868,1,2,0:0:0:0:
64,192,72031,1,8,0:0:0:0:
320,192,72031,1,0,0:0:0:0:
448,192,72520,1,2,0:0:0:0:
320,192,72683,1,8,0:0:0:0:
192,192,72846,1,8,0:0:0:0:
64,192,73009,1,2,0:0:0:0:
448,192,73009,1,4,0:0:0:0:
448,192,73336,1,0,0:0:0:0:
320,192,73336,1,8,0:0:0:0:
192,192,73662,1,0,0:0:0:0:
64,192,73825,1,2,0:0:0:0:
448,192,73988,1,8,0:0:0:0:
320,192,74151,1,2,0:0:0:0:
192,192,74151,1,4,0:0:0:0:
64,192,74477,1,2,0:0:0:0:
192,192,74640,1,0,0:0:0:0:
448,192,74640,1,8,0:0:0:0:
320,192,74966,1,0,0:0:0:0:
448,192,75129,1,2,0:0:0:0:
192,192,75292,1,8,0:0:0:0:
320,192,75455,1,4,0:0:0:0:
64,192,75455,1,2,0:0:0:0:
64,192,75781,1,2,0:0:0:0:
192,192,75944,1,8,0:0:0:0:
320,192,75944,1,0,0:0:0:0:
448,192,76433,1,2,0:0:0:0:
64,192,76596,1,8,0:0:0:0:
192,192,76759,1,4,0:0:0:0:
320,192,76759,1,2,0:0:0:0:
448,192,77086,1,8,0:0:0:0:
64,192,77249,1,8,0:0:0:0:
192,192,77412,1,8,0:0:0:0:
320,192,77575,1,8,0:0:0:0:
64,192,77738,1,2,0:0:0:0:
192,192,77901,1,2,0:0:0:0:
320,192,78227,1,12,0:0:0:0:
448,192,78227,128,0,78879:0:0:0:0:
320,192,78879,128,0,79531:0:0:0:0:
192,192,79531,128,0,80183:0:0:0:0:
448,192,80183,128,0,80673:0:0:0:0:
64,192,80183,1,2,0:0:0:0:
192,192,80673,1,6,0:0:0:0:
320,192,80673,128,0,83444:0:0:0:0:
64,192,83281,1,0,0:0:0:0:
192,192,83444,1,0,0:0:0:45:Cowbell.wav
448,192,83770,1,0,0:0:0:25:Cowbell.wav
192,192,84096,1,0,0:0:0:25:Cowbell.wav
320,192,84423,1,0,0:0:0:25:Cowbell.wav
64,192,84749,1,0,0:0:0:25:Cowbell.wav
192,192,85075,1,0,0:0:0:25:Cowbell.wav
320,192,85401,1,0,0:0:0:25:Cowbell.wav
448,192,85727,1,0,0:0:0:25:Cowbell.wav
192,192,86053,1,0,0:0:0:0:
64,192,86053,1,0,0:0:0:25:Cowbell.wav
320,192,86379,1,0,0:0:0:25:Cowbell.wav
448,192,86705,1,0,0:0:0:25:Cowbell.wav
64,192,87031,1,0,0:0:0:25:Cowbell.wav
320,192,87357,1,0,0:0:0:25:Cowbell.wav
192,192,87683,1,0,0:0:0:25:Cowbell.wav
448,192,88009,1,0,0:0:0:25:Cowbell.wav
64,192,88336,1,0,0:0:0:25:Cowbell.wav
320,192,88662,1,0,0:0:0:25:Cowbell.wav
448,192,88662,1,0,0:0:0:0:
192,192,88988,1,0,0:0:0:25:Cowbell.wav
448,192,89314,1,0,0:0:0:25:Cowbell.wav
64,192,89640,1,0,0:0:0:25:Cowbell.wav
192,192,89966,1,0,0:0:0:25:Cowbell.wav
320,192,90292,1,0,0:0:0:25:Cowbell.wav
448,192,90618,1,0,0:0:0:25:Cowbell.wav
64,192,90944,1,0,0:0:0:25:Cowbell.wav
192,192,91270,1,0,0:0:0:0:
320,192,91270,1,0,0:0:0:25:Cowbell.wav
448,192,91596,1,0,0:0:0:25:Cowbell.wav
320,192,91923,1,0,0:0:0:25:Cowbell.wav
192,192,92249,1,0,0:0:0:25:Cowbell.wav
64,192,92575,128,0,93390:0:0:0:0:
448,192,92575,1,0,0:0:0:35:soft-hitwhistle.wav
320,192,93390,1,8,0:0:0:0:
448,192,93553,1,2,0:0:0:0:
64,192,93716,1,2,0:0:0:0:
320,192,93879,1,8,0:0:0:0:
192,192,93879,1,4,0:0:0:0:
448,192,94205,1,0,0:0:0:0:
192,192,94368,1,0,0:0:0:70:Cowbell.wav
320,192,94531,1,0,0:0:0:70:Cowbell.wav
64,192,94857,1,0,0:0:0:0:
448,192,95183,1,0,0:0:0:0:
192,192,95346,1,0,0:0:0:70:Cowbell.wav
320,192,95509,1,0,0:0:0:0:
448,192,95673,1,0,0:0:0:70:Cowbell.wav
64,192,95836,1,0,0:0:0:70:Cowbell.wav
320,192,96162,1,0,0:0:0:70:Cowbell.wav
192,192,96488,1,0,0:0:0:70:Cowbell.wav
448,192,96814,1,0,0:0:0:0:
320,192,96977,1,0,0:0:0:70:Cowbell.wav
192,192,97140,1,0,0:0:0:70:Cowbell.wav
64,192,97466,1,0,0:0:0:0:
448,192,97792,1,0,0:0:0:0:
320,192,97955,1,0,0:0:0:70:Cowbell.wav
64,192,98118,1,0,0:0:0:0:
192,192,98281,1,0,0:0:0:70:Cowbell.wav
320,192,98444,1,0,0:0:0:70:Cowbell.wav
448,192,98770,1,0,0:0:0:0:
320,192,99096,1,0,0:0:0:70:Cowbell.wav
192,192,99096,1,0,0:0:0:0:
64,192,99423,1,0,0:0:0:0:
448,192,99586,1,0,0:0:0:70:Cowbell.wav
320,192,99749,1,0,0:0:0:70:Cowbell.wav
192,192,100075,1,0,0:0:0:70:Cowbell.wav
64,192,100401,1,0,0:0:0:0:
192,192,100564,1,0,0:0:0:70:Cowbell.wav
320,192,100727,1,0,0:0:0:0:
448,192,100890,1,0,0:0:0:70:Cowbell.wav
64,192,101053,1,0,0:0:0:70:Cowbell.wav
192,192,101379,1,0,0:0:0:0:
320,192,101705,1,0,0:0:0:70:Cowbell.wav
448,192,101705,1,0,0:0:0:0:
64,192,102031,1,0,0:0:0:0:
448,192,102194,1,0,0:0:0:70:Cowbell.wav
192,192,102357,1,0,0:0:0:70:Cowbell.wav
320,192,102683,1,0,0:0:0:0:
64,192,103009,1,12,0:0:0:0:
192,192,103009,128,0,103336:0:0:0:0:
448,192,103336,1,8,0:0:0:0:
320,192,103499,1,8,0:0:0:0:
64,192,103825,1,8,0:0:0:0:
192,192,103988,1,2,0:0:0:0:
320,192,103988,1,4,0:0:0:0:
64,192,104314,1,2,0:0:0:0:
448,192,104314,1,4,0:0:0:0:
320,192,104640,1,8,0:0:0:0:
192,192,104640,1,0,0:0:0:0:
448,192,104966,1,2,0:0:0:0:
64,192,105292,1,0,0:0:0:0:
192,192,105292,1,8,0:0:0:0:
448,192,105618,1,2,0:0:0:0:
320,192,105944,1,8,0:0:0:0:
192,192,105944,1,0,0:0:0:0:
64,192,106270,1,2,0:0:0:0:
320,192,106596,1,8,0:0:0:0:
448,192,106596,1,0,0:0:0:0:
192,192,106923,1,2,0:0:0:0:
320,192,107249,1,8,0:0:0:0:
64,192,107249,1,0,0:0:0:0:
448,192,107575,1,2,0:0:0:0:
192,192,107901,1,8,0:0:0:0:
64,192,107901,1,0,0:0:0:0:
320,192,108227,1,2,0:0:0:0:
64,192,108553,1,8,0:0:0:0:
448,192,108553,1,0,0:0:0:0:
192,192,108879,1,2,0:0:0:0:
320,192,109205,1,8,0:0:0:0:
448,192,109205,1,0,0:0:0:0:
192,192,109531,1,2,0:0:0:0:
320,192,109857,1,8,0:0:0:0:
64,192,109857,1,0,0:0:0:0:
448,192,110183,1,2,0:0:0:0:
320,192,110509,1,0,0:0:0:0:
192,192,110509,1,8,0:0:0:0:
64,192,110836,1,2,0:0:0:0:
448,192,111162,1,8,0:0:0:0:
320,192,111162,1,0,0:0:0:0:
192,192,111488,1,2,0:0:0:0:
448,192,111814,1,0,0:0:0:0:
64,192,111814,1,8,0:0:0:0:
192,192,112140,1,2,0:0:0:0:
320,192,112466,1,8,0:0:0:0:
448,192,112466,1,0,0:0:0:0:
64,192,112792,1,2,0:0:0:0:
320,192,113118,1,8,0:0:0:0:
192,192,113118,1,0,0:0:0:0:
64,192,113444,1,2,0:0:0:0:
448,192,113770,1,8,0:0:0:0:
320,192,113770,1,0,0:0:0:0:
64,192,114096,1,2,0:0:0:0:
448,192,114259,1,0,0:0:0:0:
320,192,114259,1,8,0:0:0:0:
192,192,114423,1,8,0:0:0:0:
64,192,114423,1,0,0:0:0:0:
320,192,114586,1,8,0:0:0:0:
448,192,114586,1,0,0:0:0:0:
64,192,114749,1,6,0:0:0:0:
192,192,114749,1,8,0:0:0:0:
320,192,115075,1,0,0:0:0:0:
192,192,115238,1,0,0:0:0:0:
448,192,116053,1,0,0:0:0:0:
320,192,116542,1,0,0:0:0:0:
64,192,117357,1,0,0:0:0:0:
448,192,117846,1,0,0:0:0:0:
64,192,118662,128,0,119966:0:0:0:0:
320,192,118662,1,0,0:0:0:70:Clink.wav
192,192,119151,1,0,0:0:0:0:
320,192,119477,1,0,0:0:0:0:
448,192,119966,1,0,0:0:0:80:Cowbell.wav
320,192,119966,1,6,0:0:0:0:
320,192,120618,1,8,0:0:0:0:
192,192,120618,1,0,0:0:0:0:
64,192,121107,1,2,0:0:0:0:
192,192,121107,1,4,0:0:0:0:
448,192,121433,1,8,0:0:0:0:
320,192,121596,1,0,0:0:0:0:
192,192,121759,1,8,0:0:0:0:
64,192,121923,1,0,0:0:0:0:
448,192,122086,1,8,0:0:0:0:
192,192,122249,1,8,0:0:0:0:
320,192,122412,1,0,0:0:0:0:
64,192,122575,1,4,0:0:0:0:
448,192,122575,1,2,0:0:0:0:
192,192,122901,1,2,0:0:0:0:
320,192,123064,1,4,0:0:0:0:
64,192,123064,1,2,0:0:0:0:
448,192,123390,1,8,0:0:0:0:
320,192,123553,1,2,0:0:0:0:
192,192,123553,1,4,0:0:0:0:
448,192,123879,1,10,0:0:0:0:
64,192,123879,128,0,124531:0:0:0:0:
192,192,124531,128,0,125183:0:0:0:0:
320,192,124531,1,8,0:0:0:0:
64,192,125183,1,6,0:0:0:0:
320,192,125183,128,0,126488:0:0:0:0:
448,192,125673,1,2,0:0:0:0:
192,192,125836,1,0,0:0:0:0:
64,192,125836,1,8,0:0:0:0:
448,192,126488,1,2,0:0:0:0:
64,192,126488,128,0,127792:0:0:0:0:
192,192,126977,1,2,0:0:0:0:
448,192,127140,1,8,0:0:0:0:
320,192,127140,1,0,0:0:0:0:
192,192,127792,128,0,129096:0:0:0:0:
448,192,127792,1,6,0:0:0:0:
64,192,128281,1,2,0:0:0:0:
320,192,128444,1,8,0:0:0:0:
448,192,128444,1,0,0:0:0:0:
64,192,129096,1,2,0:0:0:0:
320,192,129096,128,0,129749:0:0:0:0:
192,192,129423,1,0,0:0:0:0:
64,192,129586,1,2,0:0:0:0:
448,192,129749,128,0,130401:0:0:0:0:
192,192,129749,1,8,0:0:0:0:
192,192,130401,1,6,0:0:0:0:
64,192,130401,128,0,131705:0:0:0:0:
448,192,130890,1,2,0:0:0:0:
320,192,131053,1,0,0:0:0:0:
192,192,131053,1,8,0:0:0:0:
448,192,131705,1,2,0:0:0:0:
320,192,131705,128,0,133009:0:0:0:0:
192,192,132194,1,2,0:0:0:0:
64,192,132357,1,8,0:0:0:0:
448,192,132357,1,0,0:0:0:0:
448,192,133009,1,6,0:0:0:0:
64,192,133009,128,0,134314:0:0:0:0:
448,192,133499,1,2,0:0:0:0:
320,192,133662,1,0,0:0:0:0:
192,192,133662,1,8,0:0:0:0:
320,192,134314,1,2,0:0:0:0:
192,192,134314,128,0,134966:0:0:0:0:
64,192,134803,1,2,0:0:0:0:
448,192,134966,1,8,0:0:0:0:
320,192,135129,1,8,0:0:0:0:
192,192,135292,1,8,0:0:0:0:
64,192,135455,1,8,0:0:0:0:
448,192,135618,1,2,0:0:0:0:
192,192,135618,1,4,0:0:0:0:
320,192,135944,1,8,0:0:0:0:
64,192,135944,1,0,0:0:0:0:
192,192,136270,1,0,0:0:0:0:
320,192,136433,1,2,0:0:0:0:
448,192,136596,1,0,0:0:0:0:
64,192,136596,1,8,0:0:0:0:
320,192,136759,1,6,0:0:0:0:
192,192,137086,1,2,0:0:0:0:
320,192,137249,1,8,0:0:0:0:
448,192,137249,1,0,0:0:0:0:
64,192,137575,1,0,0:0:0:0:
320,192,137738,1,2,0:0:0:0:
448,192,137901,1,0,0:0:0:0:
192,192,137901,1,8,0:0:0:0:
64,192,138227,1,6,0:0:0:0:
320,192,138553,1,8,0:0:0:0:
192,192,138553,1,0,0:0:0:0:
64,192,138879,1,0,0:0:0:0:
192,192,139042,1,2,0:0:0:0:
320,192,139205,1,0,0:0:0:0:
448,192,139205,1,8,0:0:0:0:
192,192,139368,1,6,0:0:0:0:
448,192,139694,1,2,0:0:0:0:
320,192,139857,1,8,0:0:0:0:
192,192,139857,1,0,0:0:0:0:
192,192,140346,1,2,0:0:0:0:
64,192,140509,1,8,0:0:0:0:
320,192,140673,1,8,0:0:0:0:
448,192,140836,1,6,0:0:0:0:
192,192,141162,1,8,0:0:0:0:
64,192,141162,1,0,0:0:0:0:
448,192,141488,1,0,0:0:0:0:
320,192,141651,1,2,0:0:0:0:
192,192,141814,1,8,0:0:0:0:
64,192,141814,1,0,0:0:0:0:
320,192,141977,1,4,0:0:0:0:
448,192,141977,1,2,0:0:0:0:
64,192,142303,1,2,0:0:0:0:
192,192,142466,1,8,0:0:0:0:
448,192,142466,1,0,0:0:0:0:
64,192,142792,1,2,0:0:0:0:
448,192,142955,1,0,0:0:0:0:
320,192,143118,1,8,0:0:0:0:
192,192,143118,1,0,0:0:0:0:
64,192,143281,1,2,0:0:0:0:
448,192,143281,1,4,0:0:0:0:
320,192,143607,1,2,0:0:0:0:
448,192,143770,1,0,0:0:0:0:
192,192,143770,1,8,0:0:0:0:
320,192,144096,1,0,0:0:0:0:
192,192,144259,1,2,0:0:0:0:
448,192,144423,1,8,0:0:0:0:
64,192,144423,1,0,0:0:0:0:
192,192,144586,1,4,0:0:0:0:
320,192,144586,1,2,0:0:0:0:
448,192,144912,1,8,0:0:0:0:
320,192,145075,1,8,0:0:0:0:
64,192,145238,1,8,0:0:0:0:
192,192,145401,1,8,0:0:0:0:
320,192,145564,1,2,0:0:0:0:
448,192,145727,1,2,0:0:0:0:
192,192,145890,1,2,0:0:0:0:
320,192,146053,1,12,0:0:0:0:
64,192,146053,128,0,146705:0:0:0:0:
192,192,146705,128,0,147357:0:0:0:0:
448,192,146705,1,6,0:0:0:0:
320,192,147357,128,0,148009:0:0:0:0:
448,192,147357,1,6,0:0:0:0:
64,192,148009,128,0,148662:0:0:0:0:
192,192,148009,1,2,0:0:0:0:
320,192,148336,1,2,0:0:0:0:
448,192,148662,1,6,0:0:0:0:
64,192,149151,1,2,0:0:0:0:
448,192,149314,1,0,0:0:0:0:
320,192,149314,1,8,0:0:0:0:
64,192,149966,1,2,0:0:0:0:
192,192,150129,1,8,0:0:0:0:
448,192,150455,1,2,0:0:0:0:
320,192,150618,1,8,0:0:0:0:
192,192,150618,1,0,0:0:0:0:
64,192,151270,1,2,0:0:0:0:
192,192,151759,1,2,0:0:0:0:
320,192,151923,1,8,0:0:0:0:
448,192,151923,1,0,0:0:0:0:
192,192,152575,1,2,0:0:0:0:
64,192,152738,1,8,0:0:0:0:
448,192,153064,1,2,0:0:0:0:
320,192,153227,1,0,0:0:0:0:
192,192,153227,1,8,0:0:0:0:
448,192,153879,1,2,0:0:0:0:
320,192,154368,1,2,0:0:0:0:
64,192,154531,1,0,0:0:0:0:
192,192,154531,1,8,0:0:0:0:
448,192,155183,1,2,0:0:0:0:
320,192,155346,1,8,0:0:0:0:
192,192,155673,1,2,0:0:0:0:
448,192,155836,1,0,0:0:0:0:
64,192,155836,1,8,0:0:0:0:
320,192,156488,1,2,0:0:0:0:
64,192,156977,1,2,0:0:0:0:
192,192,157140,1,8,0:0:0:0:
448,192,157140,1,0,0:0:0:0:
320,192,157792,1,2,0:0:0:0:
448,192,157955,1,8,0:0:0:0:
64,192,158281,1,2,0:0:0:0:
320,192,158444,1,0,0:0:0:0:
192,192,158444,1,8,0:0:0:0:
448,192,159096,1,2,0:0:0:0:
64,192,159096,1,4,0:0:0:0:
320,192,159586,1,2,0:0:0:0:
192,192,159749,1,8,0:0:0:0:
448,192,159749,1,0,0:0:0:0:
64,192,160401,1,2,0:0:0:0:
448,192,160890,1,2,0:0:0:0:
192,192,161053,1,8,0:0:0:0:
320,192,161053,1,0,0:0:0:0:
448,192,161705,1,2,0:0:0:0:
64,192,162194,1,2,0:0:0:0:
192,192,162357,1,0,0:0:0:0:
320,192,162357,1,8,0:0:0:0:
448,192,163009,1,2,0:0:0:0:
320,192,163173,1,8,0:0:0:0:
192,192,163499,1,2,0:0:0:0:
448,192,163662,1,8,0:0:0:0:
64,192,163662,1,0,0:0:0:0:
448,192,164314,1,4,0:0:0:0:
64,192,164314,1,2,0:0:0:0:
192,192,164803,1,2,0:0:0:0:
64,192,164966,1,0,0:0:0:0:
320,192,164966,1,8,0:0:0:0:
448,192,165618,1,2,0:0:0:0:
320,192,166107,1,2,0:0:0:0:
64,192,166270,1,0,0:0:0:0:
192,192,166270,1,8,0:0:0:0:
448,192,166923,1,4,0:0:0:0:
64,192,166923,1,2,0:0:0:0:
320,192,167249,1,2,0:0:0:0:
64,192,167412,1,8,0:0:0:0:
448,192,167575,1,2,0:0:0:0:
192,192,167738,1,2,0:0:0:0:
320,192,167901,1,8,0:0:0:0:
192,192,168064,1,2,0:0:0:0:
448,192,168227,1,0,0:0:0:0:
64,192,168227,1,2,0:0:0:0:
320,192,168390,1,2,0:0:0:0:
192,192,168553,1,8,0:0:0:0:
448,192,168716,1,2,0:0:0:0:
64,192,168879,1,8,0:0:0:0:
192,192,168879,1,0,0:0:0:0:
320,192,169042,1,8,0:0:0:0:
448,192,169042,1,0,0:0:0:0:
192,192,169205,1,8,0:0:0:0:
448,192,169205,1,0,0:0:0:0:
64,192,169368,1,8,0:0:0:0:
320,192,169368,1,0,0:0:0:0:
448,192,169531,1,6,0:0:0:0:
192,192,169531,128,0,170346:0:0:0:0:
320,192,169857,1,8,0:0:0:0:
448,192,170346,1,2,0:0:0:0:
64,192,170509,1,8,0:0:0:0:
320,192,170673,128,0,171651:0:0:0:0:
448,192,170673,1,6,0:0:0:0:
64,192,170999,1,2,0:0:0:0:
192,192,171162,1,8,0:0:0:0:
448,192,171651,1,2,0:0:0:0:
192,192,171814,1,8,0:0:0:0:
448,192,171977,128,0,172792:0:0:0:0:
64,192,171977,1,6,0:0:0:0:
192,192,172303,1,2,0:0:0:0:
320,192,172466,1,8,0:0:0:0:
64,192,172792,1,0,0:0:0:0:
320,192,172955,1,2,0:0:0:0:
192,192,173118,1,8,0:0:0:0:
64,192,173281,128,0,173770:0:0:0:0:
448,192,173281,1,6,0:0:0:0:
320,192,173607,1,2,0:0:0:0:
192,192,173770,1,8,0:0:0:0:
320,192,174096,1,2,0:0:0:0:
448,192,174259,1,2,0:0:0:0:
192,192,174423,1,8,0:0:0:0:
64,192,174586,128,0,175401:0:0:0:0:
320,192,174586,1,6,0:0:0:0:
192,192,174912,1,2,0:0:0:0:
320,192,175075,1,8,0:0:0:0:
448,192,175401,128,2,175727:0:0:0:0:
192,192,175564,1,2,0:0:0:0:
320,192,175727,1,8,0:0:0:0:
64,192,175890,128,0,176705:0:0:0:0:
192,192,175890,1,6,0:0:0:0:
448,192,176216,1,2,0:0:0:0:
320,192,176379,1,8,0:0:0:0:
192,192,176705,128,2,177031:0:0:0:0:
448,192,177031,128,0,177357:0:0:0:0:
320,192,177031,1,8,0:0:0:0:
64,192,177357,128,0,178009:0:0:0:0:
320,192,177357,1,6,0:0:0:0:
192,192,177683,1,8,0:0:0:0:
448,192,178009,128,0,178662:0:0:0:0:
320,192,178009,1,6,0:0:0:0:
192,192,178173,1,2,0:0:0:0:
64,192,178336,1,8,0:0:0:0:
192,192,178662,128,0,179314:0:0:0:0:
64,192,178662,1,6,0:0:0:0:
320,192,178825,1,2,0:0:0:0:
448,192,178988,1,8,0:0:0:0:
320,192,179314,128,0,179966:0:0:0:0:
64,192,179314,1,6,0:0:0:0:
448,192,179477,1,2,0:0:0:0:
192,192,179640,1,8,0:0:0:0:
64,192,179803,1,8,0:0:0:0:
448,192,179966,1,6,0:0:0:0:
192,192,179966,128,0,180781:0:0:0:0:
448,192,180292,1,8,0:0:0:0:
320,192,180781,1,2,0:0:0:0:
64,192,180944,1,8,0:0:0:0:
448,192,181107,128,0,181923:0:0:0:0:
320,192,181107,1,6,0:0:0:0:
64,192,181433,1,2,0:0:0:0:
192,192,181596,1,8,0:0:0:0:
64,192,181923,1,2,0:0:0:0:
192,192,182086,1,2,0:0:0:0:
320,192,182249,1,8,0:0:0:0:
64,192,182412,128,0,182901:0:0:0:0:
448,192,182412,1,6,0:0:0:0:
192,192,182738,1,2,0:0:0:0:
320,192,182901,1,8,0:0:0:0:
448,192,183227,1,2,0:0:0:0:
320,192,183390,1,2,0:0:0:0:
192,192,183553,1,8,0:0:0:0:
64,192,183716,128,0,184205:0:0:0:0:
448,192,183716,1,6,0:0:0:0:
192,192,184042,1,2,0:0:0:0:
448,192,184205,128,0,184531:0:0:0:0:
320,192,184205,1,8,0:0:0:0:
192,192,184531,128,0,184857:0:0:0:0:
64,192,184531,1,2,0:0:0:0:
320,192,184694,1,2,0:0:0:0:
64,192,184857,128,0,185183:0:0:0:0:
448,192,184857,1,8,0:0:0:0:
320,192,185020,1,0,0:0:0:0:
448,192,185183,128,6,185673:0:0:0:0:
192,192,185509,1,8,0:0:0:0:
64,192,185673,128,0,186162:0:0:0:0:
448,192,185999,1,2,0:0:0:0:
320,192,186162,128,0,186488:0:0:0:0:
192,192,186162,1,8,0:0:0:0:
192,192,186488,128,2,186977:0:0:0:0:
64,192,186814,1,8,0:0:0:0:
448,192,186977,128,0,187466:0:0:0:0:
320,192,187303,1,2,0:0:0:0:
64,192,187466,128,0,187792:0:0:0:0:
192,192,187466,1,8,0:0:0:0:
448,192,187792,1,6,0:0:0:0:
192,192,188037,1,8,0:0:0:0:
320,192,188118,1,8,0:0:0:0:
448,192,188281,1,4,0:0:0:0:
64,192,188281,1,2,0:0:0:0:
192,192,188444,128,8,188770:0:0:0:0:
64,192,188770,1,6,0:0:0:0:
320,192,188770,128,0,189096:0:0:0:0:
448,192,189096,128,0,190075:0:0:0:0:
192,192,189096,1,6,0:0:0:0:
64,192,190401,1,0,0:0:0:0:
192,192,190890,1,0,0:0:0:0:
448,192,191705,1,0,0:0:0:0:
320,192,191868,1,0,0:0:0:0:
192,192,192031,1,0,0:0:0:0:
64,192,192194,1,0,0:0:0:0:
64,192,193009,1,0,0:0:0:0:
192,192,193173,1,0,0:0:0:0:
320,192,193336,1,0,0:0:0:0:
448,192,193499,1,0,0:0:0:0:
320,192,193988,1,0,0:0:0:0:
64,192,194314,1,0,0:0:0:0:
192,192,194477,1,0,0:0:0:0:
320,192,194640,1,0,0:0:0:0:
448,192,194803,1,0,0:0:0:0:
192,192,194966,1,0,0:0:0:0:
64,192,195129,1,0,0:0:0:0:
320,192,195292,1,0,0:0:0:0:
192,192,195455,1,0,0:0:0:0:
448,192,195618,1,0,0:0:0:0:
64,192,196107,1,0,0:0:0:0:
448,192,196923,1,0,0:0:0:0:
320,192,197086,1,0,0:0:0:0:
192,192,197249,1,0,0:0:0:0:
64,192,197412,1,0,0:0:0:0:
320,192,198227,1,0,0:0:0:0:
448,192,198716,1,0,0:0:0:0:
320,192,199205,1,0,0:0:0:0:
64,192,199531,1,0,0:0:0:0:
320,192,199857,1,0,0:0:0:0:
448,192,200020,1,0,0:0:0:0:
192,192,200183,1,0,0:0:0:0:
320,192,200346,1,0,0:0:0:0:
64,192,200509,1,0,0:0:0:0:
192,192,200673,1,0,0:0:0:0:
320,192,200836,1,0,0:0:0:0:
448,192,201325,1,0,0:0:0:0:
448,192,202140,1,0,0:0:0:0:
192,192,202303,1,0,0:0:0:0:
320,192,202466,1,0,0:0:0:0:
64,192,202629,1,0,0:0:0:0:
448,192,203444,1,0,0:0:0:0:
64,192,203607,1,0,0:0:0:0:
320,192,203770,1,0,0:0:0:0:
192,192,203933,1,0,0:0:0:0:
448,192,204423,1,0,0:0:0:0:
320,192,204749,1,0,0:0:0:0:
64,192,204912,1,0,0:0:0:0:
448,192,205075,1,0,0:0:0:0:
192,192,205238,1,0,0:0:0:0:
320,192,205401,1,0,0:0:0:0:
64,192,205564,1,0,0:0:0:0:
192,192,205727,1,0,0:0:0:0:
320,192,205890,1,0,0:0:0:0:
448,192,206053,1,0,0:0:0:0:
64,192,206542,1,0,0:0:0:0:
320,192,207357,1,0,0:0:0:0:
64,192,207520,1,0,0:0:0:0:
448,192,207683,1,0,0:0:0:0:
192,192,207846,1,0,0:0:0:0:
64,192,208662,1,0,0:0:0:70:Clink.wav
192,192,208825,1,0,0:0:0:0:
320,192,208988,1,0,0:0:0:0:
64,192,209151,1,0,0:0:0:70:Clink.wav
192,192,209314,1,0,0:0:0:0:
320,192,209477,1,0,0:0:0:0:
448,192,209640,1,0,0:0:0:70:Clink.wav
192,192,209803,1,0,0:0:0:0:
320,192,209966,1,2,0:0:0:0:
448,192,209966,128,0,211270:0:0:0:0:
192,192,211270,1,6,0:0:0:0:
64,192,211759,1,2,0:0:0:0:
192,192,211923,1,8,0:0:0:0:
320,192,211923,1,0,0:0:0:0:
448,192,212575,1,2,0:0:0:0:
64,192,213064,1,2,0:0:0:0:
192,192,213227,1,8,0:0:0:0:
320,192,213227,1,0,0:0:0:0:
448,192,213879,1,2,0:0:0:0:
320,192,214368,1,2,0:0:0:0:
192,192,214531,1,0,0:0:0:0:
64,192,214531,1,8,0:0:0:0:
448,192,215183,1,2,0:0:0:0:
320,192,215673,1,2,0:0:0:0:
64,192,215836,1,8,0:0:0:0:
192,192,215836,1,0,0:0:0:0:
448,192,215999,1,2,0:0:0:0:
64,192,216488,1,6,0:0:0:0:
192,192,216977,1,2,0:0:0:0:
320,192,217140,1,8,0:0:0:0:
448,192,217140,1,0,0:0:0:0:
192,192,217792,1,2,0:0:0:0:
448,192,218281,1,2,0:0:0:0:
320,192,218444,1,8,0:0:0:0:
64,192,218444,1,0,0:0:0:0:
192,192,219096,1,2,0:0:0:0:
64,192,219586,1,2,0:0:0:0:
320,192,219749,1,8,0:0:0:0:
448,192,219749,1,0,0:0:0:0:
192,192,220401,1,2,0:0:0:0:
320,192,220890,1,2,0:0:0:0:
448,192,221053,1,8,0:0:0:0:
64,192,221053,1,0,0:0:0:0:
192,192,221216,1,8,0:0:0:0:
320,192,221216,1,0,0:0:0:0:
448,192,221379,1,8,0:0:0:0:
64,192,221379,1,0,0:0:0:0:
192,192,221542,1,8,0:0:0:0:
320,192,221542,1,0,0:0:0:0:
64,192,221705,1,2,0:0:0:0:
448,192,221705,1,4,0:0:0:0:
320,192,222031,1,0,0:0:0:0:
192,192,222031,1,8,0:0:0:0:
448,192,222520,1,2,0:0:0:0:
320,192,222683,1,0,0:0:0:0:
192,192,222683,1,8,0:0:0:0:
64,192,222846,1,6,0:0:0:0:
448,192,223173,1,2,0:0:0:0:
320,192,223336,1,8,0:0:0:0:
192,192,223336,1,0,0:0:0:0:
64,192,223825,1,2,0:0:0:0:
320,192,223988,1,8,0:0:0:0:
448,192,223988,1,0,0:0:0:0:
192,192,224314,1,6,0:0:0:0:
320,192,224640,1,8,0:0:0:0:
448,192,224640,1,0,0:0:0:0:
64,192,225129,1,2,0:0:0:0:
192,192,225292,1,8,0:0:0:0:
320,192,225292,1,0,0:0:0:0:
448,192,225455,1,6,0:0:0:0:
320,192,225781,1,2,0:0:0:0:
64,192,225944,1,0,0:0:0:0:
192,192,225944,1,8,0:0:0:0:
320,192,226270,1,2,0:0:0:0:
448,192,226433,1,0,0:0:0:0:
192,192,226596,1,8,0:0:0:0:
64,192,226596,1,0,0:0:0:0:
448,192,226759,1,0,0:0:0:0:
320,192,226759,1,8,0:0:0:0:
64,192,226923,1,6,0:0:0:0:
192,192,226923,1,0,0:0:0:0:
320,192,227249,1,8,0:0:0:0:
448,192,227249,1,0,0:0:0:0:
448,192,227575,1,0,0:0:0:0:
64,192,227738,1,2,0:0:0:0:
320,192,227901,1,0,0:0:0:0:
192,192,227901,1,8,0:0:0:0:
448,192,228064,1,6,0:0:0:0:
64,192,228064,1,0,0:0:0:0:
320,192,228390,1,2,0:0:0:0:
64,192,228553,1,0,0:0:0:0:
192,192,228553,1,8,0:0:0:0:
448,192,228879,1,0,0:0:0:0:
320,192,229042,1,2,0:0:0:0:
192,192,229205,1,8,0:0:0:0:
64,192,229368,1,6,0:0:0:0:
448,192,229694,1,2,0:0:0:0:
64,192,229857,1,0,0:0:0:0:
192,192,229857,1,8,0:0:0:0:
320,192,230346,1,2,0:0:0:0:
192,192,230509,1,8,0:0:0:0:
448,192,230509,1,0,0:0:0:0:
64,192,230673,1,6,0:0:0:0:
320,192,230673,1,0,0:0:0:0:
192,192,230999,1,8,0:0:0:0:
320,192,231162,1,8,0:0:0:0:
448,192,231325,1,8,0:0:0:0:
64,192,231488,1,8,0:0:0:0:
192,192,231651,1,2,0:0:0:0:
320,192,231814,1,2,0:0:0:0:
448,192,231977,1,2,0:0:0:0:
64,192,232140,128,0,232792:0:0:0:0:
192,192,232140,1,12,0:0:0:0:
448,192,232792,128,0,233444:0:0:0:0:
320,192,232792,1,6,0:0:0:0:
192,192,233444,128,0,234096:0:0:0:0:
64,192,233444,1,6,0:0:0:0:
320,192,234096,128,0,234749:0:0:0:0:
448,192,234096,1,14,0:0:0:0:
64,192,234749,1,6,0:0:0:0:
320,192,235238,1,2,0:0:0:0:
448,192,235401,1,8,0:0:0:0:
192,192,235401,1,4,0:0:0:0:
64,192,236053,1,2,0:0:0:0:
192,192,236216,1,2,0:0:0:0:
448,192,236542,1,2,0:0:0:0:
320,192,236705,1,8,0:0:0:0:
192,192,236705,1,4,0:0:0:0:
64,192,236868,1,2,0:0:0:0:
320,192,237357,1,2,0:0:0:0:
192,192,237357,1,4,0:0:0:0:
64,192,238009,1,8,0:0:0:0:
448,192,238009,1,6,0:0:0:0:
192,192,238662,1,2,0:0:0:0:
320,192,238662,1,4,0:0:0:0:
448,192,238988,1,2,0:0:0:0:
320,192,239314,1,2,0:0:0:0:
192,192,239640,1,2,0:0:0:0:
64,192,239966,1,2,0:0:0:0:
448,192,239966,1,0,0:0:0:0:
192,192,240129,1,0,0:0:0:0:
320,192,240292,1,2,0:0:0:0:
448,192,240455,1,0,0:0:0:0:
192,192,240618,1,2,0:0:0:0:
320,192,240781,1,0,0:0:0:0:
64,192,240944,1,2,0:0:0:0:
448,192,241107,1,0,0:0:0:0:
320,192,241270,1,2,0:0:0:0:
192,192,241270,1,0,0:0:0:0:
64,192,241433,1,0,0:0:0:0:
448,192,241596,1,2,0:0:0:0:
192,192,241759,1,0,0:0:0:0:
320,192,241923,1,2,0:0:0:0:
64,192,242086,1,2,0:0:0:0:
192,192,242249,1,2,0:0:0:0:
320,192,242412,1,2,0:0:0:0:
64,192,242575,1,6,0:0:0:0:
448,192,242575,1,8,0:0:0:0:
448,192,243879,128,0,245183:0:0:0:0:
64,192,245183,1,12,0:0:0:0:
320,192,245183,1,0,0:0:0:0:
192,192,245346,1,2,0:0:0:0:
320,192,245509,1,2,0:0:0:0:
448,192,245673,1,8,0:0:0:0:
192,192,245673,1,0,0:0:0:0:
64,192,245836,1,8,0:0:0:0:
320,192,245999,1,8,0:0:0:0:
192,192,246162,1,8,0:0:0:0:
448,192,246162,1,0,0:0:0:0:
64,192,246488,1,14,0:0:0:0:
320,192,246488,1,0,0:0:0:0:
192,192,246651,1,0,0:0:0:0:
320,192,246977,1,0,0:0:0:0:
448,192,247303,1,0,0:0:0:0:
320,192,247629,1,12,0:0:0:0:
64,192,247629,1,2,0:0:0:0:
192,192,248281,1,8,0:0:0:0:
320,192,248363,1,8,0:0:0:0:
448,192,248444,1,8,0:0:0:0:
64,192,248662,1,2,0:0:0:0:
448,192,248879,1,2,0:0:0:0:
192,192,249096,1,12,0:0:0:0:
64,192,249096,1,0,0:0:0:70:Cowbell.wav
448,192,249586,1,2,0:0:0:0:
192,192,249749,1,4,0:0:0:0:
320,192,249749,1,8,0:0:0:0:
64,192,250238,1,8,0:0:0:0:
448,192,250564,1,2,0:0:0:0:
320,192,250727,1,2,0:0:0:0:
192,192,250890,1,2,0:0:0:0:
64,192,251053,1,2,0:0:0:0:
448,192,251298,1,10,0:0:0:0:
192,192,251542,1,10,0:0:0:0:
320,192,251705,1,10,0:0:0:0:
64,192,251705,1,4,0:0:0:0:
448,192,252194,1,2,0:0:0:0:
192,192,252357,1,8,0:0:0:0:
320,192,252357,1,0,0:0:0:0:
64,192,252520,1,0,0:0:0:0:
448,192,252846,1,8,0:0:0:0:
320,192,252846,1,6,0:0:0:0:
64,192,253254,1,8,0:0:0:0:
192,192,253336,1,8,0:0:0:0:
320,192,253417,1,8,0:0:0:0:
448,192,253499,1,8,0:0:0:0:
64,192,253580,1,8,0:0:0:0:
320,192,253662,1,8,0:0:0:0:
448,192,253879,1,8,0:0:0:0:
192,192,254096,1,8,0:0:0:0:
320,192,254314,5,12,0:0:0:0:
64,192,254314,1,0,0:0:0:70:Cowbell.wav
448,192,254477,1,0,0:0:0:0:
320,192,254640,1,0,0:0:0:0:
192,192,254803,1,0,0:0:0:0:
64,192,254966,1,0,0:0:0:0:
320,192,255129,1,0,0:0:0:0:
448,192,255292,1,0,0:0:0:0:
192,192,255455,1,0,0:0:0:0:
320,192,255618,1,0,0:0:0:0:
64,192,255781,1,0,0:0:0:0:
192,192,255944,1,0,0:0:0:0:
320,192,256107,1,0,0:0:0:0:
448,192,256270,1,0,0:0:0:0:
320,192,256433,1,0,0:0:0:0:
192,192,256596,1,0,0:0:0:0:
64,192,256759,1,0,0:0:0:0:
448,192,256923,1,0,0:0:0:0:
192,192,257086,1,0,0:0:0:0:
320,192,257249,1,0,0:0:0:0:
64,192,257412,1,0,0:0:0:0:
192,192,257575,1,0,0:0:0:0:
448,192,257738,1,0,0:0:0:0:
64,192,257901,1,0,0:0:0:0:
320,192,258064,1,0,0:0:0:0:
192,192,258227,5,0,0:0:0:0:
448,192,258390,1,0,0:0:0:0:
64,192,258553,1,0,0:0:0:0:
320,192,258716,1,0,0:0:0:0:
192,192,258879,1,0,0:0:0:0:
64,192,259042,1,0,0:0:0:0:
192,192,259205,1,0,0:0:0:0:
448,192,259368,128,0,264586:0:0:0:0:
320,192,259368,1,0,0:0:0:0:
64,192,263281,128,0,264586:0:0:0:0:
