osu file format v14

[General]
AudioFilename: sweet ARMS - Invisible Date.mp3
AudioLeadIn: 0
PreviewTime: 57357
Countdown: 0
SampleSet: Soft
StackLeniency: 0.7
Mode: 3
LetterboxInBreaks: 0
SpecialStyle: 0
WidescreenStoryboard: 0

[Editor]
DistanceSpacing: 1.3
BeatDivisor: 2
GridSize: 4
TimelineZoom: 1.099999

[Metadata]
Title:Invisible Date
TitleUnicode:Invisible Date
Artist:sweet ARMS
ArtistUnicode:sweet ARMS
Creator:AnatOWJIya
Version:Easy
Source:劇場版デート・ア・ライブ 万由里ジャッジメント
Tags:TheGesk Mayuri Date a Live : Mayuri Judgement Movie OST ED
BeatmapID:927034
BeatmapSetID:427702

[Difficulty]
HPDrainRate:6.5
CircleSize:4
OverallDifficulty:6.5
ApproachRate:5
SliderMultiplier:1.4
SliderTickRate:1

[Events]
//Background and Video events
0,0,"Mayuri.jpg",0,0
//Break Periods
//Storyboard Layer 0 (Background)
//Storyboard Layer 1 (Fail)
//Storyboard Layer 2 (Pass)
//Storyboard Layer 3 (Foreground)
//Storyboard Sound Samples

[TimingPoints]
782,681.818181818182,4,2,1,40,1,0
782,-47.8468899521531,4,2,1,40,0,0
12372,638.297872340426,4,2,1,40,1,0
12372,-51.0204081632653,4,2,1,40,0,0
13010,326.086956521739,4,2,1,60,1,0
36488,-100,4,2,1,60,0,0
46923,-100,4,2,1,60,0,0
57357,-100,4,2,1,60,0,1
83444,-100,4,2,1,60,0,0
104314,-100,4,2,1,60,0,0
114749,-100,4,2,1,60,0,0
125183,-100,4,2,1,60,0,1
148662,-100,4,2,1,60,0,0
211270,-100,4,2,1,60,0,1
243879,-100,4,2,1,60,0,0

[HitObjects]
64,192,782,5,0,0:0:0:0:
448,192,1293,1,0,0:0:0:0:
192,192,1634,1,0,0:0:0:0:
192,192,2316,1,0,0:0:0:0:
192,192,2997,1,0,0:0:0:0:
448,192,3509,1,0,0:0:0:0:
320,192,4020,1,0,0:0:0:0:
64,192,4361,1,0,0:0:0:0:
64,192,5043,1,0,0:0:0:0:
64,192,5725,1,0,0:0:0:0:
192,192,6236,1,0,0:0:0:0:
320,192,6747,1,0,0:0:0:0:
448,192,7088,1,0,0:0:0:0:
448,192,7770,1,0,0:0:0:0:
448,192,8452,1,0,0:0:0:0:
64,192,8963,1,0,0:0:0:0:
448,192,9475,1,0,0:0:0:0:
192,192,9816,128,0,10327:0:0:0:0:
320,192,10327,1,2,0:0:0:0:
448,192,11691,128,0,13010:0:0:0:0:
64,192,13010,1,6,0:0:0:0:
448,192,14151,1,0,0:0:0:0:
192,192,15618,1,6,0:0:0:0:
320,192,16760,1,0,0:0:0:0:
64,192,17575,1,0,0:0:0:0:
448,192,18227,1,4,0:0:0:0:
192,192,18227,1,2,0:0:0:0:
192,192,19368,1,8,0:0:0:0:
320,192,19368,1,4,0:0:0:0:
448,192,19857,128,8,20836:0:0:0:0:
64,192,20836,1,4,0:0:0:0:
192,192,20836,1,0,0:0:0:0:
320,192,21488,1,8,0:0:0:0:
192,192,22140,1,2,0:0:0:0:
448,192,22792,1,8,0:0:0:0:
64,192,23444,1,8,0:0:0:0:
192,192,23770,1,8,0:0:0:0:
320,192,24096,1,8,0:0:0:0:
448,192,24423,1,8,0:0:0:0:
64,192,24749,128,2,25401:0:0:0:0:
448,192,25401,128,0,26053:0:0:0:0:
320,192,26053,1,2,0:0:0:0:
64,192,26053,1,4,0:0:0:0:
192,192,26705,1,2,0:0:0:0:
320,192,27357,1,2,0:0:0:0:
448,192,28009,1,2,0:0:0:0:
64,192,28662,1,2,0:0:0:0:
320,192,29314,1,2,0:0:0:0:
192,192,29966,1,2,0:0:0:0:
64,192,30618,5,2,0:0:0:0:
448,192,31270,5,2,0:0:0:0:
320,192,31923,1,2,0:0:0:0:
64,192,32575,1,2,0:0:0:0:
192,192,33227,1,2,0:0:0:0:
320,192,33879,1,2,0:0:0:0:
448,192,34531,1,2,0:0:0:0:
64,192,35183,1,2,0:0:0:0:
192,192,35673,1,0,0:0:0:0:
320,192,36162,1,8,0:0:0:70:Cowbell.wav
64,192,36488,1,4,0:0:0:0:
448,192,36488,1,2,0:0:0:0:
192,192,36814,1,8,0:0:0:0:
320,192,37466,1,8,0:0:0:0:
448,192,38118,1,8,0:0:0:0:
64,192,38770,1,8,0:0:0:0:
192,192,39423,1,8,0:0:0:0:
320,192,40075,1,8,0:0:0:0:
448,192,40727,1,8,0:0:0:0:
192,192,41379,1,8,0:0:0:0:
320,192,41705,1,2,0:0:0:0:
64,192,42031,1,8,0:0:0:0:
448,192,42683,1,8,0:0:0:0:
320,192,43336,1,8,0:0:0:0:
192,192,43988,1,8,0:0:0:0:
64,192,44314,1,2,0:0:0:0:
320,192,44640,1,8,0:0:0:0:
448,192,45292,1,8,0:0:0:0:
320,192,45618,1,2,0:0:0:0:
192,192,45944,1,8,0:0:0:0:
64,192,46433,1,8,0:0:0:0:
192,192,46596,1,8,0:0:0:0:
320,192,46759,1,8,0:0:0:0:
448,192,46923,1,8,0:0:0:0:
64,192,46923,1,6,0:0:0:0:
192,192,47412,1,0,0:0:0:0:
320,192,48227,1,0,0:0:0:0:
64,192,48716,1,0,0:0:0:0:
448,192,49531,1,0,0:0:0:0:
192,192,50020,1,0,0:0:0:0:
64,192,50836,128,0,52140:0:0:0:70:Clink.wav
448,192,52140,1,4,0:0:0:0:
320,192,52140,1,2,0:0:0:0:
192,192,52792,1,8,0:0:0:0:
320,192,53281,1,4,0:0:0:0:
448,192,53281,1,2,0:0:0:0:
64,192,53607,1,0,0:0:0:0:
192,192,53933,1,0,0:0:0:0:
320,192,54259,1,0,0:0:0:0:
448,192,54586,1,0,0:0:0:0:
64,192,54749,1,4,0:0:0:70:Cowbell.wav
320,192,55238,1,4,0:0:0:70:Cowbell.wav
192,192,55727,1,6,0:0:0:70:Cowbell.wav
448,192,56053,128,6,57357:0:0:0:0:
64,192,57357,1,4,0:0:0:0:
192,192,57357,1,2,0:0:0:0:
448,192,58009,1,8,0:0:0:0:
192,192,58662,1,2,0:0:0:0:
320,192,59314,1,8,0:0:0:0:
64,192,59966,1,6,0:0:0:0:
192,192,60618,1,8,0:0:0:0:
320,192,61270,1,2,0:0:0:0:
448,192,61923,1,8,0:0:0:0:
320,192,62575,1,6,0:0:0:0:
192,192,63227,1,8,0:0:0:0:
64,192,63879,1,2,0:0:0:0:
448,192,64531,1,8,0:0:0:0:
192,192,65183,1,6,0:0:0:0:
320,192,65836,1,8,0:0:0:0:
64,192,66488,1,2,0:0:0:0:
448,192,67140,128,8,67792:0:0:0:0:
320,192,67792,1,6,0:0:0:0:
192,192,68118,1,8,0:0:0:0:
64,192,68770,1,8,0:0:0:0:
320,192,68933,1,6,0:0:0:0:
448,192,69423,1,8,0:0:0:0:
192,192,70075,1,8,0:0:0:0:
448,192,70401,1,6,0:0:0:0:
320,192,70727,1,8,0:0:0:0:
64,192,71379,1,8,0:0:0:0:
192,192,71542,1,6,0:0:0:0:
448,192,72031,1,8,0:0:0:0:
192,192,72683,1,8,0:0:0:0:
320,192,73009,1,6,0:0:0:0:
448,192,73336,1,8,0:0:0:0:
64,192,73988,1,8,0:0:0:0:
320,192,74151,1,6,0:0:0:0:
192,192,74640,1,8,0:0:0:0:
448,192,75292,1,8,0:0:0:0:
64,192,75455,1,6,0:0:0:0:
320,192,75944,1,8,0:0:0:0:
448,192,76596,1,8,0:0:0:0:
192,192,76759,1,6,0:0:0:0:
64,192,77086,1,8,0:0:0:0:
320,192,77412,1,8,0:0:0:0:
448,192,77738,1,2,0:0:0:0:
320,192,77901,1,2,0:0:0:0:
192,192,78227,1,8,0:0:0:0:
64,192,78227,1,4,0:0:0:0:
320,192,78879,1,0,0:0:0:0:
192,192,79531,1,0,0:0:0:0:
64,192,80183,1,2,0:0:0:0:
448,192,80673,128,6,83444:0:0:0:0:
64,192,83444,1,0,0:0:0:25:Cowbell.wav
192,192,84096,1,0,0:0:0:25:Cowbell.wav
320,192,84749,1,0,0:0:0:25:Cowbell.wav
448,192,85401,1,0,0:0:0:25:Cowbell.wav
64,192,86053,1,0,0:0:0:0:
192,192,86053,1,0,0:0:0:25:Cowbell.wav
320,192,86705,1,0,0:0:0:25:Cowbell.wav
192,192,87357,1,0,0:0:0:25:Cowbell.wav
448,192,88009,1,0,0:0:0:25:Cowbell.wav
64,192,88662,1,0,0:0:0:0:
320,192,88662,1,0,0:0:0:25:Cowbell.wav
192,192,89314,1,0,0:0:0:25:Cowbell.wav
320,192,89966,1,0,0:0:0:25:Cowbell.wav
448,192,90618,1,0,0:0:0:25:Cowbell.wav
320,192,91270,1,0,0:0:0:25:Cowbell.wav
192,192,91270,1,0,0:0:0:0:
64,192,91923,1,0,0:0:0:25:Cowbell.wav
64,192,92575,128,0,93390:0:0:0:0:
448,192,92575,1,2,0:0:0:70:Cowbell.wav
192,192,93390,1,8,0:0:0:0:
448,192,93553,1,2,0:0:0:0:
320,192,93716,1,2,0:0:0:0:
64,192,93879,1,8,0:0:0:0:
192,192,93879,1,4,0:0:0:0:
448,192,94368,1,0,0:0:0:70:Cowbell.wav
192,192,95346,1,0,0:0:0:70:Cowbell.wav
320,192,95673,1,4,0:0:0:70:Cowbell.wav
64,192,96488,1,0,0:0:0:70:Cowbell.wav
192,192,96977,1,0,0:0:0:70:Cowbell.wav
320,192,97955,1,0,0:0:0:70:Cowbell.wav
448,192,98281,1,0,0:0:0:70:Cowbell.wav
64,192,99096,1,0,0:0:0:70:Cowbell.wav
320,192,99586,1,0,0:0:0:70:Cowbell.wav
192,192,100564,1,0,0:0:0:70:Cowbell.wav
448,192,100890,1,0,0:0:0:70:Cowbell.wav
64,192,101705,1,0,0:0:0:70:Cowbell.wav
192,192,102194,1,0,0:0:0:70:Cowbell.wav
448,192,103009,1,8,0:0:0:0:
320,192,103009,1,4,0:0:0:0:
64,192,103336,1,8,0:0:0:0:
192,192,103499,1,8,0:0:0:0:
448,192,103825,1,8,0:0:0:0:
320,192,103988,1,6,0:0:0:0:
64,192,104314,1,6,0:0:0:0:
448,192,104640,1,8,0:0:0:0:
192,192,105292,1,8,0:0:0:0:
320,192,105944,1,8,0:0:0:0:
64,192,106596,1,8,0:0:0:0:
192,192,107249,1,8,0:0:0:0:
320,192,107901,1,8,0:0:0:0:
448,192,108553,1,8,0:0:0:0:
320,192,109205,1,8,0:0:0:0:
64,192,109531,1,2,0:0:0:0:
192,192,109857,1,8,0:0:0:0:
448,192,110509,1,8,0:0:0:0:
64,192,111162,1,8,0:0:0:0:
320,192,111814,1,8,0:0:0:0:
448,192,112140,1,2,0:0:0:0:
64,192,112466,1,8,0:0:0:0:
192,192,113118,1,8,0:0:0:0:
320,192,113444,1,2,0:0:0:0:
448,192,113770,1,8,0:0:0:0:
192,192,114096,1,2,0:0:0:0:
64,192,114259,1,8,0:0:0:0:
320,192,114423,1,8,0:0:0:0:
192,192,114586,1,8,0:0:0:0:
64,192,114749,1,8,0:0:0:0:
448,192,114749,128,6,115238:0:0:0:0:
192,192,115238,1,0,0:0:0:0:
64,192,116053,128,0,116542:0:0:0:0:
320,192,116542,1,0,0:0:0:0:
192,192,117357,128,0,117846:0:0:0:0:
448,192,117846,1,0,0:0:0:0:
320,192,118662,128,0,119966:0:0:0:70:Clink.wav
448,192,119966,1,0,0:0:0:80:Cowbell.wav
64,192,119966,1,6,0:0:0:0:
192,192,120618,1,8,0:0:0:0:
320,192,121107,1,6,0:0:0:0:
448,192,121107,1,0,0:0:0:0:
64,192,121433,1,8,0:0:0:0:
192,192,121759,1,8,0:0:0:0:
320,192,122086,1,8,0:0:0:0:
64,192,122412,1,0,0:0:0:0:
448,192,122575,1,6,0:0:0:0:
192,192,123064,1,6,0:0:0:0:
320,192,123553,1,6,0:0:0:0:
64,192,123879,1,10,0:0:0:0:
448,192,124531,128,8,125183:0:0:0:0:
64,192,125183,1,4,0:0:0:0:
320,192,125183,1,2,0:0:0:0:
448,192,125836,1,8,0:0:0:0:
192,192,126488,1,2,0:0:0:0:
320,192,127140,1,8,0:0:0:0:
64,192,127792,1,6,0:0:0:0:
448,192,128444,1,8,0:0:0:0:
192,192,129096,1,2,0:0:0:0:
320,192,129749,1,8,0:0:0:0:
64,192,130401,1,6,0:0:0:0:
192,192,131053,1,8,0:0:0:0:
320,192,131705,1,2,0:0:0:0:
448,192,132357,1,8,0:0:0:0:
192,192,133009,1,6,0:0:0:0:
320,192,133662,1,8,0:0:0:0:
64,192,134314,1,2,0:0:0:0:
448,192,134966,128,8,135618:0:0:0:0:
320,192,135618,1,4,0:0:0:0:
192,192,135618,1,2,0:0:0:0:
64,192,135944,1,8,0:0:0:0:
320,192,136596,1,8,0:0:0:0:
64,192,136759,1,6,0:0:0:0:
192,192,137249,1,8,0:0:0:0:
448,192,137901,1,8,0:0:0:0:
320,192,138553,1,8,0:0:0:0:
192,192,139205,1,8,0:0:0:0:
448,192,139368,1,6,0:0:0:0:
64,192,139857,1,8,0:0:0:0:
192,192,140509,1,8,0:0:0:0:
320,192,140673,1,8,0:0:0:0:
448,192,140836,1,6,0:0:0:0:
64,192,141162,1,8,0:0:0:0:
448,192,141814,1,8,0:0:0:0:
192,192,141977,1,6,0:0:0:0:
320,192,142466,1,8,0:0:0:0:
64,192,143118,1,8,0:0:0:0:
448,192,143281,1,6,0:0:0:0:
64,192,143770,1,8,0:0:0:0:
448,192,144423,1,8,0:0:0:0:
320,192,144586,1,6,0:0:0:0:
64,192,144912,1,8,0:0:0:0:
192,192,145075,1,8,0:0:0:0:
320,192,145238,1,8,0:0:0:0:
448,192,145401,1,8,0:0:0:0:
64,192,145564,128,2,146053:0:0:0:0:
448,192,146053,1,12,0:0:0:0:
320,192,146705,1,6,0:0:0:0:
192,192,147357,1,6,0:0:0:0:
320,192,148009,1,2,0:0:0:0:
192,192,148173,1,0,0:0:0:0:
64,192,148336,1,2,0:0:0:0:
320,192,148499,1,0,0:0:0:0:
448,192,148662,1,6,0:0:0:0:
320,192,149314,1,8,0:0:0:0:
64,192,149966,1,2,0:0:0:0:
192,192,150618,1,8,0:0:0:0:
448,192,151270,1,2,0:0:0:0:
320,192,151923,1,8,0:0:0:0:
192,192,152575,1,2,0:0:0:0:
64,192,153227,1,8,0:0:0:0:
448,192,153879,1,2,0:0:0:0:
320,192,154531,1,8,0:0:0:0:
64,192,155183,1,2,0:0:0:0:
320,192,155836,1,8,0:0:0:0:
192,192,156488,1,2,0:0:0:0:
448,192,157140,1,8,0:0:0:0:
320,192,157792,1,2,0:0:0:0:
64,192,157955,1,8,0:0:0:0:
192,192,158444,1,8,0:0:0:0:
448,192,159096,1,4,0:0:0:0:
64,192,159096,1,2,0:0:0:0:
192,192,159749,1,8,0:0:0:0:
320,192,160401,1,2,0:0:0:0:
64,192,161053,1,8,0:0:0:0:
448,192,161705,1,2,0:0:0:0:
320,192,162357,1,8,0:0:0:0:
192,192,163009,1,2,0:0:0:0:
64,192,163662,1,8,0:0:0:0:
448,192,164314,1,2,0:0:0:0:
320,192,164314,1,4,0:0:0:0:
192,192,164966,1,8,0:0:0:0:
320,192,165618,1,2,0:0:0:0:
64,192,166270,1,8,0:0:0:0:
448,192,166923,128,6,167575:0:0:0:0:
192,192,167575,128,2,168227:0:0:0:0:
320,192,168227,128,2,168879:0:0:0:0:
64,192,168879,128,8,169531:0:0:0:0:
448,192,169531,1,4,0:0:0:0:
192,192,169531,1,2,0:0:0:0:
192,192,169857,1,8,0:0:0:0:
320,192,169857,1,0,0:0:0:0:
448,192,170346,1,2,0:0:0:0:
320,192,170509,1,8,0:0:0:0:
64,192,170673,1,6,0:0:0:0:
448,192,171162,1,8,0:0:0:0:
192,192,171162,1,0,0:0:0:0:
320,192,171651,1,2,0:0:0:0:
192,192,171814,1,8,0:0:0:0:
64,192,171977,1,6,0:0:0:0:
192,192,172466,1,8,0:0:0:0:
448,192,172466,1,0,0:0:0:0:
320,192,172955,1,2,0:0:0:0:
448,192,173118,1,8,0:0:0:0:
64,192,173281,1,6,0:0:0:0:
448,192,173770,1,8,0:0:0:0:
192,192,173770,1,0,0:0:0:0:
64,192,174096,1,2,0:0:0:0:
320,192,174259,1,2,0:0:0:0:
192,192,174423,1,8,0:0:0:0:
448,192,174586,1,6,0:0:0:0:
192,192,175075,1,8,0:0:0:0:
320,192,175075,1,0,0:0:0:0:
64,192,175401,1,2,0:0:0:0:
192,192,175727,1,8,0:0:0:0:
448,192,175890,1,6,0:0:0:0:
64,192,176379,1,8,0:0:0:0:
320,192,176379,1,0,0:0:0:0:
192,192,176705,1,2,0:0:0:0:
320,192,177031,1,8,0:0:0:0:
448,192,177357,1,2,0:0:0:0:
64,192,177357,1,4,0:0:0:0:
192,192,177683,1,8,0:0:0:0:
320,192,177683,1,0,0:0:0:0:
448,192,178009,1,6,0:0:0:0:
64,192,178336,1,8,0:0:0:0:
320,192,178336,1,0,0:0:0:0:
192,192,178662,1,6,0:0:0:0:
64,192,178988,1,0,0:0:0:0:
448,192,178988,1,8,0:0:0:0:
320,192,179314,1,6,0:0:0:0:
64,192,179640,1,0,0:0:0:0:
192,192,179640,1,8,0:0:0:0:
448,192,179803,1,8,0:0:0:0:
320,192,179966,1,6,0:0:0:0:
192,192,180292,1,8,0:0:0:0:
448,192,180292,1,0,0:0:0:0:
64,192,180781,1,2,0:0:0:0:
320,192,180944,1,8,0:0:0:0:
448,192,181107,1,6,0:0:0:0:
192,192,181596,1,8,0:0:0:0:
320,192,181596,1,0,0:0:0:0:
64,192,182086,1,2,0:0:0:0:
192,192,182249,1,8,0:0:0:0:
448,192,182412,1,6,0:0:0:0:
192,192,182901,1,8,0:0:0:0:
64,192,182901,1,0,0:0:0:0:
320,192,183227,1,2,0:0:0:0:
192,192,183390,1,2,0:0:0:0:
448,192,183553,1,8,0:0:0:0:
64,192,183716,1,6,0:0:0:0:
192,192,184205,1,8,0:0:0:0:
448,192,184205,1,0,0:0:0:0:
64,192,184531,1,2,0:0:0:0:
448,192,184857,1,8,0:0:0:0:
320,192,184857,1,0,0:0:0:0:
64,192,185183,128,6,185673:0:0:0:0:
192,192,185673,128,0,186162:0:0:0:0:
448,192,186162,128,8,186488:0:0:0:0:
320,192,186488,128,2,186977:0:0:0:0:
64,192,186977,128,0,187466:0:0:0:0:
320,192,187466,128,8,187792:0:0:0:0:
192,192,187792,128,6,188770:0:0:0:0:
448,192,188281,1,6,0:0:0:0:
320,192,188770,1,6,0:0:0:0:
448,192,189096,128,0,190075:0:0:0:0:
64,192,189096,1,6,0:0:0:0:
64,192,190401,1,0,0:0:0:0:
448,192,191705,1,0,0:0:0:0:
192,192,192194,1,0,0:0:0:0:
320,192,193009,1,0,0:0:0:0:
64,192,193499,1,0,0:0:0:0:
448,192,193988,1,0,0:0:0:0:
192,192,194314,128,0,194966:0:0:0:0:
320,192,194966,128,0,195618:0:0:0:0:
448,192,195618,1,0,0:0:0:0:
64,192,196107,1,0,0:0:0:0:
448,192,196923,1,0,0:0:0:0:
320,192,197412,1,0,0:0:0:0:
192,192,198227,1,0,0:0:0:0:
64,192,198716,1,0,0:0:0:0:
192,192,199205,1,0,0:0:0:0:
448,192,199531,128,0,200183:0:0:0:0:
64,192,200183,128,0,200836:0:0:0:0:
320,192,200836,1,0,0:0:0:0:
448,192,201325,1,0,0:0:0:0:
192,192,202140,1,0,0:0:0:0:
64,192,202629,1,0,0:0:0:0:
320,192,203444,1,0,0:0:0:0:
192,192,203933,1,0,0:0:0:0:
448,192,204749,1,0,0:0:0:0:
192,192,204749,128,0,205075:0:0:0:0:
64,192,205075,128,0,205401:0:0:0:0:
448,192,205401,1,0,0:0:0:0:
320,192,205401,128,0,205727:0:0:0:0:
192,192,205727,128,0,206053:0:0:0:0:
64,192,206053,128,0,207357:0:0:0:0:
192,192,207357,128,0,208662:0:0:0:0:
448,192,208009,1,0,0:0:0:0:
320,192,208662,1,0,0:0:0:70:Clink.wav
64,192,209151,1,0,0:0:0:70:Clink.wav
448,192,209640,1,0,0:0:0:70:Clink.wav
320,192,209966,128,0,211270:0:0:0:0:
192,192,209966,1,2,0:0:0:0:
192,192,210618,128,0,211270:0:0:0:0:
448,192,211270,1,4,0:0:0:0:
64,192,211270,1,2,0:0:0:0:
64,192,211923,1,8,0:0:0:0:
320,192,212575,1,2,0:0:0:0:
192,192,213227,1,8,0:0:0:0:
448,192,213879,1,2,0:0:0:0:
320,192,214531,1,8,0:0:0:0:
192,192,215183,1,2,0:0:0:0:
64,192,215836,1,8,0:0:0:0:
448,192,216488,1,4,0:0:0:0:
320,192,216488,1,2,0:0:0:0:
192,192,217140,1,8,0:0:0:0:
320,192,217792,1,2,0:0:0:0:
64,192,218444,1,8,0:0:0:0:
192,192,219096,1,2,0:0:0:0:
448,192,219749,1,8,0:0:0:0:
320,192,220401,1,2,0:0:0:0:
64,192,221053,128,8,221705:0:0:0:0:
448,192,221705,1,4,0:0:0:0:
320,192,221705,1,2,0:0:0:0:
192,192,222031,1,8,0:0:0:0:
448,192,222683,1,8,0:0:0:0:
64,192,222846,1,6,0:0:0:0:
320,192,223336,1,8,0:0:0:0:
192,192,223988,1,8,0:0:0:0:
448,192,224640,1,8,0:0:0:0:
320,192,225292,1,8,0:0:0:0:
64,192,225455,1,6,0:0:0:0:
192,192,225944,1,8,0:0:0:0:
448,192,226433,1,0,0:0:0:0:
320,192,226596,1,8,0:0:0:0:
192,192,226759,1,8,0:0:0:0:
64,192,226923,1,6,0:0:0:0:
448,192,227249,1,8,0:0:0:0:
192,192,227901,1,8,0:0:0:0:
320,192,228064,1,6,0:0:0:0:
64,192,228553,1,8,0:0:0:0:
448,192,229205,1,8,0:0:0:0:
192,192,229368,1,6,0:0:0:0:
320,192,229857,1,8,0:0:0:0:
64,192,230509,1,8,0:0:0:0:
192,192,230673,1,6,0:0:0:0:
448,192,230999,128,8,231325:0:0:0:0:
320,192,231325,128,8,231651:0:0:0:0:
192,192,231651,128,2,232140:0:0:0:0:
64,192,232140,1,4,0:0:0:0:
448,192,232140,1,8,0:0:0:0:
448,192,232792,1,4,0:0:0:0:
64,192,232792,1,2,0:0:0:0:
320,192,233444,1,6,0:0:0:0:
192,192,234096,1,8,0:0:0:0:
64,192,234096,1,6,0:0:0:0:
320,192,234749,1,6,0:0:0:0:
64,192,235401,1,8,0:0:0:0:
448,192,235401,1,4,0:0:0:0:
192,192,236053,1,2,0:0:0:0:
320,192,236705,1,4,0:0:0:0:
64,192,236705,1,2,0:0:0:0:
448,192,237357,1,4,0:0:0:0:
320,192,237357,1,2,0:0:0:0:
64,192,238009,1,8,0:0:0:0:
192,192,238009,1,6,0:0:0:0:
320,192,238662,1,4,0:0:0:0:
448,192,238662,1,2,0:0:0:0:
64,192,238988,1,2,0:0:0:0:
448,192,239314,1,2,0:0:0:0:
192,192,239640,1,2,0:0:0:0:
320,192,239966,1,2,0:0:0:0:
64,192,240292,1,2,0:0:0:0:
448,192,240618,1,2,0:0:0:0:
192,192,240944,1,2,0:0:0:0:
64,192,241270,1,2,0:0:0:0:
192,192,241596,1,2,0:0:0:0:
320,192,241923,1,2,0:0:0:0:
448,192,242249,1,2,0:0:0:0:
192,192,242575,1,6,0:0:0:0:
64,192,242575,1,8,0:0:0:0:
64,192,243879,128,0,245183:0:0:0:0:
320,192,245183,128,12,246488:0:0:0:0:
448,192,246488,1,12,0:0:0:0:
64,192,246488,1,2,0:0:0:0:
192,192,246977,1,0,0:0:0:0:
320,192,247303,1,0,0:0:0:0:
64,192,247629,1,12,0:0:0:0:
448,192,247629,1,2,0:0:0:0:
320,192,248281,128,8,249096:0:0:0:0:
192,192,249096,1,12,0:0:0:0:
448,192,249096,1,0,0:0:0:70:Cowbell.wav
64,192,249749,1,8,0:0:0:0:
192,192,249749,1,4,0:0:0:0:
448,192,250238,1,8,0:0:0:0:
320,192,250564,128,2,251053:0:0:0:0:
192,192,251298,1,10,0:0:0:0:
448,192,251542,1,10,0:0:0:0:
64,192,251705,1,6,0:0:0:0:
320,192,251705,1,8,0:0:0:0:
192,192,252357,1,8,0:0:0:0:
320,192,252846,1,6,0:0:0:0:
448,192,252846,1,8,0:0:0:0:
64,192,253336,128,8,253662:0:0:0:0:
320,192,253879,1,8,0:0:0:0:
192,192,254096,1,8,0:0:0:0:
64,192,254314,1,12,0:2:0:0:
448,192,254314,1,0,0:0:0:70:Cowbell.wav
320,192,254966,1,0,0:0:0:0:
192,192,255618,1,0,0:0:0:0:
448,192,256270,1,0,0:0:0:0:
64,192,256923,1,0,0:0:0:0:
448,192,257575,1,0,0:0:0:0:
192,192,258227,1,0,0:0:0:0:
64,192,258879,1,0,0:0:0:0:
448,192,259368,128,0,264586:0:0:0:0:
64,192,263281,128,0,264586:0:0:0:0:
