osu file format v14

[General]
AudioFilename: audio.mp3
AudioLeadIn: 0
PreviewTime: 133898
Countdown: 0
SampleSet: Soft
StackLeniency: 0.7
Mode: 0
LetterboxInBreaks: 0
EpilepsyWarning: 1
WidescreenStoryboard: 1

[Editor]
Bookmarks: 20666,38526,56386,73689,89875,98805,99084,99363,99642,99921,100200,100479,100759,101038,101317,101596,101875,102154,102433,102712,102991,103270,103549,103828,104107,104386,104666,104945,105224,105503,105782,106061,106340,106619,106898,107177,107456,107735,116666,133968,150154,168014,185875,203735,230526,259549,268479,288572,288852,289131,289410,289689,289968,290247,290526,290805,291084,291363,291642,291921,292200,292479,292759,293038,293317,293596,293875,294154,294433,294712,294991,295270,295549,295828,296107,296386,296666,296945,297224,297503,322061,330991
DistanceSpacing: 4.2
BeatDivisor: 4
GridSize: 4
TimelineZoom: 2.2

[Metadata]
Title:Installation
TitleUnicode:インストレーション
Artist:sweet ARMS
ArtistUnicode:sweet ARMS
Creator:_kotachi_
Version:Zaphkiel
Source:デート・ア・ライブ 或守インストール
Tags:japanese pop j-pop jpop video game opening date a live ii 2 arusu ars install collab Repl4y Lemaire dkblaze Meg iMage-- kuei -Brethia otudou cup FInal Semifinals tb tiebreaker
BeatmapID:3595027
BeatmapSetID:1756743

[Difficulty]
HPDrainRate:5
CircleSize:4
OverallDifficulty:9
ApproachRate:9.5
SliderMultiplier:1.8
SliderTickRate:1

[Events]
//Background and Video events
0,0,"BG.jpg",0,0
//Break Periods
2,99005,107210
2,288572,296978
//Storyboard Layer 0 (Background)
//Storyboard Layer 1 (Fail)
//Storyboard Layer 2 (Pass)
//Storyboard Layer 3 (Foreground)
//Storyboard Layer 4 (Overlay)
//Storyboard Sound Samples

[TimingPoints]
573,279.06976744186,4,2,1,80,1,0
2805,-100,4,2,2,80,0,0
5038,-100,4,2,1,80,0,0
7270,-100,4,2,3,80,0,0
8386,-125,4,2,2,80,0,0
8666,-125,4,2,1,60,0,0
9503,-100,4,2,1,80,0,0
9642,-100,4,2,1,50,0,0
11735,-100,4,2,2,80,0,0
11875,-100,4,2,1,50,0,0
13968,-100,4,2,1,80,0,0
14107,-100,4,2,1,50,0,0
16200,-100,4,2,3,80,0,0
16340,-100,4,2,1,50,0,0
17317,-83.3333333333333,4,2,2,70,0,0
18433,-200,4,2,99,30,0,0
18572,-200,4,2,99,40,0,0
18712,-200,4,2,99,45,0,0
18852,-200,4,2,99,50,0,0
18991,-200,4,2,99,55,0,0
19131,-200,4,2,99,60,0,0
19270,-200,4,2,99,30,0,0
19549,-83.3333333333333,4,2,1,70,0,0
20386,-66.6666666666667,4,2,1,70,0,0
20666,-83.3333333333333,4,2,1,70,0,0
20875,-83.3333333333333,4,2,1,5,0,0
20945,-100,4,2,1,70,0,0
21642,-100,4,2,2,70,0,0
21921,-100,4,2,1,70,0,0
23875,-100,4,2,3,70,0,0
24154,-100,4,2,1,70,0,0
25061,-100,4,2,1,5,0,0
25131,-100,4,2,1,70,0,0
26107,-100,4,2,2,70,0,0
26386,-100,4,2,1,70,0,0
28340,-100,4,2,3,70,0,0
28549,-100,4,2,3,5,0,0
28619,-100,4,2,1,70,0,0
29805,-100,4,2,1,5,0,0
29875,-100,4,2,6,70,0,0
30572,-100,4,2,2,70,0,0
30852,-100,4,2,6,70,0,0
31689,-100,4,2,1,70,0,0
31968,-100,4,2,6,70,0,0
32805,-100,4,2,3,70,0,0
33084,-100,4,2,6,70,0,0
33991,-100,4,2,6,5,0,0
34061,-100,4,2,1,70,0,0
34340,-100,4,2,6,70,0,0
35038,-100,4,2,2,70,0,0
35317,-100,4,2,6,70,0,0
36154,-100,4,2,1,70,0,0
36433,-100,4,2,6,70,0,0
37270,-100,4,2,3,70,0,0
37479,-100,4,2,3,5,0,0
37549,-100,4,2,6,70,0,0
38526,-200,4,2,1,70,0,0
39084,-200,4,2,1,45,0,0
47456,-142.857142857143,4,2,1,50,0,0
51642,-142.857142857143,4,2,6,50,0,0
51921,-142.857142857143,4,2,1,50,0,0
54154,-125,4,2,1,50,0,0
55828,-125,4,2,1,45,0,0
55968,-125,4,2,1,55,0,0
56107,-125,4,2,1,65,0,0
56247,-125,4,2,1,75,0,0
56386,-100,4,2,1,60,0,0
56805,-166.666666666667,4,2,1,60,0,0
57224,-83.3333333333333,4,2,1,60,0,0
57503,-100,4,2,1,60,0,0
57921,-166.666666666667,4,2,1,60,0,0
58340,-83.3333333333333,4,2,1,60,0,0
58619,-100,4,2,1,60,0,0
59038,-166.666666666667,4,2,1,60,0,0
59456,-83.3333333333333,4,2,1,60,0,0
59735,-100,4,2,1,60,0,0
60154,-166.666666666667,4,2,1,60,0,0
60572,-83.3333333333333,4,2,1,60,0,0
60852,-100,4,2,1,60,0,0
61270,-166.666666666667,4,2,1,60,0,0
61689,-83.3333333333333,4,2,1,60,0,0
61968,-100,4,2,1,60,0,0
64410,-100,4,2,1,5,0,0
64479,-100,4,2,1,60,0,0
65317,-100,4,2,3,60,0,0
65596,-100,4,2,1,60,0,0
72014,-100,4,2,2,70,0,0
72154,-100,4,2,1,50,0,0
72293,-100,4,2,1,70,0,0
72712,-100,4,2,1,60,0,0
73131,-100,4,2,1,70,0,0
73270,-100,4,2,1,75,0,0
73410,-100,4,2,7,80,0,0
73689,-500,4,2,1,40,0,0
74177,-500,4,2,1,5,0,0
74247,-90.9090909090909,4,2,5,75,0,1
74526,-90.9090909090909,4,2,1,75,0,1
78572,-90.9090909090909,4,2,2,75,0,1
78712,-90.9090909090909,4,2,1,75,0,1
79689,-90.9090909090909,4,2,3,75,0,1
79968,-90.9090909090909,4,2,1,75,0,1
81921,-90.9090909090909,4,2,3,75,0,1
82200,-90.9090909090909,4,2,1,75,0,1
82479,-90.9090909090909,4,2,90,75,0,1
82549,-90.9090909090909,4,2,1,5,0,1
82619,-66.6666666666667,4,2,1,75,0,1
82689,-66.6666666666667,4,2,1,5,0,1
82759,-66.6666666666667,4,2,1,75,0,1
82828,-66.6666666666667,4,2,1,5,0,1
82898,-66.6666666666667,4,2,1,75,0,1
82968,-66.6666666666667,4,2,1,5,0,1
83038,-90.9090909090909,4,2,1,75,0,1
86386,-90.9090909090909,4,2,3,75,0,1
86526,-90.9090909090909,4,2,1,75,0,1
86945,-90.9090909090909,4,2,2,75,0,1
87084,-90.9090909090909,4,2,1,75,0,1
89875,-100,4,2,1,70,0,0
90154,-100,4,2,6,70,0,0
90852,-100,4,2,2,70,0,0
91131,-100,4,2,6,70,0,0
91968,-100,4,2,1,70,0,0
92247,-100,4,2,6,70,0,0
93084,-100,4,2,3,70,0,0
93363,-100,4,2,6,70,0,0
94340,-100,4,2,1,70,0,0
94479,-100,4,2,6,70,0,0
95317,-100,4,2,2,70,0,0
95596,-100,4,2,6,70,0,0
96433,-100,4,2,1,70,0,0
96712,-100,4,2,6,70,0,0
97549,-100,4,2,3,70,0,0
97828,-100,4,2,6,70,0,0
97968,-100,4,2,6,65,0,0
98247,-100,4,2,6,75,0,0
98805,-100,4,2,1,70,0,0
107735,-100,4,2,1,60,0,0
108852,-111.111111111111,4,2,1,60,0,0
116107,-111.111111111111,4,2,1,45,0,0
116247,-111.111111111111,4,2,1,55,0,0
116386,-111.111111111111,4,2,1,65,0,0
116526,-111.111111111111,4,2,1,75,0,0
116666,-100,4,2,1,60,0,0
117084,-166.666666666667,4,2,1,60,0,0
117503,-83.3333333333333,4,2,1,60,0,0
117712,-83.3333333333333,4,2,1,5,0,0
117782,-100,4,2,1,60,0,0
118200,-166.666666666667,4,2,1,60,0,0
118619,-83.3333333333333,4,2,1,60,0,0
118828,-83.3333333333333,4,2,1,5,0,0
118898,-100,4,2,1,60,0,0
119316,-166.666666666667,4,2,1,60,0,0
119735,-83.3333333333333,4,2,1,60,0,0
119945,-83.3333333333333,4,2,1,5,0,0
120014,-100,4,2,1,60,0,0
120433,-166.666666666667,4,2,1,60,0,0
120642,-166.666666666667,4,2,1,5,0,0
120712,-166.666666666667,4,2,1,60,0,0
120851,-83.3333333333333,4,2,1,60,0,0
121131,-100,4,2,1,60,0,0
121549,-166.666666666667,4,2,1,60,0,0
121968,-83.3333333333333,4,2,1,60,0,0
122177,-83.3333333333333,4,2,1,5,0,0
122247,-100,4,2,1,60,0,0
122666,-166.666666666667,4,2,1,60,0,0
123084,-83.3333333333333,4,2,1,60,0,0
123293,-83.3333333333333,4,2,1,5,0,0
123363,-100,4,2,1,60,0,0
123782,-166.666666666667,4,2,1,60,0,0
124200,-83.3333333333333,4,2,1,60,0,0
124410,-83.3333333333333,4,2,1,5,0,0
124479,-100,4,2,1,60,0,0
125596,-100,4,2,3,60,0,0
125735,-100,4,2,1,60,0,0
126224,-100,4,2,1,5,0,0
126293,-100,4,2,1,60,0,0
128456,-100,4,2,1,5,0,0
128526,-100,4,2,1,60,0,0
132293,-100,4,2,1,70,0,0
132433,-100,4,2,1,50,0,0
132572,-100,4,2,1,70,0,0
132921,-100,4,2,1,5,0,0
132991,-100,4,2,1,60,0,0
133410,-100,4,2,1,70,0,0
133549,-100,4,2,1,75,0,0
133689,-100,4,2,7,80,0,0
133968,-125,4,2,1,45,0,0
134107,-125,4,2,1,30,0,0
134247,-125,4,2,1,45,0,0
134526,-90.9090909090909,4,2,5,75,0,1
134805,-90.9090909090909,4,2,1,75,0,1
138852,-90.9090909090909,4,2,3,75,0,1
139131,-90.9090909090909,4,2,1,75,0,1
139968,-90.9090909090909,4,2,2,75,0,1
140247,-90.9090909090909,4,2,1,75,0,1
140805,-90.9090909090909,4,2,90,75,0,1
140945,-90.9090909090909,4,2,1,75,0,1
142200,-90.9090909090909,4,2,3,75,0,1
142479,-90.9090909090909,4,2,1,75,0,1
146666,-90.9090909090909,4,2,3,75,0,1
146945,-90.9090909090909,4,2,1,75,0,1
147224,-90.9090909090909,4,2,2,75,0,1
147503,-90.9090909090909,4,2,1,75,0,1
150084,-90.9090909090909,4,2,1,5,0,1
150154,-250,4,2,1,65,0,0
150572,-250,4,2,6,50,0,0
152386,-250,4,2,6,50,0,0
159084,-166.666666666667,4,2,1,60,0,0
159503,-166.666666666667,4,2,6,60,0,0
160200,-250,4,2,6,60,0,0
161317,-166.666666666667,4,2,6,60,0,0
162712,-166.666666666667,4,2,6,35,0,0
162852,-166.666666666667,4,2,6,50,0,0
163131,-166.666666666667,4,2,6,35,0,0
163270,-166.666666666667,4,2,6,50,0,0
163549,-250,4,2,1,60,0,0
163968,-250,4,2,6,60,0,0
164107,-125,4,2,6,60,0,0
164666,-166.666666666667,4,2,6,60,0,0
164945,-166.666666666667,4,2,6,35,0,0
165084,-166.666666666667,4,2,6,50,0,0
165224,-166.666666666667,4,2,6,60,0,0
165363,-166.666666666667,4,2,6,35,0,0
165503,-166.666666666667,4,2,6,50,0,0
165642,-166.666666666667,4,2,6,60,0,0
167038,-166.666666666667,4,2,6,45,0,0
167177,-166.666666666667,4,2,6,65,0,0
167317,-166.666666666667,4,2,6,50,0,0
167456,-166.666666666667,4,2,6,70,0,0
167735,-166.666666666667,4,2,6,75,0,0
168014,-100,4,2,1,70,0,0
171363,-100,4,2,3,70,0,0
171503,-100,4,2,1,70,0,0
171782,-100,4,2,2,70,0,0
172061,-100,4,2,1,70,0,0
175828,-83.3333333333333,4,2,2,70,0,0
175968,-83.3333333333333,4,2,1,70,0,0
176247,-83.3333333333333,4,2,3,70,0,0
176386,-83.3333333333333,4,2,1,70,0,0
176596,-83.3333333333333,4,2,1,5,0,0
176666,-83.3333333333333,4,2,1,70,0,0
176735,-83.3333333333333,4,2,1,5,0,0
176805,-100,4,2,1,70,0,0
177224,-166.666666666667,4,2,1,70,0,0
177503,-142.857142857143,4,2,1,70,0,0
177782,-125,4,2,1,70,0,0
178061,-111.111111111111,4,2,1,70,0,0
178619,-100,4,2,1,70,0,0
178898,-90.9090909090909,4,2,1,70,0,0
179177,-83.3333333333333,4,2,1,70,0,0
179596,-76.9230769230769,4,2,1,70,0,0
180014,-71.4285714285714,4,2,1,70,0,0
180224,-71.4285714285714,4,2,1,5,0,0
180293,-71.4285714285714,4,2,2,70,0,0
180503,-71.4285714285714,4,2,1,5,0,0
180572,-71.4285714285714,4,2,1,70,0,0
180642,-71.4285714285714,4,2,1,5,0,0
180712,-66.6666666666667,4,2,3,70,0,0
180991,-66.6666666666667,4,2,1,70,0,0
181270,-100,4,2,1,70,0,0
184759,-83.3333333333333,4,2,2,70,0,0
184898,-83.3333333333333,4,2,1,70,0,0
185177,-83.3333333333333,4,2,3,70,0,0
185317,-83.3333333333333,4,2,1,70,0,0
185875,-83.3333333333333,4,2,1,70,0,0
186433,-90.9090909090909,4,2,1,70,0,0
189224,-83.3333333333333,4,2,2,70,0,0
189642,-83.3333333333333,4,2,3,70,0,0
189921,-83.3333333333333,4,2,1,70,0,0
190410,-83.3333333333333,4,2,1,5,0,0
190479,-90.9090909090909,4,2,1,70,0,0
193689,-90.9090909090909,4,2,3,70,0,0
193968,-90.9090909090909,4,2,1,70,0,0
194107,-90.9090909090909,4,2,2,70,0,0
194386,-90.9090909090909,4,2,1,70,0,0
198154,-83.3333333333333,4,2,3,70,0,0
198433,-83.3333333333333,4,2,1,70,0,0
198572,-83.3333333333333,4,2,2,70,0,0
198852,-83.3333333333333,4,2,1,70,0,0
199549,-90.9090909090909,4,2,1,70,0,0
202340,-83.3333333333333,4,2,1,70,0,0
202549,-90.9090909090909,4,2,1,5,0,0
202619,-90.9090909090909,4,2,3,70,0,0
202759,-90.9090909090909,4,2,1,70,0,0
203038,-90.9090909090909,4,2,2,70,0,0
203317,-90.9090909090909,4,2,1,70,0,0
203735,-83.3333333333333,4,2,1,70,0,0
204014,-90.9090909090909,4,2,1,70,0,0
205503,-90.9090909090909,4,2,1,5,0,0
205596,-90.9090909090909,4,2,1,70,0,0
205875,-90.9090909090909,4,2,1,5,0,0
205968,-90.9090909090909,4,2,1,70,0,0
206061,-90.9090909090909,4,2,1,5,0,0
206154,-90.9090909090909,4,2,1,70,0,0
206433,-90.9090909090909,4,2,1,5,0,0
206526,-90.9090909090909,4,2,1,70,0,0
207084,-83.3333333333333,4,2,3,70,0,0
207363,-83.3333333333333,4,2,1,70,0,0
207503,-83.3333333333333,4,2,2,70,0,0
207782,-83.3333333333333,4,2,1,70,0,0
208479,-90.9090909090909,4,2,1,70,0,0
211549,-83.3333333333333,4,2,3,70,0,0
211759,-83.3333333333333,4,2,1,5,0,0
211828,-83.3333333333333,4,2,1,70,0,0
211968,-83.3333333333333,4,2,2,70,0,0
212247,-83.3333333333333,4,2,1,70,0,0
212945,-90.9090909090909,4,2,1,70,0,0
213712,-90.9090909090909,4,2,1,5,0,0
213782,-90.9090909090909,4,2,1,70,0,0
216014,-83.3333333333333,4,2,2,70,0,0
216293,-83.3333333333333,4,2,1,70,0,0
216433,-83.3333333333333,4,2,3,70,0,0
216712,-83.3333333333333,4,2,1,70,0,0
217410,-90.9090909090909,4,2,1,70,0,0
219921,-76.9230769230769,4,2,1,70,0,0
220061,-76.9230769230769,4,2,90,70,0,0
220200,-76.9230769230769,4,2,1,70,0,0
220479,-83.3333333333333,4,2,3,70,0,0
220759,-83.3333333333333,4,2,1,70,0,0
220898,-83.3333333333333,4,2,2,70,0,0
221107,-83.3333333333333,4,2,1,5,0,0
221177,-83.3333333333333,4,2,1,70,0,0
222014,-90.9090909090909,4,2,1,70,0,0
223479,-90.9090909090909,4,2,1,5,0,0
223549,-90.9090909090909,4,2,1,70,0,0
224945,-83.3333333333333,4,2,3,70,0,0
225224,-83.3333333333333,4,2,1,70,0,0
225363,-83.3333333333333,4,2,2,70,0,0
225642,-83.3333333333333,4,2,1,70,0,0
226340,-90.9090909090909,4,2,1,70,0,0
226549,-90.9090909090909,4,2,1,5,0,0
226619,-90.9090909090909,4,2,1,70,0,0
228852,-83.3333333333333,4,2,1,70,0,0
229410,-83.3333333333333,4,2,3,70,0,0
229619,-83.3333333333333,4,2,1,5,0,0
229689,-83.3333333333333,4,2,1,70,0,0
229828,-83.3333333333333,4,2,2,70,0,0
230107,-83.3333333333333,4,2,1,70,0,0
230386,-83.3333333333333,4,2,1,70,0,1
233875,-83.3333333333333,4,2,3,70,0,1
233945,-83.3333333333333,4,2,1,70,0,1
234293,-71.4285714285714,4,2,2,70,0,1
234572,-71.4285714285714,4,2,1,70,0,1
234852,-83.3333333333333,4,2,1,70,0,1
236945,-71.4285714285714,4,2,1,70,0,1
237154,-71.4285714285714,4,2,1,5,0,1
237224,-83.3333333333333,4,2,1,70,0,1
238340,-83.3333333333333,4,2,3,70,0,1
238479,-83.3333333333333,4,2,1,70,0,1
238759,-71.4285714285714,4,2,2,70,0,1
239177,-100,4,2,1,70,0,1
239456,-83.3333333333333,4,2,1,70,0,1
239596,-83.3333333333333,4,2,6,70,0,1
248386,-83.3333333333333,4,2,1,70,0,1
248666,-83.3333333333333,4,2,6,70,0,1
248735,-83.3333333333333,4,2,1,70,0,1
248945,-83.3333333333333,4,2,6,70,0,1
249014,-83.3333333333333,4,2,1,70,0,1
249224,-83.3333333333333,4,2,6,70,0,1
249293,-83.3333333333333,4,2,1,70,0,1
249503,-83.3333333333333,4,2,6,70,0,1
249572,-83.3333333333333,4,2,1,70,0,1
249782,-83.3333333333333,4,2,6,70,0,1
249852,-83.3333333333333,4,2,1,70,0,1
250061,-83.3333333333333,4,2,6,70,0,1
250131,-83.3333333333333,4,2,1,70,0,1
250340,-83.3333333333333,4,2,6,70,0,1
250410,-83.3333333333333,4,2,1,70,0,1
250619,-83.3333333333333,4,2,6,70,0,1
250689,-83.3333333333333,4,2,1,70,0,1
250898,-83.3333333333333,4,2,6,70,0,1
250968,-83.3333333333333,4,2,1,70,0,1
251177,-83.3333333333333,4,2,6,70,0,1
251247,-83.3333333333333,4,2,1,70,0,1
251456,-83.3333333333333,4,2,6,70,0,1
251526,-83.3333333333333,4,2,1,70,0,1
251735,-83.3333333333333,4,2,6,70,0,1
251805,-83.3333333333333,4,2,1,70,0,1
252014,-83.3333333333333,4,2,6,70,0,1
252084,-83.3333333333333,4,2,1,70,0,1
252293,-83.3333333333333,4,2,6,70,0,1
252363,-83.3333333333333,4,2,1,70,0,1
252572,-83.3333333333333,4,2,6,70,0,1
252642,-83.3333333333333,4,2,1,70,0,1
252712,-83.3333333333333,4,2,90,70,0,1
252782,-83.3333333333333,4,2,90,5,0,1
252852,-83.3333333333333,4,2,6,70,0,1
252921,-83.3333333333333,4,2,1,70,0,1
253131,-83.3333333333333,4,2,6,70,0,1
253200,-83.3333333333333,4,2,1,70,0,1
253410,-83.3333333333333,4,2,6,70,0,1
253479,-83.3333333333333,4,2,1,70,0,1
253689,-83.3333333333333,4,2,6,70,0,1
253759,-83.3333333333333,4,2,1,70,0,1
253968,-83.3333333333333,4,2,6,70,0,1
254038,-83.3333333333333,4,2,1,70,0,1
254247,-83.3333333333333,4,2,6,70,0,1
254317,-83.3333333333333,4,2,1,70,0,1
254526,-83.3333333333333,4,2,6,70,0,1
254596,-83.3333333333333,4,2,1,70,0,1
254805,-83.3333333333333,4,2,6,70,0,1
254875,-83.3333333333333,4,2,1,70,0,1
255363,-83.3333333333333,4,2,6,70,0,1
255433,-83.3333333333333,4,2,1,70,0,1
255642,-83.3333333333333,4,2,6,70,0,1
255712,-83.3333333333333,4,2,1,70,0,1
255921,-83.3333333333333,4,2,6,70,0,1
255991,-83.3333333333333,4,2,1,70,0,1
256200,-83.3333333333333,4,2,6,70,0,1
256270,-83.3333333333333,4,2,1,70,0,1
256479,-83.3333333333333,4,2,6,70,0,1
256549,-83.3333333333333,4,2,1,70,0,1
256759,-83.3333333333333,4,2,6,70,0,1
256828,-83.3333333333333,4,2,1,70,0,1
257038,-83.3333333333333,4,2,6,70,0,1
257107,-83.3333333333333,4,2,1,70,0,1
257596,-83.3333333333333,4,2,6,70,0,1
257666,-83.3333333333333,4,2,1,70,0,1
257875,-83.3333333333333,4,2,6,70,0,1
257945,-83.3333333333333,4,2,1,70,0,1
258154,-83.3333333333333,4,2,6,70,0,1
258224,-83.3333333333333,4,2,1,70,0,1
258712,-83.3333333333333,4,2,2,70,0,1
258805,-83.3333333333333,4,2,1,70,0,1
259549,-100,4,2,1,70,0,0
260526,-100,4,2,2,70,0,0
260805,-100,4,2,1,70,0,0
262759,-100,4,2,3,70,0,0
263038,-100,4,2,1,70,0,0
263456,-100,4,2,1,70,0,0
263549,-100,4,2,1,5,0,0
263642,-100,4,2,1,70,0,0
263828,-100,4,2,1,70,0,0
263921,-100,4,2,1,5,0,0
264014,-100,4,2,1,70,0,0
264991,-100,4,2,2,70,0,0
265270,-100,4,2,1,70,0,0
267224,-100,4,2,3,70,0,0
267503,-100,4,2,1,70,0,0
268898,-166.666666666667,4,2,1,60,0,0
269317,-83.3333333333333,4,2,1,60,0,0
269596,-100,4,2,1,60,0,0
270014,-166.666666666667,4,2,1,60,0,0
270433,-83.3333333333333,4,2,1,60,0,0
270712,-100,4,2,1,60,0,0
271131,-166.666666666667,4,2,1,60,0,0
271549,-83.3333333333333,4,2,1,60,0,0
271828,-100,4,2,1,60,0,0
272247,-166.666666666667,4,2,1,60,0,0
272666,-83.3333333333333,4,2,1,60,0,0
272875,-83.3333333333333,4,2,1,5,0,0
272945,-100,4,2,1,60,0,0
273363,-166.666666666667,4,2,1,60,0,0
273782,-83.3333333333333,4,2,1,60,0,0
274061,-100,4,2,1,60,0,0
274479,-166.666666666667,4,2,1,60,0,0
274898,-83.3333333333333,4,2,1,60,0,0
275177,-100,4,2,1,60,0,0
275596,-166.666666666667,4,2,1,60,0,0
276014,-83.3333333333333,4,2,1,60,0,0
276293,-100,4,2,1,60,0,0
276503,-100,4,2,1,5,0,0
276572,-83.3333333333333,4,2,1,60,0,0
277410,-100,4,2,3,60,0,0
277689,-100,4,2,1,60,0,0
277828,-166.666666666667,4,2,1,60,0,0
278247,-83.3333333333333,4,2,1,60,0,0
278526,-100,4,2,1,60,0,0
278945,-166.666666666667,4,2,1,60,0,0
279363,-83.3333333333333,4,2,1,60,0,0
279642,-100,4,2,1,60,0,0
280061,-166.666666666667,4,2,1,60,0,0
280759,-100,4,2,1,60,0,0
282712,-83.3333333333333,4,2,1,60,0,0
282991,-100,4,2,1,60,0,0
284107,-100,4,2,2,70,0,0
285224,-100,4,2,1,70,0,0
286479,-100,4,2,1,50,0,0
286619,-100,4,2,1,70,0,0
286759,-83.3333333333333,4,2,1,70,0,0
286968,-83.3333333333333,4,2,1,5,0,0
287038,-100,4,2,1,60,0,0
287456,-100,4,2,1,70,0,0
287735,-100,4,2,7,70,0,0
297503,-200,4,2,6,55,0,0
297921,-200,4,2,6,45,0,0
298898,-200,4,2,6,30,0,0
299038,-200,4,2,6,45,0,0
299456,-200,4,2,6,30,0,0
299735,-200,4,2,6,45,0,0
300852,-200,4,2,6,30,0,0
300991,-200,4,2,6,45,0,0
301549,-200,4,2,6,30,0,0
301689,-200,4,2,6,45,0,0
301968,-250,4,2,6,50,0,0
303921,-250,4,2,6,30,0,0
304061,-250,4,2,6,50,0,0
305317,-250,4,2,50,70,0,0
305875,-250,4,2,2,50,0,0
306154,-250,4,2,2,60,0,0
306433,-90.9090909090909,4,2,5,75,0,1
306712,-90.9090909090909,4,2,1,75,0,1
310759,-90.9090909090909,4,2,2,75,0,1
311038,-90.9090909090909,4,2,1,75,0,1
311875,-90.9090909090909,4,2,3,75,0,1
312154,-90.9090909090909,4,2,1,75,0,1
312712,-90.9090909090909,4,2,90,75,0,1
312852,-90.9090909090909,4,2,1,75,0,1
314107,-90.9090909090909,4,2,3,75,0,1
314386,-90.9090909090909,4,2,1,75,0,1
318572,-90.9090909090909,4,2,3,75,0,1
318712,-90.9090909090909,4,2,1,75,0,1
319131,-90.9090909090909,4,2,2,75,0,1
319410,-90.9090909090909,4,2,1,75,0,1
320805,-333.333333333333,4,2,1,75,0,1
322061,-90.9090909090909,4,2,1,70,0,0
322340,-90.9090909090909,4,2,6,70,0,0
323038,-90.9090909090909,4,2,2,70,0,0
323317,-90.9090909090909,4,2,6,70,0,0
324154,-90.9090909090909,4,2,1,70,0,0
324433,-90.9090909090909,4,2,6,70,0,0
325270,-90.9090909090909,4,2,3,70,0,0
325549,-90.9090909090909,4,2,6,70,0,0
326526,-90.9090909090909,4,2,1,70,0,0
326805,-90.9090909090909,4,2,6,70,0,0
327503,-90.9090909090909,4,2,2,70,0,0
327782,-90.9090909090909,4,2,6,70,0,0
328619,-83.3333333333333,4,2,1,70,0,0
328898,-83.3333333333333,4,2,6,70,0,0
329735,-76.9230769230769,4,2,3,70,0,0
329945,-76.9230769230769,4,2,6,5,0,0
330014,-76.9230769230769,4,2,6,70,0,0
330852,-76.9230769230769,4,2,7,70,0,0

[Colours]
Combo1 : 255,128,0
Combo2 : 255,140,140
Combo3 : 255,194,166
Combo4 : 255,0,0

[HitObjects]
256,192,573,5,12,0:1:0:0:
256,192,642,12,12,2805,0:1:0:0:
256,192,2875,12,12,5038,0:1:0:0:
256,192,5107,12,12,7270,0:1:0:0:
138,229,8386,6,0,P|206:240|256:192,1,144,12|0,0:1|0:0,0:0:0:0:
396,152,8805,1,8,0:1:0:0:
298,34,8945,2,0,P|302:70|305:106,1,72,8|8,0:0|0:1,0:0:0:0:
299,115,9503,6,0,P|343:106|387:99,1,90,12|0,0:1|0:0,0:0:0:0:
463,249,9782,1,2,0:3:0:0:
459,274,10340,1,2,0:3:0:0:
455,299,10898,1,2,0:3:0:0:
451,324,11456,1,2,0:3:0:0:
447,349,11735,6,0,P|402:340|358:333,1,90,12|0,0:1|0:0,0:0:0:0:
212,202,12014,1,2,0:3:0:0:
193,320,12154,1,0,0:0:0:0:
216,177,12572,1,2,0:3:0:0:
220,152,13130,1,2,0:3:0:0:
224,127,13688,1,2,0:3:0:0:
228,102,13968,6,0,P|272:109|316:117,1,90,12|0,0:1|0:0,0:0:0:0:
97,73,14247,1,2,0:3:0:0:
429,143,14805,1,2,0:3:0:0:
170,215,15363,1,2,0:3:0:0:
336,286,15921,1,2,0:3:0:0:
257,364,16200,6,0,P|252:319|251:274,1,90,12|0,0:1|0:0,0:0:0:0:
316,117,16479,1,2,0:3:0:0:
316,117,16619,1,2,0:0:0:0:
208,165,16759,2,0,P|164:172|120:164,1,90,0|2,0:0|0:0,0:0:0:0:
250,274,17038,2,0,P|294:266|338:274,1,90,0|2,0:0|0:0,0:0:0:0:
327,9,17317,6,0,L|315:116,1,107.999996704102,12|0,0:1|0:0,0:0:0:0:
429,178,17596,1,8,0:0:0:0:
220,57,17735,2,0,L|208:164,1,107.999996704102,12|0,0:1|0:0,0:0:0:0:
435,184,18014,1,8,0:0:0:0:
113,105,18154,2,0,L|101:212,1,107.999996704102,12|0,0:1|0:0,0:0:0:0:
393,336,18433,6,2,L|421:67,1,270,2|0,0:1|0:0,0:1:0:0:
420,54,19549,5,8,0:0:0:0:
375,59,19618,1,8,0:3:0:0:
330,65,19688,1,4,0:3:0:0:
286,70,19758,1,4,0:3:0:0:
241,76,19828,2,0,L|233:131,1,53.9999983520508,8|8,0:1|0:1,0:0:0:0:
114,192,19968,5,8,0:0:0:0:
159,197,20037,1,8,0:3:0:0:
204,203,20107,1,4,0:3:0:0:
248,208,20177,1,4,0:3:0:0:
293,214,20247,2,0,L|301:269,1,53.9999983520508,8|8,0:1|0:1,0:0:0:0:
246,362,20386,6,0,P|214:279|302:268,1,202.500007724762,12|0,0:0|0:0,0:0:0:0:
472,185,20666,6,0,B|414:178|414:178|387:151|387:151|309:142,1,161.999995056153,12|0,0:1|0:0,0:0:0:0:
312,143,20945,1,10,0:0:0:0:
440,49,21084,1,0,0:0:0:0:
380,256,21224,2,0,L|397:348,1,90,2|8,0:0|0:1,0:0:0:0:
480,181,21503,1,8,0:0:0:0:
296,258,21642,6,0,L|112:229,1,180,12|8,0:1|0:1,0:0:0:0:
211,50,22061,2,0,L|230:158,1,90,10|0,0:0|0:0,0:0:0:0:
266,360,22340,1,2,0:0:0:0:
107,222,22479,1,8,0:1:0:0:
312,143,22619,1,8,0:0:0:0:
127,316,22759,6,0,P|43:295|13:213,1,180,12|8,0:1|0:1,0:0:0:0:
274,270,23177,2,0,L|265:359,1,90,10|0,0:0|0:0,0:0:0:0:
139,114,23456,2,0,L|231:139,1,90,2|8,0:0|0:1,0:0:0:0:
427,188,23735,1,8,0:0:0:0:
320,0,23875,6,0,B|294:43|294:43|316:170,1,180,12|8,0:1|0:1,0:0:0:0:
502,271,24293,2,0,L|413:287,1,90,10|0,0:0|0:0,0:0:0:0:
225,137,24572,1,2,0:0:0:0:
381,80,24712,1,8,0:1:0:0:
274,270,24852,2,0,P|198:277|149:234,1,135,10|0,0:0|0:0,0:0:0:0:
225,137,25131,6,0,B|130:116|157:196|58:180,1,180,12|8,0:1|0:0,0:0:0:0:
251,46,25549,1,0,0:0:0:0:
54,8,25689,2,0,P|68:59|79:112,1,90,2|8,0:0|0:1,0:0:0:0:
131,330,25968,1,8,0:0:0:0:
224,137,26107,6,0,P|310:147|351:223,1,180,12|8,0:1|0:1,0:0:0:0:
261,366,26526,2,0,B|246:326|246:326|257:280,1,90,10|0,0:0|0:0,0:0:0:0:
501,194,26805,1,2,0:0:0:0:
329,324,26945,1,8,0:1:0:0:
224,137,27084,1,8,0:0:0:0:
351,223,27224,6,0,P|357:135|370:34,1,180,12|8,0:1|0:1,0:0:0:0:
146,112,27642,2,0,P|142:156|164:195,1,90,10|0,0:0|0:0,0:0:0:0:
278,60,27921,1,2,0:0:0:0:
186,287,28061,2,0,P|142:279|87:271,1,90,8|8,0:1|0:0,0:0:0:0:
345,374,28340,6,0,L|329:239,1,135,12|0,0:1|0:0,0:0:0:0:
315,146,28619,1,8,0:0:0:0:
433,263,28759,1,8,0:0:0:0:
409,44,28898,1,8,0:0:0:0:
247,202,29038,5,8,0:0:0:0:
455,117,29177,1,8,0:0:0:0:
260,0,29317,5,8,0:0:0:0:
329,239,29456,1,8,0:0:0:0:
123,98,29596,6,0,P|66:97|23:181,1,135,12|0,0:1|0:0,0:0:0:0:
15,167,29875,2,0,P|69:176|107:193,1,90,10|0,0:0|0:0,0:0:0:0:
53,363,30154,2,0,L|39:263,1,90,10|0,0:1|0:0,0:0:0:0:
179,351,30433,1,10,0:0:0:0:
255,194,30572,6,0,B|360:205|308:259|413:274,1,180,12|8,0:1|0:1,0:0:0:0:
426,90,30991,2,0,P|415:135|408:182,1,90,10|0,0:0|0:0,0:0:0:0:
346,20,31270,1,2,0:0:0:0:
496,154,31410,1,8,0:1:0:0:
326,259,31549,1,10,0:0:0:0:
176,125,31689,6,0,P|142:161|160:299,1,180,12|8,0:1|0:1,0:0:0:0:
333,348,32107,2,0,L|325:250,1,90,10|0,0:0|0:0,0:0:0:0:
402,88,32386,2,0,L|407:177,1,90,10|8,0:1|0:1,0:0:0:0:
511,302,32666,1,10,0:0:0:0:
315,158,32805,6,0,B|250:167|250:167|221:199|221:199|148:210,1,180,12|8,0:1|0:1,0:0:0:0:
18,82,33224,2,0,L|112:103,1,90,10|0,0:0|0:0,0:0:0:0:
206,45,33503,1,2,0:0:0:0:
68,182,33642,1,8,0:1:0:0:
225,295,33782,2,0,P|208:229|141:211,1,135,10|0,0:0|0:0,0:0:0:0:
85,343,34061,6,0,B|122:343|148:324|148:324|181:379|240:376,1,180,12|10,0:1|0:0,0:0:0:0:
422,315,34479,1,0,0:0:0:0:
321,231,34619,2,0,B|313:268|313:268|325:328,1,90,2|8,0:0|0:1,0:0:0:0:
416,154,34898,1,10,0:0:0:0:
223,221,35038,6,0,P|142:195|135:111,1,180,12|8,0:1|0:1,0:0:0:0:
306,24,35456,2,0,L|400:37,1,90,10|0,0:0|0:0,0:0:0:0:
321,231,35735,1,2,0:0:0:0:
226,92,35875,1,8,0:1:0:0:
323,319,36014,1,8,0:0:0:0:
501,154,36154,6,0,B|399:164|442:221|338:228,1,180,12|8,0:1|0:1,0:0:0:0:
210,3,36572,2,0,P|221:61|229:112,1,90,10|0,0:0|0:0,0:0:0:0:
98,269,36852,2,0,P|110:227|142:196,1,90,2|8,0:0|0:1,0:0:0:0:
323,319,37131,1,10,0:0:0:0:
237,91,37270,6,0,P|233:162|228:244,1,135,12|0,0:1|0:0,0:0:0:0:
219,318,37549,1,8,0:0:0:0:
321,142,37689,1,8,0:0:0:0:
142,196,37828,1,8,0:0:0:0:
103,20,37968,5,8,0:0:0:0:
229,225,38107,1,8,0:0:0:0:
11,191,38247,5,8,0:0:0:0:
237,91,38386,1,4,0:3:0:0:
119,343,38526,6,0,P|105:246|91:162,1,180,12|2,0:1|0:0,0:0:0:0:
456,67,39642,6,0,P|374:92|313:31,1,180,2|2,0:0|0:0,0:0:0:0:
83,299,40759,6,0,P|127:287|187:279,1,90,0|0,3:0|3:1,0:0:0:0:
253,166,41177,2,0,P|259:188|266:222,1,45,0|0,3:0|1:0,0:0:0:0:
317,368,41456,2,0,P|321:346|327:324,1,45,0|0,3:0|0:0,0:0:0:0:
430,247,41735,1,0,3:0:0:0:
375,89,41875,6,0,P|330:83|287:69,1,90,2|0,0:0|0:0,0:0:0:0:
165,185,42293,2,0,P|207:171|252:165,1,90,2|2,0:0|0:0,0:0:0:0:
102,47,42712,2,0,P|97:74|90:105,1,45,2|0,0:0|0:0,0:0:0:0:
61,315,42991,6,0,B|111:249|180:290|180:290|165:340,1,180,0|0,3:0|1:0,0:0:0:0:
412,31,44107,6,0,B|426:108|426:108|421:123|421:123|437:212,1,180,2|2,0:0|0:0,0:0:0:0:
334,350,45224,6,0,P|275:286|185:325,1,180,0|0,3:0|1:0,0:0:0:0:
195,310,46340,5,2,0:0:0:0:
228,179,46619,1,2,0:0:0:0:
95,146,46898,1,2,0:0:0:0:
62,277,47177,1,2,0:0:0:0:
195,310,47456,6,0,P|255:293|325:288,1,125.999996154785,12|2,0:1|0:0,0:0:0:0:
495,251,47875,1,0,3:0:0:0:
403,126,48014,2,0,P|396:157|388:217,1,62.9999980773926,0|0,1:0|0:0,0:0:0:0:
330,348,48293,2,0,P|325:317|317:287,1,62.9999980773926,0|0,3:0|0:0,0:0:0:0:
239,186,48572,6,0,P|183:226|118:200,1,125.999996154785,2|0,0:0|0:0,0:0:0:0:
59,122,48991,2,0,L|71:53,1,62.9999980773926,2|0,0:0|0:0,0:0:0:0:
131,212,49270,1,2,0:0:0:0:
131,212,49410,2,0,L|119:281,1,62.9999980773926,2|0,0:3|0:0,0:0:0:0:
215,346,49689,6,0,P|275:334|346:324,1,125.999996154785,10|0,0:1|3:1,0:0:0:0:
453,217,50107,2,0,P|422:214|376:203,1,62.9999980773926,0|0,3:0|1:0,0:0:0:0:
247,163,50386,2,0,P|254:193|263:236,1,62.9999980773926,2|0,0:0|0:0,0:0:0:0:
302,67,50666,1,0,3:0:0:0:
150,216,50805,2,0,P|93:229|42:181,1,125.999996154785,2|0,0:0|0:0,0:0:0:0:
187,368,51224,2,0,P|192:334|198:296,1,62.9999980773926,2|0,0:0|0:0,0:0:0:0:
235,69,51503,5,2,0:0:0:0:
337,116,51642,1,2,0:0:0:0:
415,32,51782,1,2,0:0:0:0:
229,53,51921,5,10,0:1:0:0:
318,260,52061,2,0,P|327:198|341:137,1,125.999996154785,8|0,0:1|3:0,0:0:0:0:
491,322,52479,2,0,P|441:363|370:334,1,125.999996154785,0|2,1:0|0:0,0:0:0:0:
318,260,52898,1,2,0:0:0:0:
234,349,53038,6,0,P|226:314|219:278,1,62.9999980773926,2|0,0:0|0:0,0:0:0:0:
117,175,53317,1,0,0:0:0:0:
117,175,53456,2,0,P|110:205|103:236,1,62.9999980773926,2|0,0:0|0:0,0:0:0:0:
79,348,53735,1,2,0:0:0:0:
79,348,53875,2,0,P|111:341|153:336,1,62.9999980773926,0|2,0:0|0:0,0:0:0:0:
379,315,54154,5,8,0:1:0:0:
302,375,54293,2,0,B|266:335|266:335|289:238,1,144,8|0,0:1|0:0,0:0:0:0:
359,165,54712,2,0,B|414:175|414:175|434:201|434:201|504:213,1,144,0|2,1:0|0:0,0:0:0:0:
331,19,55131,1,0,3:0:0:0:
268,106,55270,2,0,L|184:121,1,72,2|0,0:0|0:0,0:0:0:0:
48,221,55549,2,0,L|132:236,1,72,2|0,0:0|0:0,0:0:0:0:
253,247,55828,5,8,0:0:0:0:
89,123,55968,1,8,0:0:0:0:
159,351,56107,5,8,0:0:0:0:
338,184,56247,1,8,0:0:0:0:
79,18,56386,6,0,P|-2:70|19:170,1,180,12|0,0:1|3:0,0:0:0:0:
139,238,56805,6,0,B|181:229|181:229|210:241|210:241|255:230,1,107.999996704102,10|0,0:1|3:0,0:0:0:0:
103,363,57224,6,0,P|60:348|-7:331,1,107.999996704102,10|0,0:0|0:0,0:0:0:0:
253,146,57503,6,0,B|362:158|304:227|414:248,1,180,10|0,0:1|3:0,0:0:0:0:
134,232,57921,6,0,P|142:187|156:109,1,107.999996704102,10|0,0:1|3:0,0:0:0:0:
275,278,58340,6,0,P|285:342|293:397,1,107.999996704102,10|0,0:0|0:0,0:0:0:0:
454,165,58619,6,0,P|512:235|483:316,1,180,10|0,0:1|3:0,0:0:0:0:
275,278,59038,6,0,P|318:263|396:242,1,107.999996704102,10|0,0:1|3:0,0:0:0:0:
199,344,59456,6,0,B|163:309|163:309|179:239,1,107.999996704102,10|0,0:0|0:0,0:0:0:0:
298,116,59735,6,0,B|243:131|243:131|189:104|189:104|118:123,1,180,10|0,0:1|3:0,0:0:0:0:
309,1,60154,6,0,P|362:15|429:30,1,107.999996704102,10|8,0:1|0:1,0:0:0:0:
128,120,60572,6,0,P|121:83|107:13,1,107.999996704102,10|0,0:0|0:0,0:0:0:0:
275,105,60852,6,0,P|260:180|245:289,1,180,10|0,0:1|3:0,0:0:0:0:
393,359,61270,6,0,P|386:320|370:237,1,107.999996704102,10|0,0:1|3:0,0:0:0:0:
170,384,61689,6,0,B|132:376|132:376|115:359|115:359|62:347,1,107.999996704102,10|0,0:0|0:0,0:0:0:0:
0,207,61968,6,0,P|54:190|174:150,1,180,10|0,0:1|3:0,0:0:0:0:
79,82,62386,1,10,0:1:0:0:
79,82,62666,1,0,3:0:0:0:
212,39,62805,2,0,P|168:22|128:-3,1,90,10|0,0:0|0:0,0:0:0:0:
0,194,63084,6,0,P|17:278|35:376,1,180,10|0,0:1|3:0,0:0:0:0:
255,258,63503,2,0,B|280:223|280:223|268:170,1,90,10|0,0:1|0:0,0:0:0:0:
87,183,63782,1,0,3:0:0:0:
187,202,63921,2,0,P|145:188|86:169,1,90,10|0,0:0|0:0,0:0:0:0:
163,384,64200,6,0,B|215:370|215:370|234:347|234:347|296:332,1,135,10|0,0:1|0:0,0:0:0:0:
301,349,64479,2,0,P|293:322|278:247,1,90,8|0,0:0|3:0,0:0:0:0:
251,93,64759,5,8,0:1:0:0:
235,125,64898,1,8,0:1:0:0:
351,132,65038,5,8,0:0:0:0:
156,27,65177,1,8,0:0:0:0:
280,261,65317,6,0,P|342:228|468:214,1,180,12|0,0:1|3:0,0:0:0:0:
220,328,65735,2,0,P|192:296|195:225,1,90,10|0,0:1|0:0,0:0:0:0:
351,132,66014,1,0,3:0:0:0:
270,65,66154,2,0,P|227:53|172:33,1,90,10|0,0:0|0:0,0:0:0:0:
280,261,66433,5,10,0:1:0:0:
280,261,66712,1,0,3:0:0:0:
206,384,66852,2,0,B|304:367|249:298|352:293,1,180,10|0,0:1|3:0,0:0:0:0:
62,265,67270,2,0,P|81:337|92:383,1,90,10|0,0:0|0:0,0:0:0:0:
185,212,67549,6,0,P|191:177|207:98,1,90,10|0,0:1|0:0,0:0:0:0:
281,75,67828,1,0,3:0:0:0:
131,2,67968,2,0,P|51:29|36:116,1,180,10|0,0:1|3:0,0:0:0:0:
103,186,68386,1,10,0:0:0:0:
103,186,68526,1,0,0:0:0:0:
0,301,68666,6,0,B|67:285|67:285|114:310|114:310|182:296,1,180,10|0,0:1|3:0,0:0:0:0:
310,219,69084,2,0,P|265:209|225:175,1,90,10|0,0:1|0:0,0:0:0:0:
333,327,69363,1,8,0:1:0:0:
250,384,69503,2,0,P|267:350|317:324,1,90,10|0,0:0|3:0,0:0:0:0:
504,319,69782,5,10,0:1:0:0:
504,319,70061,1,0,3:0:0:0:
437,384,70200,2,0,B|451:310|451:310|456:306|456:306|475:210,1,180,10|0,0:1|3:0,0:0:0:0:
286,132,70619,2,0,P|301:187|312:227,1,90,8|0,0:0|0:0,0:0:0:0:
370,62,70898,6,0,P|230:26|166:9,1,180,10|0,0:1|3:0,0:0:0:0:
445,119,71317,2,0,B|473:86|473:86|458:34,1,90,10|0,0:1|0:0,0:0:0:0:
286,132,71596,1,0,3:0:0:0:
418,245,71735,2,0,P|450:229|518:204,1,90,10|0,0:0|0:0,0:0:0:0:
330,367,72014,5,12,0:1:0:0:
188,252,72154,1,8,0:0:0:0:
188,252,72224,1,8,0:0:0:0:
188,252,72293,1,8,0:0:0:0:
358,186,72433,1,8,0:0:0:0:
294,267,72712,5,8,0:3:0:0:
294,267,72852,1,4,0:3:0:0:
28,357,73131,5,8,1:2:0:0:
82,82,73270,1,8,1:2:0:0:
294,267,73410,1,12,0:1:0:0:
294,267,73689,6,0,P|264:275|233:278,1,63
216,280,74247,6,0,L|417:304,1,198.000006042481,14|8,0:1|0:0,0:0:0:0:
492,157,74666,1,0,0:0:0:0:
337,70,74805,2,0,P|344:119|352:168,1,99.0000030212403,2|8,0:0|0:1,0:0:0:0:
225,130,75084,1,8,0:0:0:0:
437,6,75224,1,0,0:0:0:0:
352,168,75363,6,0,P|344:216|337:265,1,99.0000030212403,10|0,0:1|0:0,0:0:0:0:
128,116,75642,2,0,P|176:123|225:130,1,99.0000030212403,8|0,0:0|0:0,0:0:0:0:
459,286,75921,2,0,P|410:294|361:301,1,99.0000030212403,2|8,0:0|0:1,0:0:0:0:
138,256,76200,2,0,P|126:303|142:353,1,99.0000030212403,8|0,0:0|0:0,0:0:0:0:
352,167,76479,6,0,B|389:124|390:69|356:27|356:27|338:44|337:67,1,198.000006042481,10|8,0:1|0:0,0:0:0:0:
58,119,76898,1,0,0:0:0:0:
211,14,77038,1,10,0:1:0:0:
209,228,77177,1,8,0:1:0:0:
24,119,77317,1,8,0:0:0:0:
272,121,77456,6,0,P|322:116|371:112,1,99.0000030212403,10|0,0:1|0:0,0:0:0:0:
200,233,77735,1,10,0:1:0:0:
432,315,77875,1,10,0:0:0:0:
190,237,78014,2,0,P|140:232|91:228,1,99.0000030212403,10|0,0:1|0:0,0:0:0:0:
396,193,78293,1,8,0:1:0:0:
215,364,78433,1,8,0:0:0:0:
406,197,78572,6,0,P|456:192|505:188,1,99.0000030212403,12|0,0:1|0:0,0:0:0:0:
361,339,78852,1,10,0:1:0:0:
268,82,78991,2,0,P|282:129|285:178,1,99.0000030212403,10|2,0:0|0:0,0:0:0:0:
108,324,79270,2,0,P|93:276|90:227,1,99.0000030212403,10|8,0:1|0:1,0:0:0:0:
230,349,79549,1,8,0:0:0:0:
1,235,79689,6,0,P|42:150|137:147,1,198.000006042481,12|10,0:1|0:1,0:0:0:0:
289,217,80107,1,10,0:0:0:0:
137,147,80247,1,2,0:0:0:0:
271,2,80386,2,0,P|263:51|257:100,1,99.0000030212403,2|8,0:0|0:1,0:0:0:0:
387,151,80666,1,10,0:0:0:0:
137,147,80805,6,0,P|87:229|121:319,1,198.000006042481,12|8,0:1|0:1,0:0:0:0:
262,58,81224,1,8,0:0:0:0:
387,151,81363,1,0,0:0:0:0:
245,212,81503,1,2,0:0:0:0:
370,304,81642,1,8,0:1:0:0:
228,365,81782,1,8,0:0:0:0:
511,243,81921,6,0,B|469:227|469:227|422:241|422:241|323:208,1,198.000006042481,12|8,0:1|0:1,0:0:0:0:
34,133,82340,2,0,B|78:109|78:109|57:205,1,148.50000453186,8|0,0:0|0:0,0:0:0:0:
52,226,82619,6,0,L|118:213,1,67.5000025749208,8|0,1:2|0:0,0:0:0:0:
172,294,82759,6,0,L|238:281,1,67.5000025749208,0|0,1:2|0:0,0:0:0:0:
292,362,82898,6,0,L|358:349,1,67.5000025749208,8|0,1:2|0:0,0:0:0:0:
470,222,83038,6,0,P|402:160|323:208,1,198.000006042481,12|8,0:1|0:1,0:0:0:0:
130,87,83456,2,0,P|178:95|227:100,1,99.0000030212403,8|0,0:0|0:0,0:0:0:0:
398,244,83735,1,2,0:0:0:0:
326,27,83875,1,8,0:1:0:0:
178,197,84014,2,0,P|165:244|171:293,1,99.0000030212403,8|0,0:0|0:0,0:0:0:0:
441,148,84293,6,0,P|391:153|343:161,1,99.0000030212403,10|0,0:1|0:0,0:0:0:0:
130,87,84572,2,0,P|178:95|227:100,1,99.0000030212403,8|0,0:0|0:0,0:0:0:0:
390,312,84852,1,2,0:0:0:0:
343,161,84991,1,8,0:1:0:0:
239,359,85131,1,8,0:0:0:0:
192,208,85270,1,0,0:0:0:0:
390,312,85410,6,0,B|284:343|304:252|202:285,1,198.000006042481,10|8,0:1|0:0,0:0:0:0:
23,349,85828,1,0,0:0:0:0:
280,165,85968,2,0,P|256:261|238:358,1,198.000006042481,10|8,0:1|0:0,0:0:0:0:
160,82,86386,5,12,0:1:0:0:
425,162,86526,1,0,0:0:0:0:
163,253,86666,1,10,0:1:0:0:
322,26,86805,1,8,0:0:0:0:
325,301,86945,6,0,P|309:255|310:206,1,99.0000030212403,12|0,0:1|0:0,0:0:0:0:
475,64,87224,1,8,0:1:0:0:
335,329,87363,1,8,0:0:0:0:
160,82,87503,6,0,P|70:103|72:195,1,198.000006042481,12|10,0:1|0:1,0:0:0:0:
274,112,87921,2,0,P|270:62|273:9,1,99.0000030212403,8|2,0:0|0:0,0:0:0:0:
230,328,88200,5,10,0:1:0:0:
383,61,88340,1,8,0:0:0:0:
71,193,88479,1,8,0:0:0:0:
468,349,88619,1,12,0:1:0:0:
125,211,89875,6,0,B|194:198|194:198|230:217|230:217|311:200,1,180,12|8,0:1|0:0,0:0:0:0:
476,318,90293,1,0,0:0:0:0:
375,347,90433,2,0,P|380:299|387:255,1,90,10|0,0:1|0:0,0:0:0:0:
174,135,90712,1,10,0:0:0:0:
273,26,90852,6,0,P|283:113|298:204,1,180,12|8,0:1|0:1,0:0:0:0:
190,322,91270,2,0,P|145:328|102:303,1,90,10|0,0:0|0:0,0:0:0:0:
39,78,91549,1,2,0:0:0:0:
165,220,91689,1,8,0:1:0:0:
0,314,91828,1,10,0:0:0:0:
82,166,91968,6,0,P|171:179|261:190,1,180,12|0,0:1|0:0,0:0:0:0:
345,102,92386,2,0,P|335:55|325:1,1,90,10|0,0:0|0:0,0:0:0:0:
458,158,92666,1,10,0:1:0:0:
421,274,92805,2,0,P|380:296|331:286,1,90,8|8,0:1|0:0,0:0:0:0:
171,123,93084,6,0,B|199:113|219:93|219:93|195:230,1,180,12|8,0:1|0:1,0:0:0:0:
92,340,93503,2,0,L|191:324,1,90,10|0,0:0|0:0,0:0:0:0:
389,180,93782,2,0,L|290:164,1,90,2|8,0:0|0:1,0:0:0:0:
78,116,94061,1,10,0:0:0:0:
222,25,94200,5,0,3:0:0:0:
222,25,94270,1,0,3:0:0:0:
222,25,94340,2,0,P|211:66|201:116,1,90,12|0,0:1|0:0,0:0:0:0:
76,303,94619,2,0,P|67:258|55:215,1,90,10|0,0:0|0:0,0:0:0:0:
116,48,94898,1,2,0:0:0:0:
170,236,95038,1,8,0:1:0:0:
307,92,95177,1,10,0:0:0:0:
170,236,95317,6,0,B|273:219|237:296|343:273,1,180,12|8,0:1|0:1,0:0:0:0:
445,182,95735,2,0,P|437:134|432:87,1,90,10|0,0:0|0:0,0:0:0:0:
338,274,96014,2,0,P|346:322|351:369,1,90,2|8,0:0|0:1,0:0:0:0:
323,150,96293,1,10,0:0:0:0:
239,333,96433,6,0,P|155:347|96:267,1,180,12|8,0:1|0:1,0:0:0:0:
27,150,96852,2,0,P|69:144|127:133,1,90,10|0,0:0|0:0,0:0:0:0:
279,100,97131,1,2,0:0:0:0:
57,51,97270,1,8,0:1:0:0:
227,247,97410,1,10,0:0:0:0:
174,39,97549,6,0,P|156:118|136:219,1,180,12|8,0:1|0:0,0:0:0:0:
196,362,97968,5,8,0:0:0:0:
288,156,98107,1,8,0:0:0:0:
393,286,98247,5,8,0:0:0:0:
136,215,98386,1,8,0:0:0:0:
373,102,98526,5,8,0:0:0:0:
226,269,98666,1,8,0:1:0:0:
158,17,98805,1,12,0:1:0:0:
155,170,107735,5,12,0:1:0:0:
70,149,107875,1,0,3:0:0:0:
63,61,108014,1,2,0:0:0:0:
144,28,108154,1,8,0:1:0:0:
201,95,108293,5,10,0:0:0:0:
212,89,108433,1,0,3:0:0:0:
279,36,108572,2,0,P|319:40|368:39,1,90,8|0,0:1|0:0,0:0:0:0:
359,299,108852,5,2,0:0:0:0:
444,278,108992,1,8,0:1:0:0:
451,190,109131,1,8,0:0:0:0:
370,157,109271,1,0,3:0:0:0:
313,224,109410,5,10,0:1:0:0:
302,218,109550,1,8,0:1:0:0:
235,165,109689,2,0,P|195:169|155:170,1,80.9999975280763,8|0,0:0|0:0,0:0:0:0:
34,284,109968,6,0,P|114:277|195:277,1,161.999995056153,10|0,0:1|3:0,0:0:0:0:
315,304,110386,2,0,P|314:264|313:224,1,80.9999975280763,10|8,0:1|0:0,0:0:0:0:
422,285,110666,2,0,P|420:327|420:374,2,80.9999975280763,10|0|0,0:1|0:0|3:0,0:0:0:0:
464,149,111083,5,2,0:0:0:0:
389,183,111224,1,8,0:1:0:0:
337,120,111363,1,8,0:0:0:0:
262,154,111504,1,0,3:0:0:0:
210,90,111642,2,0,P|208:50|208:10,1,80.9999975280763,8|8,0:1|0:1,0:0:0:0:
135,169,111921,1,8,0:0:0:0:
43,60,112061,1,0,0:0:0:0:
43,60,112131,1,0,0:0:0:0:
43,60,112200,6,0,B|53:110|53:110|33:157|33:157|42:216,1,161.999995056153,10|0,0:1|3:0,0:0:0:0:
165,358,112619,1,8,0:1:0:0:
201,275,112759,2,0,B|163:259|163:259|125:274,1,80.9999975280763,8|0,0:0|0:0,0:0:0:0:
17,352,113038,1,10,0:1:0:0:
117,283,113177,6,0,L|278:270,1,161.999995056153,2|8,0:0|0:1,0:0:0:0:
364,227,113596,1,8,0:0:0:0:
278,270,113735,1,0,3:0:0:0:
283,174,113875,1,8,0:1:0:0:
368,130,114014,1,10,0:1:0:0:
448,182,114154,1,8,0:0:0:0:
444,277,114293,1,2,0:0:0:0:
358,322,114433,5,10,0:1:0:0:
358,322,114712,2,0,P|356:281|353:241,1,80.9999975280763,0|8,3:0|0:1,0:0:0:0:
289,96,114991,2,0,B|340:115|340:115|392:105|408:39,1,161.999995056153,8|8,0:0|0:1,0:0:0:0:
408,40,115410,1,0,3:0:0:0:
501,182,115549,6,0,P|460:180|420:177,1,80.9999975280763,2|8,0:0|0:1,0:0:0:0:
288,283,115828,2,0,P|247:280|207:278,1,80.9999975280763,8|0,0:0|0:0,0:0:0:0:
52,169,116107,1,8,0:0:0:0:
235,78,116247,1,8,0:0:0:0:
38,169,116386,1,8,0:0:0:0:
288,283,116526,1,8,0:0:0:0:
138,49,116666,6,0,P|146:93|142:138,1,90,12|0,0:1|0:0,0:0:0:0:
90,256,116945,1,0,3:0:0:0:
241,176,117084,6,0,P|294:178|335:210,1,107.999996704102,10|0,0:1|3:0,0:0:0:0:
442,16,117503,6,0,P|376:16|372:99,1,161.999995056153,10|0,0:0|0:0,0:0:0:0:
452,189,117782,6,0,P|454:146|459:92,1,90,10|0,0:1|0:0,0:0:0:0:
493,281,118061,1,0,3:0:0:0:
335,210,118200,6,0,P|330:263|324:317,1,107.999996704102,10|0,0:1|3:0,0:0:0:0:
142,136,118619,6,0,P|216:133|228:206,1,161.999995056153,10|0,0:0|0:0,0:0:0:0:
201,286,118898,6,0,B|133:296|133:296|107:336|107:336|38:347,1,180,10|0,0:1|3:0,0:0:0:0:
38,117,119317,6,0,P|75:154|127:152,1,107.999996704102,10|0,0:1|3:0,0:0:0:0:
268,27,119735,6,0,B|222:2|222:2|243:114,1,161.999995056153,10|0,0:0|0:0,0:0:0:0:
333,185,120014,6,0,P|335:140|340:95,1,90,10|0,0:1|0:0,0:0:0:0:
422,239,120293,1,0,3:0:0:0:
256,349,120433,6,0,P|291:319|336:320,1,80.9999975280763,10|0,0:1|0:0,0:0:0:0:
336,322,120712,5,8,0:1:0:0:
131,238,120852,1,10,0:0:0:0:
131,238,121131,6,0,P|128:193|122:148,1,90,10|0,0:1|0:0,0:0:0:0:
13,224,121410,1,0,3:0:0:0:
57,39,121549,6,0,P|105:61|158:63,1,107.999996704102,10|0,0:1|3:0,0:0:0:0:
333,185,121968,6,0,B|311:207|311:207|266:143|312:87,1,161.999995056153,10|0,0:0|0:0,0:0:0:0:
427,149,122247,6,0,P|423:193|421:238,1,90,10|0,0:1|0:0,0:0:0:0:
428,336,122526,1,0,3:0:0:0:
217,297,122666,6,0,P|268:286|308:319,1,107.999996704102,10|0,0:1|3:0,0:0:0:0:
198,157,123084,6,0,B|142:165|142:165|118:199|118:199|54:209,1,161.999995056153,10|0,0:0|0:0,0:0:0:0:
7,107,123363,6,0,P|96:83|100:152,1,180,10|0,0:1|3:0,0:0:0:0:
197,369,123782,6,0,B|222:335|222:335|209:270,1,107.999996704102,10|0,0:1|3:0,0:0:0:0:
312,87,124200,6,0,B|412:96|365:144|461:155,1,161.999995056153,10|0,0:0|0:0,0:0:0:0:
479,54,124479,6,0,P|435:54|402:83,1,90,10|0,0:1|0:0,0:0:0:0:
224,169,124759,2,0,P|268:177|319:189,1,90,8|0,0:0|0:0,0:0:0:0:
112,78,125038,5,8,0:1:0:0:
209,270,125177,1,8,0:1:0:0:
213,26,125317,5,8,0:0:0:0:
54,209,125456,1,8,0:0:0:0:
212,351,125596,6,0,P|214:306|218:261,1,90,12|0,0:1|0:0,0:0:0:0:
231,152,125875,1,0,3:0:0:0:
336,291,126014,6,0,B|413:281|378:246|456:238,1,135,10|0,0:1|0:0,0:0:0:0:
468,240,126293,1,0,3:0:0:0:
289,83,126433,6,0,P|313:120|318:164,1,90,10|0,0:0|0:0,0:0:0:0:
54,209,126712,5,10,0:1:0:0:
151,190,126852,1,0,0:0:0:0:
218,261,126991,1,0,3:0:0:0:
149,96,127131,6,0,B|101:47|16:72|16:72|45:108,1,180,10|0,0:1|3:0,0:0:0:0:
236,18,127549,1,10,0:0:0:0:
236,18,127828,6,0,P|242:63|249:111,1,90,10|0,0:1|0:0,0:0:0:0:
367,34,128107,1,0,3:0:0:0:
315,200,128247,6,0,P|361:153|426:154,1,135,10|0,0:1|0:0,0:0:0:0:
436,159,128526,1,0,3:0:0:0:
384,359,128666,6,0,P|396:315|377:271,1,90,10|0,0:0|0:0,0:0:0:0:
248,107,128945,5,10,0:1:0:0:
299,201,129084,1,0,0:0:0:0:
225,279,129224,1,0,3:0:0:0:
89,174,129363,6,0,B|155:157|155:157|184:121|184:121|249:106,1,180,10|8,0:1|0:1,0:0:0:0:
116,298,129782,2,0,P|71:287|28:277,1,90,10|0,0:0|0:0,0:0:0:0:
293,340,130061,5,10,0:1:0:0:
293,340,130340,1,0,3:0:0:0:
220,200,130479,2,0,B|186:260|186:260|208:368,1,180,10|0,0:1|3:0,0:0:0:0:
380,274,130898,2,0,P|427:278|461:303,1,90,8|0,0:0|0:0,0:0:0:0:
512,83,131177,6,0,B|411:96|464:152|353:172,1,180,10|0,0:1|3:0,0:0:0:0:
202,84,131596,1,8,0:1:0:0:
278,11,131735,6,0,P|287:57|301:108,1,90,2|0,0:0|3:0,0:0:0:0:
121,142,132014,2,0,P|112:96|98:45,1,90,10|0,0:0|0:0,0:0:0:0:
220,200,132293,5,12,0:1:0:0:
25,157,132433,1,8,0:0:0:0:
25,157,132503,1,8,0:0:0:0:
25,157,132572,1,8,0:0:0:0:
98,355,132712,6,0,B|137:306|197:317|197:317|185:341,1,135,8|0,0:0|0:0,0:0:0:0:
183,346,132991,1,8,0:3:0:0:
121,142,133131,2,0,P|112:186|100:229,1,90,4|0,0:3|0:0,0:0:0:0:
152,0,133410,5,8,1:2:0:0:
228,215,133549,1,8,1:2:0:0:
425,97,133689,1,12,0:1:0:0:
414,104,133968,6,0,P|378:99|342:93,1,72,2|2,0:0|0:0,0:0:0:0:
240,209,134247,2,0,P|275:202|311:198,1,72,2|2,0:0|0:0,0:0:0:0:
436,287,134526,6,0,P|374:357|284:330,1,198.000006042481,14|8,0:1|0:0,0:0:0:0:
117,201,134945,1,0,0:0:0:0:
254,111,135084,2,0,P|246:159|240:208,1,99.0000030212403,2|8,0:0|0:1,0:0:0:0:
46,355,135363,2,0,P|39:305|31:257,1,99.0000030212403,8|0,0:0|0:0,0:0:0:0:
0,55,135642,2,0,B|78:68|78:68|97:108|97:108|183:121,1,198.000006042481,10|8,0:1|0:0,0:0:0:0:
435,85,136061,1,0,0:0:0:0:
411,219,136200,2,0,P|376:252|323:249,1,99.0000030212403,2|8,0:0|0:1,0:0:0:0:
170,119,136479,2,0,P|178:70|186:22,1,99.0000030212403,8|0,0:0|0:0,0:0:0:0:
45,240,136759,6,0,B|154:215|154:215|193:246|169:291,1,198.000006042481,10|8,0:1|0:0,0:0:0:0:
413,344,137177,1,0,0:0:0:0:
277,384,137317,2,0,P|288:330|298:269,1,99.0000030212403,10|8,0:1|0:1,0:0:0:0:
375,28,137596,1,8,0:0:0:0:
455,155,137735,6,0,P|418:181|357:168,1,99.0000030212403,10|0,0:1|0:0,0:0:0:0:
228,18,138014,1,10,0:1:0:0:
95,284,138154,1,8,0:0:0:0:
20,128,138293,2,0,P|69:122|126:112,1,99.0000030212403,10|0,0:1|0:0,0:0:0:0:
286,286,138572,2,0,P|237:277|188:271,1,99.0000030212403,8|8,0:1|0:0,0:0:0:0:
407,113,138852,6,0,B|435:99|456:77|456:77|435:221,1,198.000006042481,12|10,0:1|0:1,0:0:0:0:
303,384,139270,2,0,P|296:334|287:287,1,99.0000030212403,10|2,0:0|0:0,0:0:0:0:
222,54,139549,1,10,0:1:0:0:
37,184,139689,1,8,0:1:0:0:
368,241,139828,1,8,0:0:0:0:
226,40,139968,6,0,B|212:124|212:124|219:145|219:145|200:253,1,198.000006042481,12|10,0:1|0:1,0:0:0:0:
82,374,140386,2,0,P|56:332|72:282,1,99.0000030212403,10|2,0:0|0:0,0:0:0:0:
254,128,140666,2,0,B|374:107|327:204|466:170,1,198.000006042481,2|8,0:0|0:0,0:0:0:0:
314,375,141084,6,0,P|254:312|287:216,1,198.000006042481,12|8,0:1|0:1,0:0:0:0:
469,64,141503,2,0,P|420:59|341:42,1,99.0000030212403,8|0,0:0|0:0,0:0:0:0:
43,96,141782,1,2,0:0:0:0:
187,162,141921,2,0,P|196:113|207:65,1,99.0000030212403,8|8,0:1|0:0,0:0:0:0:
51,262,142200,2,0,B|90:261|125:251|125:251|162:281|162:281|192:271|254:266,1,198.000006042481,12|8,0:1|0:1,0:0:0:0:
479,132,142619,2,0,P|437:102|379:112,1,99.0000030212403,8|8,0:0|0:1,0:0:0:0:
220,373,142898,5,8,1:2:0:0:
413,190,143038,1,0,1:0:0:0:
110,96,143177,1,8,1:2:0:0:
232,362,143317,6,0,P|246:252|263:154,1,198.000006042481,12|8,0:1|0:1,0:0:0:0:
136,13,143735,2,0,P|104:46|118:106,1,99.0000030212403,8|0,0:0|0:0,0:0:0:0:
296,291,144014,1,2,0:0:0:0:
438,56,144154,1,8,0:1:0:0:
471,185,144293,2,0,P|421:178|373:167,1,99.0000030212403,8|0,0:0|0:0,0:0:0:0:
109,95,144572,2,0,B|228:68|228:68|260:92|249:144,1,198.000006042481,10|8,0:1|0:0,0:0:0:0:
53,274,144991,1,0,0:0:0:0:
148,345,145131,2,0,P|155:296|166:239,1,99.0000030212403,2|8,0:0|0:1,0:0:0:0:
18,63,145410,2,0,P|27:111|34:160,1,99.0000030212403,8|0,0:0|0:0,0:0:0:0:
254,315,145689,6,0,B|365:296|326:389|442:365,1,198.000006042481,10|8,0:1|0:0,0:0:0:0:
338,101,146107,1,0,0:0:0:0:
415,273,146247,2,0,P|422:224|433:167,1,99.0000030212403,10|8,0:1|0:1,0:0:0:0:
407,0,146526,1,8,0:0:0:0:
338,101,146666,6,0,B|268:93|268:93|236:123|236:123|132:106,1,198.000006042481,12|8,0:1|0:1,0:0:0:0:
30,247,147084,1,8,0:0:0:0:
12,64,147224,6,0,B|38:54|65:27|65:27|41:171,1,198.000006042481,12|8,0:1|0:1,0:0:0:0:
86,339,147642,1,8,0:0:0:0:
286,210,147782,6,0,P|235:202|170:188,1,99.0000030212403,12|0,0:1|0:0,0:0:0:0:
380,103,148061,1,10,0:1:0:0:
369,305,148200,2,0,P|420:297|485:283,1,99.0000030212403,10|2,0:0|0:0,0:0:0:0:
377,83,148479,5,10,0:1:0:0:
199,315,148619,1,8,0:0:0:0:
496,178,148759,5,8,0:0:0:0:
48,93,148898,1,12,0:1:0:0:
256,192,148968,12,0,150084,0:0:0:0:
288,233,150154,6,0,P|234:218|169:201,1,108,12|2,0:1|0:0,0:0:0:0:
168,209,150712,1,0,3:0:0:0:
168,209,151270,2,0,P|178:168|193:101,1,108,2|2,0:0|0:0,0:0:0:0:
191,82,152107,1,0,0:0:0:0:
285,150,152386,6,0,P|331:136|401:119,1,108,2|0,0:0|3:0,0:0:0:0:
406,135,152945,1,0,1:0:0:0:
406,135,153503,2,0,P|421:99|389:39,2,108,2|2|0,0:0|0:0|0:0,0:0:0:0:
489,257,154619,6,0,P|436:240|376:222,1,108,2|0,0:0|3:0,0:0:0:0:
254,351,155177,1,0,1:0:0:0:
270,373,155735,6,0,P|277:337|293:255,2,108,2|2|2,0:0|0:0|0:0,0:0:0:0:
134,207,156852,6,0,P|185:190|250:170,1,108,2|0,0:0|3:0,0:0:0:0:
373,284,157410,1,0,1:0:0:0:
392,274,157689,1,2,0:2:0:0:
276,384,157968,6,0,L|196:364,1,72,2|0,0:0|0:0,0:0:0:0:
197,363,158386,1,0,3:0:0:0:
298,293,158526,2,0,P|293:273|289:246,1,36,0|0,1:0|1:0,0:0:0:0:
228,136,158805,2,0,P|226:160|223:178,1,36,2|0,0:0|0:0,0:0:0:0:
119,282,159084,6,0,P|65:287|21:185,1,161.999995056153,12|2,0:1|3:2,0:0:0:0:
124,77,159642,1,0,1:0:0:0:
297,207,159921,1,2,3:2:0:0:
199,378,160200,6,0,P|205:335|219:261,2,108,2|2|2,0:0|0:0|0:0,0:0:0:0:
421,188,161317,6,0,B|451:210|480:225|480:225|436:323,1,161.999995056153,2|2,0:0|3:2,0:0:0:0:
328,375,161875,1,0,1:0:0:0:
149,249,162154,1,2,3:2:0:0:
351,123,162433,5,2,0:0:0:0:
201,0,162712,5,2,0:0:0:0:
205,13,162852,1,2,0:0:0:0:
271,77,163131,5,2,0:0:0:0:
267,90,163271,1,2,0:0:0:0:
149,138,163549,6,0,B|109:147|109:147|91:167|91:167|44:177,1,108,12|2,0:1|3:2,0:0:0:0:
0,131,164107,6,0,B|71:101|103:157|79:164|108:225|193:209,1,216,0|0,1:0|3:0,0:0:0:0:
312,170,164666,6,0,P|286:161|245:139,1,53.9999983520508,2|0,0:0|0:0,0:0:0:0:
280,312,164945,1,2,0:0:0:0:
286,300,165084,2,0,P|297:292|347:266,1,53.9999983520508,2|0,0:0|0:0,0:0:0:0:
178,210,165363,1,2,0:0:0:0:
185,223,165503,2,0,P|190:259|189:297,1,53.9999983520508,2|0,0:0|0:0,0:0:0:0:
358,103,165782,5,8,0:3:0:0:
209,2,166200,5,4,0:3:0:0:
44,167,166479,5,8,0:3:0:0:
20,153,166619,1,8,0:1:0:0:
326,325,166898,5,8,0:2:0:0:
201,383,167038,1,8,0:0:0:0:
335,311,167177,5,8,0:2:0:0:
157,213,167317,1,8,0:0:0:0:
242,282,167456,5,8,0:0:0:0:
388,152,167596,1,8,0:0:0:0:
139,49,167735,5,8,0:0:0:0:
309,218,167875,1,8,0:0:0:0:
49,316,168014,6,0,B|56:254|56:254|41:228|41:228|51:141,1,180,12|8,0:1|0:0,0:0:0:0:
157,213,168433,1,0,0:0:0:0:
139,49,168572,2,0,L|50:33,1,90,8|8,0:1|0:1,0:0:0:0:
226,123,168852,2,0,L|314:107,1,90,8|10,0:0|0:1,0:0:0:0:
492,135,169131,5,2,0:0:0:0:
425,25,169270,1,10,0:1:0:0:
425,25,169340,1,2,0:0:0:0:
425,25,169410,2,0,B|396:81|396:81|420:195,1,180,10|0,0:0|0:0,0:0:0:0:
438,324,169828,1,8,0:1:0:0:
307,197,169968,2,0,L|297:287,1,90,10|10,0:0|0:1,0:0:0:0:
305,308,170177,1,2,0:0:0:0:
305,308,170247,6,0,P|262:295|218:303,1,90,2|8,0:0|0:1,0:0:0:0:
42,338,170526,1,8,0:0:0:0:
111,190,170666,2,0,P|116:234|122:279,1,90,2|0,0:0|0:0,0:0:0:0:
307,197,170945,2,0,P|301:152|295:107,1,90,10|8,0:1|0:0,0:0:0:0:
198,10,171224,2,0,P|191:54|186:99,1,90,2|12,0:0|0:1,0:0:0:0:
218,303,171503,5,0,0:0:0:0:
295,107,171642,1,8,0:0:0:0:
86,139,171782,2,0,P|18:94|55:21,1,180,12|8,0:1|0:1,0:0:0:0:
206,201,172200,1,8,0:0:0:0:
8,305,172340,6,0,B|58:288|115:299|81:318|142:338|180:322,1,180,12|8,0:1|0:1,0:0:0:0:
338,146,172759,1,10,0:0:0:0:
206,201,172898,1,0,3:0:0:0:
261,333,173038,1,2,0:0:0:0:
206,201,173177,1,8,0:1:0:0:
393,278,173317,1,10,0:0:0:0:
261,333,173456,1,0,3:0:0:0:
338,146,173596,5,10,0:1:0:0:
300,240,173735,1,2,0:0:0:0:
300,240,173805,1,2,0:0:0:0:
300,240,173875,1,10,0:0:0:0:
113,163,174014,1,2,0:0:0:0:
261,333,174154,2,0,P|305:328|350:324,1,90,2|8,0:0|0:1,0:0:0:0:
168,295,174433,1,10,0:0:0:0:
436,348,174572,6,0,B|466:365|466:365|511:307|472:227,1,180,10|8,0:1|0:1,0:0:0:0:
243,16,174991,1,10,0:0:0:0:
185,97,175131,1,0,3:0:0:0:
243,177,175270,1,10,0:1:0:0:
338,146,175410,1,8,0:1:0:0:
338,47,175549,1,8,0:0:0:0:
338,47,175828,5,12,0:1:0:0:
144,187,175968,1,0,3:0:0:0:
363,286,176107,1,8,0:0:0:0:
135,188,176247,2,0,P|81:192|27:197,1,107.999996704102,12|0,0:1|0:0,0:0:0:0:
207,357,176526,2,0,P|201:330|200:303,1,53.9999983520508,8|0,0:0|0:0,0:0:0:0:
271,200,176666,2,0,P|276:226|277:253,1,53.9999983520508,8|0,0:0|0:0,0:0:0:0:
108,336,176805,2,2,P|198:328|287:334,1,180,12|8,0:1|0:1,0:1:0:0:
465,359,177224,6,0,L|469:332,3,26.9999991760254,10|2|2|2,0:0|0:0|0:0|0:0,0:0:0:0:
370,238,177503,2,0,L|375:269,3,31.4999990386963,2|2|10|2,0:0|0:0|0:1|0:0,0:0:0:0:
463,166,177782,2,0,L|498:158,3,36,10|2|10|2,0:0|0:0|0:1|0:0,0:0:0:0:
358,231,178061,6,0,L|278:214,1,80.9999975280763,2|8,0:0|0:1,0:0:0:0:
138,184,178340,1,10,0:0:0:0:
264,325,178479,1,2,0:0:0:0:
321,122,178619,2,0,L|326:77,3,45,2|2|10|2,0:0|0:0|0:1|0:0,0:0:0:0:
228,203,178898,2,0,L|222:153,3,49.5000015106202,10|2|2|2,0:0|0:0|0:0|0:0,0:0:0:0:
344,266,179177,5,2,0:0:0:0:
371,275,179246,1,2,0:0:0:0:
400,276,179316,1,10,0:1:0:0:
428,267,179386,1,2,0:0:0:0:
450,249,179456,2,0,P|459:224|461:197,1,53.9999983520508,10|2,0:0|0:0,0:0:0:0:
439,62,179596,5,2,0:0:0:0:
410,52,179665,1,2,0:0:0:0:
379,51,179735,1,2,0:0:0:0:
349,60,179805,1,2,0:0:0:0:
326,77,179875,2,0,P|316:104|313:133,1,58.4999973220826,10|2,0:1|0:0,0:0:0:0:
227,202,180014,6,0,P|144:165|63:206,1,188.999994232178,8|0,0:0|0:0,0:0:0:0:
17,301,180293,6,0,L|43:113,1,188.999994232178,12|0,0:1|0:0,0:0:0:0:
61,24,180572,2,0,P|29:21|0:33,1,62.9999980773926,8|0,0:0|0:0,0:0:0:0:
164,91,180712,6,0,B|235:116|319:84|269:67|343:31|421:58,1,270.000010299683,12|8,0:1|0:1,0:0:0:0:
344,266,181131,1,8,0:0:0:0:
471,188,181270,6,2,B|488:127|488:127|439:147|373:141,1,180,12|8,0:1|0:1,0:1:0:0:
164,91,181689,1,10,0:0:0:0:
344,266,181828,1,2,0:0:0:0:
133,212,181968,1,2,0:0:0:0:
374,142,182107,1,10,0:1:0:0:
374,142,182177,1,2,0:0:0:0:
374,142,182247,1,10,0:0:0:0:
222,299,182386,6,0,P|213:256|211:211,1,90,2|8,0:0|0:1,0:0:0:0:
281,54,182666,1,10,0:1:0:0:
374,142,182805,1,10,0:0:0:0:
404,18,182945,1,2,0:0:0:0:
467,230,183084,1,2,0:0:0:0:
374,142,183223,1,10,0:1:0:0:
344,266,183363,1,10,0:0:0:0:
479,239,183503,6,0,P|488:282|490:327,1,90,10|0,0:1|0:0,0:0:0:0:
374,142,183782,1,10,0:1:0:0:
374,142,183852,1,2,0:0:0:0:
374,142,183921,1,10,0:0:0:0:
173,260,184061,2,0,B|231:247|231:247|278:274|278:274|344:265,1,180,2|8,0:0|0:1,0:0:0:0:
124,177,184479,1,8,0:0:0:0:
222,343,184619,1,2,0:0:0:0:
28,343,184759,6,0,P|12:293|22:241,1,107.999996704102,12|0,0:1|0:0,0:0:0:0:
102,32,185038,1,8,0:0:0:0:
231,165,185177,2,0,L|123:176,1,107.999996704102,12|0,0:1|0:0,0:0:0:0:
297,292,185456,5,8,0:0:0:0:
102,181,185596,1,8,0:0:0:0:
424,57,185735,1,8,0:0:0:0:
265,378,185875,6,2,L|230:161,1,215.999993408203,12|8,0:1|0:0,0:1:0:0:
205,0,186293,1,0,0:0:0:0:
12,162,186433,2,0,P|53:187|102:181,1,99.0000030212403,2|8,0:0|0:1,0:0:0:0:
318,62,186712,1,8,0:0:0:0:
205,0,186852,6,0,L|191:105,1,99.0000030212403,10|0,0:1|0:0,0:0:0:0:
2,332,187131,1,8,0:1:0:0:
126,360,187270,2,0,L|112:261,1,99.0000030212403,10|0,0:0|0:0,0:0:0:0:
86,33,187549,1,8,0:1:0:0:
216,245,187689,1,8,0:1:0:0:
12,162,187828,1,8,0:0:0:0:
318,62,187968,1,2,0:0:0:0:
318,62,188038,1,2,0:0:0:0:
318,62,188107,6,0,P|362:73|432:83,1,99.0000030212403,8|0,0:1|0:0,0:0:0:0:
216,245,188386,2,0,P|167:252|119:264,1,99.0000030212403,8|0,0:0|0:0,0:0:0:0:
150,129,188666,1,2,0:0:0:0:
313,320,188805,2,0,P|323:266|334:222,1,99.0000030212403,8|8,0:1|0:0,0:0:0:0:
134,29,189084,1,2,0:0:0:0:
25,177,189224,6,0,B|67:187|107:191|107:191|131:231|131:231|174:236|231:248,1,215.999993408203,12|8,0:1|0:0,0:0:0:0:
402,332,189642,6,0,B|357:364|357:364|284:308|333:222,1,215.999993408203,12|8,0:1|0:1,0:0:0:0:
449,12,190061,1,8,0:0:0:0:
512,152,190200,6,2,P|432:137|323:122,1,161.999995056153,12|0,0:1|0:0,0:1:0:0:
333,124,190479,1,8,0:1:0:0:
238,314,190619,2,0,P|225:266|219:208,1,99.0000030212403,8|0,0:0|0:0,0:0:0:0:
105,46,190898,2,0,P|99:95|86:142,1,99.0000030212403,2|8,0:0|0:1,0:0:0:0:
7,303,191177,5,8,0:0:0:0:
187,110,191317,1,0,0:0:0:0:
187,110,191386,1,0,0:0:0:0:
187,110,191456,2,0,P|234:118|292:125,1,99.0000030212403,10|0,0:1|0:0,0:0:0:0:
479,96,191735,1,8,0:0:0:0:
219,216,191875,1,0,0:0:0:0:
369,63,192014,2,0,P|376:106|389:176,1,99.0000030212403,2|8,0:0|0:1,0:0:0:0:
159,317,192293,1,8,0:0:0:0:
264,372,192433,6,0,P|285:274|216:215,1,198.000006042481,10|8,0:1|0:1,0:0:0:0:
92,150,192852,2,0,P|84:199|72:259,1,99.0000030212403,10|0,0:0|0:0,0:0:0:0:
9,54,193131,5,8,0:1:0:0:
218,215,193270,1,8,0:1:0:0:
0,315,193410,5,8,0:0:0:0:
176,34,193549,1,8,0:1:0:0:
305,268,193689,6,0,P|204:247|97:234,1,198.000006042481,12|8,0:1|0:0,0:0:0:0:
425,70,194107,6,0,P|494:115|456:214,1,198.000006042481,12|8,0:1|0:0,0:0:0:0:
197,287,194526,1,8,0:0:0:0:
348,359,194666,6,2,B|330:269|330:269|334:248|334:248|315:159,1,198.000006042481,12|10,0:1|0:1,0:1:0:0:
156,15,195084,6,0,L|136:116,1,99.0000030212403,10|0,0:0|0:0,0:0:0:0:
70,361,195363,5,2,0:0:0:0:
0,265,195503,2,0,P|40:239|96:246,1,99.0000030212403,10|8,0:1|0:0,0:0:0:0:
348,370,195782,5,10,0:1:0:0:
271,178,195921,2,0,P|263:226|253:281,1,99.0000030212403,2|8,0:0|0:1,0:0:0:0:
195,69,196200,5,10,0:0:0:0:
377,244,196340,2,0,P|424:251|468:217,1,99.0000030212403,2|8,0:0|0:1,0:0:0:0:
378,51,196619,5,10,0:1:0:0:
254,275,196759,1,10,0:0:0:0:
86,83,196898,1,10,0:1:0:0:
95,79,197177,5,10,0:1:0:0:
135,285,197317,2,0,P|146:239|156:188,1,99.0000030212403,10|0,0:0|0:0,0:0:0:0:
424,120,197596,5,10,0:1:0:0:
244,0,197735,2,0,P|253:44|265:96,1,99.0000030212403,10|8,0:1|0:0,0:0:0:0:
333,358,198014,1,2,0:0:0:0:
480,213,198154,6,0,B|415:195|362:175|362:175|306:197|336:265,1,215.999993408203,12|8,0:1|0:0,0:0:0:0:
148,335,198572,6,0,B|194:364|194:364|248:278|181:214,1,215.999993408203,12|8,0:1|0:1,0:0:0:0:
27,11,198991,1,8,0:0:0:0:
0,118,199131,6,2,B|46:114|79:104|79:104|124:136|124:136|161:122|203:117,1,215.999993408203,12|10,0:1|0:1,0:1:0:0:
345,311,199549,2,0,P|351:258|361:204,1,99.0000030212403,10|0,0:0|0:0,0:0:0:0:
383,10,199828,1,2,0:0:0:0:
244,247,199968,1,10,0:1:0:0:
512,129,200107,2,0,P|463:124|408:115,1,99.0000030212403,10|2,0:0|0:0,0:0:0:0:
140,29,200386,5,10,0:1:0:0:
244,247,200526,1,8,0:1:0:0:
295,81,200666,5,10,0:0:0:0:
98,258,200805,1,8,0:1:0:0:
343,348,200945,5,2,0:0:0:0:
365,334,201038,2,0,P|378:305|383:261,1,66.0000020141602,2|2,0:0|0:0,0:0:0:0:
295,81,201224,5,10,0:0:0:0:
273,95,201317,2,0,P|260:124|255:168,1,66.0000020141602,2|2,0:0|0:0,0:0:0:0:
278,249,201503,6,0,P|374:227|479:213,1,198.000006042481,10|8,0:1|0:0,0:0:0:0:
237,374,201921,5,0,0:0:0:0:
134,281,202061,2,0,P|145:230|152:174,1,99.0000030212403,8|8,0:1|0:1,0:0:0:0:
13,18,202340,6,0,P|2:92|76:110,1,161.999995056153,8|0,0:0|0:0,0:0:0:0:
88,102,202619,5,12,0:1:0:0:
353,157,202759,1,8,0:0:0:0:
170,346,202898,1,8,0:0:0:0:
200,34,203038,6,0,L|237:246,1,198.000006042481,12|8,0:1|0:0,0:0:0:0:
170,345,203456,2,0,P|122:354|84:325,1,99.0000030212403,8|4,0:3|0:3,0:0:0:0:
353,157,203735,6,2,B|374:143|385:115|385:115|445:184|396:270,1,215.999993408203,12|8,0:1|0:0,0:1:0:0:
190,145,204154,6,0,B|120:154|120:154|86:193|86:193|-6:207,1,198.000006042481,2|8,0:0|0:1,0:0:0:0:
234,229,204572,1,8,0:0:0:0:
54,92,204712,1,10,0:1:0:0:
136,349,204852,6,0,P|143:297|154:239,1,99.0000030212403,0|8,0:0|0:1,0:0:0:0:
216,63,205131,1,10,0:0:0:0:
11,204,205270,1,0,0:0:0:0:
246,249,205410,6,0,P|276:237|308:231,1,66.0000020141602,10|0,0:1|0:0,0:0:0:0:
364,58,205596,6,0,P|339:97|312:107,1,66.0000020141602,2|8,0:0|0:0,0:0:0:0:
438,189,205782,6,0,P|464:208|482:235,1,66.0000020141602,2|0,0:0|0:0,0:0:0:0:
352,373,205968,6,0,P|357:340|362:307,1,66.0000020141602,2|0,0:0|0:0,0:0:0:0:
225,162,206154,6,0,P|230:194|232:228,1,66.0000020141602,2|8,0:0|0:0,0:0:0:0:
69,270,206340,6,0,P|99:256|132:247,1,66.0000020141602
207,43,206526,6,0,P|157:36|109:27,1,99.0000030212403,2|8,0:0|0:1,0:0:0:0:
232,228,206805,1,8,0:0:0:0:
322,104,206945,1,2,0:0:0:0:
460,345,207084,6,0,B|378:331|378:331|333:362|333:362|246:351,1,215.999993408203,12|8,0:1|0:0,0:0:0:0:
69,180,207503,6,0,B|98:172|129:139|129:139|104:280,1,215.999993408203,12|8,0:1|0:1,0:0:0:0:
34,81,207921,1,8,0:0:0:0:
255,225,208061,6,2,B|320:190|373:240|373:240|424:244|453:209,1,215.999993408203,12|8,0:1|0:1,0:1:0:0:
311,15,208479,6,0,B|297:50|297:50|307:114,1,99.0000030212403,8|0,0:0|0:0,0:0:0:0:
202,21,208759,1,2,0:0:0:0:
402,77,208898,1,8,0:1:0:0:
255,225,209038,2,0,B|241:260|241:260|251:324,1,99.0000030212403,8|0,0:0|0:0,0:0:0:0:
307,110,209317,5,10,0:1:0:0:
104,279,209456,1,2,0:0:0:0:
104,279,209526,1,2,0:0:0:0:
104,279,209596,1,10,0:0:0:0:
34,81,209735,6,0,B|90:95|90:95|114:139|114:139|167:140|198:170,1,198.000006042481,2|8,0:0|0:1,0:0:0:0:
408,0,210154,2,0,P|361:13|306:14,1,99.0000030212403,8|8,0:0|0:1,0:0:0:0:
202,21,210433,5,2,0:0:0:0:
379,152,210572,1,8,0:1:0:0:
250,320,210712,1,8,0:0:0:0:
435,255,210852,6,0,P|391:245|339:231,1,99.0000030212403,2|0,0:0|0:1,0:0:0:0:
85,362,211131,2,0,P|140:366|169:326,1,99.0000030212403,10|8,0:1|0:0,0:0:0:0:
85,158,211410,1,2,0:0:0:0:
338,230,211549,6,0,P|347:146|366:50,1,161.999995056153,12|0,0:1|0:0,0:0:0:0:
364,60,211828,1,8,0:0:0:0:
20,256,211968,6,0,B|80:180|170:211|170:211|141:248,1,215.999993408203,12|8,0:1|0:0,0:0:0:0:
53,77,212386,1,8,0:0:0:0:
250,320,212526,6,2,B|237:258|237:258|213:225|213:225|223:188|223:188|206:108,1,215.999993408203,12|10,0:1|0:1,0:1:0:0:
344,270,212945,5,10,0:0:0:0:
130,175,213084,1,2,0:0:0:0:
366,16,213224,6,0,P|355:73|347:127,1,99.0000030212403,2|10,0:0|0:1,0:0:0:0:
115,0,213503,2,0,B|175:11|175:11|199:37|199:37|257:50,1,148.50000453186,10|0,0:0|0:0,0:0:0:0:
258,50,213782,5,2,0:0:0:0:
130,175,213921,2,0,L|24:193,1,99.0000030212403,10|8,0:1|0:0,0:0:0:0:
0,69,214200,5,0,0:0:0:0:
224,230,214340,2,0,P|242:184|233:136,1,99.0000030212403,2|8,0:1|0:1,0:0:0:0:
78,340,214619,5,8,0:0:0:0:
320,194,214759,2,0,B|438:213|369:275|489:296,1,198.000006042481,10|10,0:1|0:1,0:0:0:0:
283,301,215177,5,10,0:0:0:0:
384,127,215317,1,0,0:0:0:0:
224,230,215456,1,10,0:1:0:0:
151,50,215596,5,10,0:1:0:0:
320,194,215735,1,8,0:0:0:0:
108,310,215875,1,2,0:0:0:0:
300,69,216014,6,0,P|367:15|487:64,1,215.999993408203,12|8,0:1|0:0,0:0:0:0:
224,230,216433,6,0,B|102:201|102:201|77:242|23:249,1,215.999993408203,12|8,0:1|0:1,0:0:0:0:
101,101,216852,1,8,0:0:0:0:
274,323,216991,6,2,P|342:247|298:155,1,215.999993408203,12|10,0:1|0:1,0:1:0:0:
84,3,217410,2,0,L|102:111,1,99.0000030212403,10|0,0:0|0:0,0:0:0:0:
224,230,217689,5,2,0:0:0:0:
300,69,217828,1,10,0:1:0:0:
101,188,217968,1,10,0:0:0:0:
274,324,218107,2,0,L|265:380,1,49.5000015106202,2|2,0:0|0:0,0:0:0:0:
437,233,218247,5,10,0:1:0:0:
388,253,218340,2,0,P|351:252|318:238,1,66.0000020141602,2|2,0:0|0:0,0:0:0:0:
252,76,218526,5,10,0:0:0:0:
300,69,218619,2,0,L|375:55,1,66.0000020141602,2|2,0:0|0:0,0:0:0:0:
101,188,218805,5,2,0:0:0:0:
99,176,218898,2,0,L|90:102,1,66.0000020141602,2|2,0:0|0:0,0:0:0:0:
191,317,219084,5,10,0:0:0:0:
192,310,219177,2,0,L|201:236,1,66.0000020141602,2|2,0:0|0:0,0:0:0:0:
91,281,219363,5,10,0:1:0:0:
272,160,219503,1,0,0:0:0:0:
172,23,219642,1,10,0:0:0:0:
172,23,219712,1,2,0:0:0:0:
172,23,219782,2,0,L|175:79,1,49.5000015106202,10|0,0:1|0:0,0:0:0:0:
283,166,219921,6,0,B|324:166|355:118|355:118|357:196|426:225|477:196,1,233.999989288331,2|8,0:0|0:0,0:0:0:0:
499,130,220340,1,0,0:0:0:0:
373,341,220479,6,0,B|296:321|296:321|246:346|246:346|166:332,1,215.999993408203,12|8,0:1|0:0,0:0:0:0:
77,32,220898,6,0,B|117:70|117:70|98:175,1,161.999995056153,12|0,0:1|0:0,0:0:0:0:
36,216,221177,5,8,0:0:0:0:
287,70,221317,1,8,0:0:0:0:
166,332,221456,1,8,0:0:0:0:
23,113,221596,6,2,B|154:125|92:192|206:212,1,215.999993408203,12|8,0:1|0:0,0:1:0:0:
409,131,222014,5,0,0:0:0:0:
273,60,222154,2,0,P|282:109|288:158,1,99.0000030212403,2|8,0:0|0:1,0:0:0:0:
406,334,222433,2,0,P|411:285|421:235,1,99.0000030212403,10|10,0:0|0:1,0:0:0:0:
205,211,222712,5,2,0:0:0:0:
407,110,222852,1,8,0:1:0:0:
267,292,222991,1,10,0:0:0:0:
167,83,223131,1,0,0:0:0:0:
81,273,223270,6,0,P|121:213|193:204,1,148.50000453186,10|0,0:1|0:0,0:0:0:0:
205,211,223549,1,8,0:0:0:0:
40,119,223689,1,2,0:0:0:0:
40,119,223759,1,2,0:0:0:0:
40,119,223828,1,8,0:1:0:0:
271,31,223968,6,0,P|264:80|259:129,1,99.0000030212403,2|8,0:0|0:0,0:0:0:0:
145,0,224247,1,0,0:0:0:0:
386,101,224386,2,0,P|440:89|490:84,1,99.0000030212403,2|8,0:0|0:1,0:0:0:0:
329,242,224666,1,8,0:0:0:0:
271,31,224805,1,2,0:0:0:0:
163,280,224945,6,0,B|105:213|10:241|10:241|41:282,1,215.999993408203,12|8,0:1|0:0,0:0:0:0:
331,153,225363,6,0,P|309:269|296:378,1,215.999993408203,12|8,0:1|0:1,0:0:0:0:
205,211,225782,1,8,0:0:0:0:
434,161,225921,6,2,P|414:86|281:58,1,215.999993408203,12|8,0:1|0:1,0:1:0:0:
103,195,226340,6,0,P|95:121|85:48,1,148.50000453186,8|0,0:0|0:0,0:0:0:0:
82,37,226619,1,2,0:0:0:0:
205,211,226759,1,8,0:1:0:0:
71,316,226898,1,8,0:0:0:0:
188,128,227038,1,0,0:0:0:0:
346,278,227177,5,10,0:1:0:0:
103,195,227317,1,2,0:0:0:0:
103,195,227386,1,2,0:0:0:0:
103,195,227456,1,10,0:0:0:0:
291,52,227596,2,0,L|282:113,1,49.5000015106202,2|2,0:0|0:0,0:0:0:0:
217,309,227735,6,0,P|213:261|202:202,1,99.0000030212403,2|8,0:0|0:1,0:0:0:0:
416,350,228014,1,8,0:0:0:0:
463,169,228154,1,8,0:1:0:0:
346,278,228293,6,0,P|380:266|403:263,1,49.5000015106202,2|0,0:0|0:0,0:0:0:0:
371,124,228433,1,10,0:1:0:0:
371,124,228503,1,2,0:0:0:0:
371,124,228572,2,0,P|367:149|364:174,1,49.5000015106202,10|0,0:0|0:0,0:0:0:0:
204,210,228712,5,2,0:0:0:0:
204,210,228782,1,2,0:0:0:0:
204,210,228852,2,0,P|200:185|187:146,1,53.9999983520508,8|0,0:1|0:0,0:0:0:0:
259,313,228991,2,0,P|250:336|244:371,1,53.9999983520508,10|2,0:1|0:0,0:0:0:0:
128,283,229131,6,0,P|103:272|77:266,1,53.9999983520508,8|0,0:0|0:0,0:0:0:0:
314,193,229270,2,0,P|338:182|364:174,1,53.9999983520508,10|2,0:1|0:0,0:0:0:0:
124,15,229410,6,0,B|90:55|90:55|110:162,1,161.999995056153,12|0,0:1|0:0,0:0:0:0:
113,172,229689,1,8,0:0:0:0:
453,263,229828,6,0,B|386:255|386:255|346:300|346:300|243:315,1,215.999993408203,12|8,0:1|0:0,0:0:0:0:
6,177,230247,1,8,0:0:0:0:
247,20,230386,6,0,P|238:71|236:90,1,53.9999983520508,12|0,0:1|0:0,0:0:0:0:
300,186,230526,1,2,0:0:0:0:
309,198,230596,1,2,0:0:0:0:
318,210,230666,2,0,P|348:202|389:189,1,53.9999983520508,10|2,0:1|0:0,0:0:0:0:
233,361,230805,2,0,P|202:368|162:382,3,53.9999983520508,10|2|2|2,0:0|0:0|0:0|0:0,0:0:0:0:
320,309,231084,5,2,0:0:0:0:
352,302,231154,1,2,0:0:0:0:
380,312,231224,1,10,0:1:0:0:
391,337,231293,1,2,0:0:0:0:
392,362,231363,5,10,0:0:0:0:
433,384,231433,1,2,0:0:0:0:
477,357,231503,2,0,P|481:335|493:292,1,53.9999983520508,10|2,0:1|0:0,0:0:0:0:
408,190,231642,6,0,P|382:197|350:208,3,53.9999983520508,2|2|10|2,0:0|0:0|0:1|0:0,0:0:0:0:
235,144,231921,2,0,P|204:132|166:114,3,53.9999983520508,10|2|2|2,0:0|0:0|0:0|0:0,0:0:0:0:
306,0,232200,5,10,0:1:0:0:
306,0,232270,1,2,0:0:0:0:
306,0,232340,2,0,P|301:29|296:58,1,53.9999983520508,10|2,0:1|0:0,0:0:0:0:
487,117,232479,1,10,0:0:0:0:
487,117,232549,1,2,0:0:0:0:
487,117,232619,2,0,P|481:81|474:45,1,53.9999983520508,10|2,0:1|0:0,0:0:0:0:
383,102,232759,5,2,0:0:0:0:
381,112,232828,1,2,0:0:0:0:
379,123,232898,1,10,0:1:0:0:
377,133,232968,1,2,0:0:0:0:
375,144,233038,1,10,0:0:0:0:
373,155,233107,1,2,0:0:0:0:
371,165,233177,1,2,0:0:0:0:
369,176,233247,1,2,0:0:0:0:
367,187,233317,5,10,0:1:0:0:
347,211,233386,1,2,0:0:0:0:
315,219,233456,1,10,0:1:0:0:
284,208,233526,1,2,0:0:0:0:
262,176,233596,1,10,0:0:0:0:
235,148,233666,1,2,0:0:0:0:
192,138,233735,1,2,0:0:0:0:
149,154,233805,1,2,0:0:0:0:
123,198,233875,6,0,P|134:239|145:276,3,53.9999983520508,12|0|0|0,0:1|0:0|0:0|0:0,0:0:0:0:
187,384,234154,2,0,P|195:354|206:317,1,53.9999983520508,8|0,0:0|0:0,0:0:0:0:
49,292,234293,6,0,B|134:273|134:273|204:317|204:317|321:290,1,251.999992309571,12|8,0:1|0:1,0:0:0:0:
512,244,234712,1,8,0:0:0:0:
342,383,234852,6,2,B|317:366|290:354|290:354|325:239,1,161.999995056153,12|2,0:1|0:0,0:1:0:0:
446,308,235131,2,0,P|458:344|468:370,1,53.9999983520508,10|0,0:1|0:0,0:0:0:0:
496,120,235270,2,0,P|470:129|434:139,1,53.9999983520508,10|2,0:0|0:0,0:0:0:0:
238,197,235410,2,0,P|220:190|179:177,3,53.9999983520508,2|2|2|2,0:0|0:0|0:0|0:0,0:0:0:0:
315,89,235689,5,10,0:1:0:0:
320,68,235759,1,2,0:0:0:0:
320,46,235828,1,10,0:0:0:0:
311,26,235898,1,2,0:0:0:0:
295,11,235968,1,2,0:0:0:0:
274,3,236038,1,2,0:0:0:0:
252,3,236107,6,0,P|215:13|177:22,1,53.9999983520508,10|0,0:1|0:0,0:0:0:0:
121,233,236247,2,0,P|132:272|141:309,3,53.9999983520508,10|2|10|2,0:1|0:0|0:0|0:0,0:0:0:0:
8,155,236526,6,0,P|37:163|74:173,1,53.9999983520508,2|2,0:0|0:0,0:0:0:0:
288,384,236666,2,0,P|295:359|308:316,3,53.9999983520508,2|2|10|2,0:0|0:0|0:1|0:0,0:0:0:0:
254,252,236945,6,0,B|316:238|316:238|370:269|370:269|449:251,1,188.999994232178,10|0,0:0|0:0,0:0:0:0:
512,181,237224,6,0,P|490:175|438:157,1,53.9999983520508,10|2,0:1|0:0,0:0:0:0:
372,83,237363,2,0,P|365:113|359:139,1,53.9999983520508,2|2,0:0|0:0,0:0:0:0:
431,254,237503,1,10,0:0:0:0:
442,263,237572,1,2,0:0:0:0:
453,272,237642,2,0,P|461:309|469:341,1,53.9999983520508,2|2,0:0|0:0,0:0:0:0:
346,383,237782,5,10,0:1:0:0:
336,379,237875,2,0,P|314:360|304:309,1,71.9999978027344,2|2,0:0|0:0,0:0:0:0:
186,347,238061,5,10,0:0:0:0:
182,333,238154,2,0,P|185:303|213:266,1,71.9999978027344,2|2,0:0|0:0,0:0:0:0:
325,228,238340,5,12,0:1:0:0:
152,3,238479,1,8,0:0:0:0:
312,218,238619,1,8,0:0:0:0:
439,106,238759,6,0,B|401:103|363:86|363:86|286:140|286:140|259:126|201:118,1,251.999992309571,12|8,0:1|0:0,0:0:0:0:
71,232,239177,1,8,0:3:0:0:
144,288,239317,1,4,0:3:0:0:
30,365,239456,5,12,0:1:0:0:
157,194,239596,1,8,0:1:0:0:
164,183,239735,1,10,0:0:0:0:
226,257,239875,5,8,0:1:0:0:
52,113,240014,1,10,0:1:0:0:
42,102,240154,1,8,0:1:0:0:
297,13,240293,5,10,0:0:0:0:
171,172,240433,1,8,0:1:0:0:
425,272,240572,5,10,0:1:0:0:
312,170,240712,1,8,0:1:0:0:
281,318,240852,1,10,0:0:0:0:
426,262,240991,5,8,0:1:0:0:
302,172,241131,1,10,0:1:0:0:
287,323,241271,1,8,0:1:0:0:
496,384,241410,6,0,P|501:348|516:259,1,107.999996704102,10|8,0:0|0:1,0:0:0:0:
472,59,241689,5,10,0:1:0:0:
410,122,241828,1,8,0:1:0:0:
328,92,241968,1,10,0:0:0:0:
502,159,242107,5,8,0:1:0:0:
307,5,242246,1,10,0:1:0:0:
217,223,242386,1,8,0:1:0:0:
300,172,242526,5,10,0:0:0:0:
46,83,242666,1,8,0:1:0:0:
208,0,242805,5,10,0:1:0:0:
142,177,242945,1,8,0:1:0:0:
135,190,243084,1,10,0:0:0:0:
300,172,243224,5,8,0:1:0:0:
66,260,243363,1,10,0:1:0:0:
54,265,243503,1,8,0:1:0:0:
241,384,243642,6,0,P|233:333|222:263,1,107.999996704102,10|8,0:0|0:1,0:0:0:0:
0,135,243921,5,10,0:1:0:0:
170,211,244061,1,8,0:1:0:0:
8,341,244200,1,10,0:0:0:0:
224,277,244340,5,8,0:1:0:0:
87,239,244479,1,10,0:1:0:0:
197,135,244619,1,8,0:1:0:0:
111,91,244759,5,10,0:0:0:0:
244,7,244898,1,8,0:1:0:0:
349,244,245038,5,10,0:1:0:0:
512,124,245177,2,0,P|507:90|499:8,1,107.999996704102,8|10,0:1|0:0,0:0:0:0:
419,306,245456,5,8,0:1:0:0:
279,185,245596,2,0,P|284:147|295:59,1,107.999996704102,10|8,0:1|0:1,0:0:0:0:
500,273,245875,2,0,B|514:330|514:330|471:387,1,107.999996704102,10|8,0:0|0:1,0:0:0:0:
144,235,246154,5,10,0:1:0:0:
326,287,246293,1,8,0:1:0:0:
163,384,246433,5,10,0:0:0:0:
280,166,246572,1,8,0:1:0:0:
238,255,246712,5,10,0:1:0:0:
383,205,246852,1,8,0:1:0:0:
201,75,246991,5,10,0:0:0:0:
500,273,247131,1,8,0:1:0:0:
365,118,247270,5,10,0:1:0:0:
365,118,247410,1,8,0:1:0:0:
249,342,247549,1,10,0:0:0:0:
249,342,247689,1,8,0:1:0:0:
14,226,247828,5,10,0:1:0:0:
111,282,247968,1,8,0:1:0:0:
208,159,248107,1,10,0:0:0:0:
326,234,248247,1,8,0:1:0:0:
164,29,248386,5,12,0:1:0:0:
164,29,248456,1,0,0:0:0:0:
164,29,248526,2,0,P|159:55|153:82,1,53.9999983520508,10|2,0:1|0:0,0:0:0:0:
14,226,248666,1,10,0:0:0:0:
14,226,248736,1,0,0:0:0:0:
14,226,248806,2,0,P|9:199|3:172,1,53.9999983520508,10|2,0:1|0:0,0:0:0:0:
142,186,248945,2,0,P|167:177|209:167,3,53.9999983520508,10|0|10|2,0:1|0:0|0:1|0:0,0:0:0:0:
85,103,249224,1,10,0:0:0:0:
64,71,249293,1,0,0:0:0:0:
73,34,249363,1,10,0:1:0:0:
103,11,249433,1,2,0:0:0:0:
140,13,249503,6,0,P|168:23|209:33,3,53.9999983520508,10|0|10|2,0:1|0:0|0:1|0:0,0:0:0:0:
313,4,249782,1,10,0:0:0:0:
313,4,249852,1,0,0:0:0:0:
313,4,249921,2,0,P|305:33|284:53,1,53.9999983520508,10|2,0:1|0:0,0:0:0:0:
334,126,250061,1,10,0:1:0:0:
334,126,250131,1,0,0:0:0:0:
334,126,250200,2,0,P|363:124|388:110,1,53.9999983520508,10|2,0:1|0:0,0:0:0:0:
360,232,250340,2,0,P|334:228|305:201,1,53.9999983520508,10|0,0:0|0:0,0:0:0:0:
231,250,250479,2,0,P|229:278|240:300,1,53.9999983520508,10|2,0:1|0:0,0:0:0:0:
365,355,250619,5,10,0:1:0:0:
370,345,250688,1,0,0:0:0:0:
376,337,250758,1,10,0:1:0:0:
384,329,250828,1,2,0:0:0:0:
392,322,250898,1,10,0:0:0:0:
401,316,250967,1,0,0:0:0:0:
411,311,251037,1,10,0:1:0:0:
421,307,251107,1,2,0:0:0:0:
431,305,251177,1,10,0:1:0:0:
442,303,251246,1,0,0:0:0:0:
453,303,251316,1,10,0:1:0:0:
463,304,251386,1,2,0:0:0:0:
474,307,251456,1,10,0:0:0:0:
484,310,251525,1,0,0:0:0:0:
494,315,251595,1,10,0:1:0:0:
503,321,251665,1,2,0:0:0:0:
512,330,251735,6,0,P|507:356|503:383,1,53.9999983520508,10|0,0:1|0:0,0:0:0:0:
430,215,251875,1,10,0:1:0:0:
430,215,251945,1,2,0:0:0:0:
430,215,252014,2,0,P|425:190|419:155,1,53.9999983520508,10|0,0:0|0:0,0:0:0:0:
346,282,252154,1,10,0:1:0:0:
346,282,252224,1,2,0:0:0:0:
346,282,252293,2,0,P|341:308|337:335,1,53.9999983520508,10|0,0:1|0:0,0:0:0:0:
178,193,252433,1,10,0:1:0:0:
178,193,252503,1,2,0:0:0:0:
178,193,252572,2,0,B|236:208|236:208|281:179|281:179|353:200,1,161.999995056153,8|0,0:0|0:0,0:0:0:0:
312,56,252852,6,0,P|281:70|266:96,3,53.9999983520508,10|0|10|2,0:1|0:0|0:1|0:0,0:0:0:0:
182,61,253131,2,0,P|168:35|171:-5,3,53.9999983520508,10|0|10|2,0:0|0:0|0:1|0:0,0:0:0:0:
64,110,253410,2,0,P|87:126|113:128,3,53.9999983520508,10|0|10|2,0:1|0:0|0:1|0:0,0:0:0:0:
178,193,253689,1,10,0:0:0:0:
170,233,253759,1,0,0:0:0:0:
162,273,253828,1,10,0:1:0:0:
154,313,253898,1,2,0:0:0:0:
146,353,253967,5,10,0:1:0:0:
160,345,254037,1,0,0:0:0:0:
172,334,254107,1,10,0:1:0:0:
181,321,254177,1,2,0:0:0:0:
187,306,254247,1,10,0:0:0:0:
189,290,254316,1,0,0:0:0:0:
188,274,254386,1,10,0:1:0:0:
183,258,254456,1,2,0:0:0:0:
174,245,254526,1,10,0:1:0:0:
163,233,254595,1,0,0:0:0:0:
149,225,254665,1,10,0:1:0:0:
134,219,254735,1,2,0:0:0:0:
118,218,254805,1,10,0:0:0:0:
102,220,254874,1,0,0:0:0:0:
87,226,254944,1,10,0:1:0:0:
73,235,255014,1,2,0:0:0:0:
63,248,255084,6,0,P|56:289|49:315,3,53.9999983520508,14|0|10|2,0:1|0:0|0:1|0:0,0:0:0:0:
150,380,255363,2,0,P|175:372|220:359,3,53.9999983520508,10|0|10|2,0:0|0:0|0:1|0:0,0:0:0:0:
289,267,255642,2,0,P|279:238|272:201,3,53.9999983520508,10|0|10|2,0:1|0:0|0:1|0:0,0:0:0:0:
159,167,255921,2,0,P|164:140|175:81,3,53.9999983520508,10|0|10|2,0:0|0:0|0:1|0:0,0:0:0:0:
262,16,256200,5,10,0:1:0:0:
262,16,256270,1,0,0:0:0:0:
262,16,256340,2,0,P|224:7|204:2,1,53.9999983520508,10|2,0:1|0:0,0:0:0:0:
149,97,256479,5,10,0:0:0:0:
149,97,256549,1,0,0:0:0:0:
149,97,256619,2,0,P|128:103|90:113,1,53.9999983520508,10|2,0:1|0:0,0:0:0:0:
242,195,256759,5,10,0:1:0:0:
242,195,256829,1,0,0:0:0:0:
242,195,256899,2,0,P|204:186|184:181,1,53.9999983520508,10|2,0:1|0:0,0:0:0:0:
70,284,257038,5,10,0:0:0:0:
70,284,257108,1,0,0:0:0:0:
70,284,257178,2,0,P|49:290|11:300,1,53.9999983520508,10|2,0:1|0:0,0:0:0:0:
259,381,257317,5,14,0:1:0:0:
275,384,257386,1,0,0:0:0:0:
291,383,257456,1,10,0:1:0:0:
307,379,257526,1,2,0:0:0:0:
322,373,257596,1,10,0:0:0:0:
334,363,257665,1,0,0:0:0:0:
345,351,257735,1,10,0:1:0:0:
353,337,257805,1,2,0:0:0:0:
359,323,257875,2,0,P|336:298|312:269,3,53.9999983520508,10|0|10|2,0:1|0:0|0:1|0:0,0:0:0:0:
465,131,258154,2,0,P|454:156|445:181,3,53.9999983520508,10|0|10|2,0:0|0:0|0:1|0:0,0:0:0:0:
281,11,258433,5,14,0:1:0:0:
223,76,258526,5,2,0:0:0:0:
251,152,258619,5,2,0:0:0:0:
317,209,258712,5,14,0:1:0:0:
326,261,258805,5,2,0:0:0:0:
275,297,258898,5,2,0:0:0:0:
205,235,258991,5,8,1:2:0:0:
266,205,259084,5,8,0:0:0:0:
336,230,259177,5,8,0:0:0:0:
364,302,259270,5,8,0:0:0:0:
326,369,259363,5,8,0:0:0:0:
251,384,259456,5,8,0:0:0:0:
188,343,259549,6,2,P|257:356|377:385,1,180,12|10,0:1|0:0,0:1:0:0:
474,278,259968,1,0,0:0:0:0:
322,124,260107,2,0,P|307:166|316:210,1,90,2|8,0:0|0:1,0:0:0:0:
377,46,260386,1,8,0:0:0:0:
398,213,260526,6,0,P|351:285|266:272,1,180,12|8,0:1|0:1,0:0:0:0:
63,205,260945,2,0,P|107:196|151:190,1,90,10|0,0:0|0:0,0:0:0:0:
317,210,261224,1,2,0:0:0:0:
182,362,261363,2,0,P|186:317|182:272,1,90,8|8,0:1|0:0,0:0:0:0:
80,116,261642,6,0,P|62:203|72:293,1,180,12|8,0:1|0:1,0:0:0:0:
317,210,262061,2,0,P|272:203|228:195,1,90,10|0,0:0|0:0,0:0:0:0:
12,74,262340,2,0,P|39:40|83:36,1,90,2|8,0:0|0:1,0:0:0:0:
196,89,262619,1,8,0:0:0:0:
20,208,262759,6,0,P|108:221|181:272,1,180,12|8,0:1|0:1,0:0:0:0:
427,258,263177,1,10,0:0:0:0:
318,358,263317,1,0,0:1:0:0:
303,227,263456,6,0,P|293:198|293:168,1,60,2|0,0:0|0:0,0:0:0:0:
429,145,263642,6,0,P|409:167|383:182,1,60,2|10,0:0|0:0,0:0:0:0:
295,77,263828,6,0,P|324:82|350:97,1,60,2|0,0:0|0:0,0:0:0:0:
422,264,264014,6,0,L|243:283,1,180,12|8,0:1|0:0,0:0:0:0:
26,364,264433,2,0,P|39:282|122:282,1,180,2|8,0:0|0:1,0:0:0:0:
250,169,264852,1,8,0:0:0:0:
65,73,264991,6,0,B|78:133|78:133|44:186|44:186|60:239,1,180,12|8,0:1|0:1,0:0:0:0:
208,361,265410,2,0,L|217:271,1,90,10|0,0:0|0:0,0:0:0:0:
295,74,265689,1,2,0:0:0:0:
148,197,265828,1,8,0:1:0:0:
328,262,265968,1,8,0:0:0:0:
138,192,266107,6,0,P|227:181|316:172,1,180,12|8,0:1|0:1,0:0:0:0:
468,42,266526,2,0,P|437:73|428:117,1,90,10|0,0:0|0:0,0:0:0:0:
384,337,266805,2,0,L|376:247,1,90,2|8,0:0|0:1,0:0:0:0:
316,172,267084,1,8,0:0:0:0:
482,368,267224,6,0,L|467:188,1,180,12|8,0:1|0:0,0:0:0:0:
331,73,267642,1,8,0:0:0:0:
164,198,267782,1,8,0:0:0:0:
376,247,267921,5,8,0:0:0:0:
151,81,268061,1,8,0:0:0:0:
67,310,268200,1,8,0:0:0:0:
465,189,268340,1,8,0:0:0:0:
278,384,268479,6,0,P|263:287|245:190,1,180,12|0,0:1|3:0,0:0:0:0:
373,52,268898,6,0,P|388:102|345:139,1,107.999996704102,10|0,0:1|3:0,0:0:0:0:
129,97,269317,6,0,P|184:90|249:78,1,107.999996704102,10|0,0:0|0:0,0:0:0:0:
485,254,269596,6,0,B|418:244|418:244|385:267|385:267|301:255,1,180,10|0,0:1|3:0,0:0:0:0:
156,376,270014,6,0,B|186:342|186:342|167:266,1,107.999996704102,10|0,0:1|3:0,0:0:0:0:
0,144,270433,6,0,P|36:177|103:160,1,107.999996704102,10|0,0:0|0:0,0:0:0:0:
244,61,270712,6,0,B|215:57|191:37|191:37|222:168,1,180,10|0,0:1|3:0,0:0:0:0:
261,370,271131,6,0,P|301:335|280:282,1,107.999996704102,10|0,0:1|3:0,0:0:0:0:
366,162,271549,6,0,B|406:168|406:168|420:183|420:183|470:190,1,107.999996704102,10|0,0:0|0:0,0:0:0:0:
244,61,271828,6,0,B|144:84|144:84|108:58|130:11,1,180,10|0,0:1|3:0,0:0:0:0:
212,153,272247,6,0,L|192:262,1,107.999996704102,10|8,0:1|0:1,0:0:0:0:
109,384,272666,6,0,P|43:340|81:271,1,161.999995056153,10|0,0:0|0:0,0:0:0:0:
100,262,272945,6,0,B|166:274|166:274|190:306|190:306|273:322,1,180,10|0,0:1|3:0,0:0:0:0:
444,144,273363,6,0,P|393:134|357:171,1,107.999996704102,10|0,0:1|3:0,0:0:0:0:
387,255,273782,6,0,P|437:264|472:227,1,107.999996704102,10|0,0:0|0:0,0:0:0:0:
270,48,274061,6,0,B|258:122|258:122|263:139|263:139|247:236,1,180,10|0,0:1|3:0,0:0:0:0:
87,361,274479,6,0,B|115:327|115:327|101:264,1,107.999996704102,10|0,0:1|3:0,0:0:0:0:
4,126,274898,6,0,P|41:161|108:143,1,107.999996704102,10|0,0:0|0:0,0:0:0:0:
270,48,275177,6,0,B|232:24|232:24|175:95|257:155,1,180,10|0,0:1|3:0,0:0:0:0:
350,197,275596,6,0,B|395:189|395:189|412:175|412:175|452:167,1,107.999996704102,10|0,0:1|3:0,0:0:0:0:
273,348,276014,6,0,P|241:305|258:254,1,107.999996704102,10|0,0:0|0:0,0:0:0:0:
64,34,276293,6,0,L|42:170,1,135,10|0,0:1|0:0,0:0:0:0:
55,193,276572,6,0,P|105:206|149:174,1,107.999996704102,8|0,0:0|3:0,0:0:0:0:
222,23,276852,5,8,0:1:0:0:
333,219,276991,1,8,0:1:0:0:
148,175,277131,5,8,0:0:0:0:
423,93,277270,1,8,0:0:0:0:
332,345,277410,6,0,B|268:336|268:336|234:361|234:361|142:345,1,180,12|0,0:1|3:0,0:0:0:0:
184,172,277828,6,0,P|222:202|211:259,1,107.999996704102,10|0,0:1|3:0,0:0:0:0:
66,364,278247,6,0,B|58:320|58:320|61:305|61:305|51:254,1,107.999996704102,10|0,0:0|0:0,0:0:0:0:
28,60,278526,6,0,B|131:38|97:125|205:99,1,180,10|0,0:1|3:0,0:0:0:0:
346,33,278945,6,0,B|316:67|316:67|336:133,1,107.999996704102,10|0,0:1|3:0,0:0:0:0:
464,293,279363,6,0,P|425:257|367:275,1,107.999996704102,10|0,0:0|0:0,0:0:0:0:
264,381,279642,6,0,L|235:200,1,180,10|0,0:1|3:0,0:0:0:0:
51,284,280061,6,0,P|90:318|144:311,1,107.999996704102,10|0,0:1|3:0,0:0:0:0:
235,203,280479,1,10,0:0:0:0:
0,67,280619,1,0,0:0:0:0:
128,42,280759,6,0,P|120:80|112:130,1,90,10|0,0:1|0:0,0:0:0:0:
142,311,281038,1,0,3:0:0:0:
406,206,281177,2,0,B|335:194|335:194|307:214|307:214|217:200,1,180,10|8,0:1|0:1,0:0:0:0:
19,163,281596,1,10,0:0:0:0:
19,163,281875,6,0,B|126:139|126:139|157:164|141:212,1,180,10|0,0:1|0:0,0:0:0:0:
246,357,282293,6,0,B|262:277|262:277|258:254|258:254|272:181,1,180,10|8,0:1|0:1,0:0:0:0:
389,0,282712,6,0,P|428:36|411:97,1,107.999996704102,8|0,0:0|0:0,0:0:0:0:
360,195,282991,6,0,P|316:186|272:180,1,90,10|0,0:1|0:0,0:0:0:0:
66,100,283270,1,0,0:0:0:0:
186,46,283410,2,0,P|168:126|152:226,1,180,10|8,0:1|0:1,0:0:0:0:
134,339,283828,1,8,0:0:0:0:
134,339,284107,5,12,0:1:0:0:
417,289,284247,1,8,0:3:0:0:
310,363,284386,2,0,P|298:317|289:254,1,90,4|8,0:3|0:0,0:0:0:0:
278,47,284666,5,8,0:1:0:0:
194,147,284805,1,4,0:3:0:0:
68,104,284945,2,0,P|53:52|36:9,1,90,8|8,0:1|0:3,0:0:0:0:
199,160,285224,5,8,0:1:0:0:
92,243,285363,1,4,0:3:0:0:
221,299,285503,2,0,P|262:283|320:277,1,90,8|4,0:1|0:3,0:0:0:0:
434,359,285782,5,8,0:1:0:0:
512,272,285921,1,4,0:3:0:0:
468,165,286061,2,0,P|421:159|354:141,1,90,8|8,0:1|0:1,0:0:0:0:
79,81,286340,5,12,0:1:0:0:
308,276,286479,1,8,0:0:0:0:
308,276,286549,1,8,0:0:0:0:
308,276,286619,1,8,0:0:0:0:
124,334,286759,2,0,L|152:168,1,161.999995056153,8|0,0:0|0:0,0:0:0:0:
157,143,287038,5,8,0:0:0:0:
326,279,287177,1,8,0:0:0:0:
381,22,287317,1,8,0:1:0:0:
217,257,287456,5,8,1:2:0:0:
477,123,287596,1,8,1:2:0:0:
38,57,287735,1,12,0:1:0:0:
199,68,297503,6,0,P|136:64|65:55,2,135,2|2|2,0:0|0:0|0:0,0:0:0:0:
466,175,298619,6,0,P|421:173|380:192,1,90,2|2,0:0|0:0,0:0:0:0:
313,266,299038,2,0,P|307:195|299:116,1,135,2|2,0:0|0:0,0:0:0:0:
51,283,299735,6,0,P|116:282|160:331,2,135,2|2|2,0:0|0:0|0:0,0:0:0:0:
199,68,300852,5,2,0:0:0:0:
199,68,300991,2,0,L|192:121,1,45,2|0,0:0|0:0,0:0:0:0:
260,167,301270,2,0,P|302:153|346:146,1,90,2|2,0:0|0:0,0:0:0:0:
408,83,301689,1,2,0:0:0:0:
289,321,301968,6,0,B|174:288|199:382|84:352,1,216,2|0,0:0|0:0,0:0:0:0:
20,287,302945,6,0,P|26:239|31:167,1,108,2|0,0:0|0:0,0:0:0:0:
30,179,303642,6,0,L|67:192,1,36
131,124,303921,2,0,L|165:112,1,36,2|0,0:0|0:0,0:0:0:0:
276,202,304200,6,0,P|344:215|356:93,1,216,2|0,0:0|0:0,0:0:0:0:
150,245,305317,5,14,0:1:0:0:
150,245,305875,5,2,0:0:0:0:
132,146,306014,1,2,0:0:0:0:
276,202,306154,5,2,0:0:0:0:
241,351,306293,1,2,0:0:0:0:
42,117,306433,6,0,B|113:99|113:99|159:126|159:126|228:107,1,198.000006042481,14|8,0:1|0:0,0:0:0:0:
421,48,306852,1,0,0:0:0:0:
372,220,306991,2,0,P|329:208|273:201,1,99.0000030212403,2|8,0:0|0:1,0:0:0:0:
150,245,307270,1,8,0:0:0:0:
335,114,307410,1,0,0:0:0:0:
280,382,307549,6,0,P|272:302|252:176,1,198.000006042481,10|8,0:1|0:0,0:0:0:0:
162,344,307968,1,0,0:0:0:0:
41,205,308107,2,0,P|89:208|127:238,1,99.0000030212403,2|8,0:0|0:1,0:0:0:0:
150,8,308386,2,0,P|131:58|119:109,1,99.0000030212403,8|0,0:0|0:0,0:0:0:0:
439,154,308666,6,0,B|334:119|359:217|247:183,1,198.000006042481,10|8,0:1|0:0,0:0:0:0:
120,102,309084,1,0,0:0:0:0:
298,269,309224,1,10,0:1:0:0:
127,238,309363,1,8,0:1:0:0:
313,69,309503,1,8,0:0:0:0:
312,362,309642,6,0,P|291:317|299:269,1,99.0000030212403,10|0,0:1|0:0,0:0:0:0:
394,62,309921,1,10,0:1:0:0:
253,184,310061,1,8,0:0:0:0:
81,64,310200,6,0,P|130:61|177:46,1,99.0000030212403,10|0,0:1|0:0,0:0:0:0:
277,265,310479,1,8,0:1:0:0:
23,191,310619,1,8,0:0:0:0:
86,370,310759,6,0,B|133:316|133:316|107:192,1,198.000006042481,12|10,0:1|0:1,0:0:0:0:
214,330,311177,1,10,0:0:0:0:
20,273,311317,1,2,0:0:0:0:
260,94,311456,5,10,0:1:0:0:
125,274,311596,1,8,0:1:0:0:
64,49,311735,1,8,0:0:0:0:
281,210,311875,6,0,B|332:158|421:173|421:173|396:213,1,198.000006042481,12|10,0:1|0:1,0:0:0:0:
169,143,312293,1,10,0:0:0:0:
345,3,312433,1,2,0:0:0:0:
281,210,312572,2,0,P|270:113|255:4,1,198.000006042481,2|10,0:0|0:0,0:0:0:0:
0,93,312991,6,0,B|70:106|70:106|98:151|98:151|178:167,1,198.000006042481,12|10,0:1|0:1,0:0:0:0:
401,64,313410,1,10,0:0:0:0:
281,210,313549,1,2,0:0:0:0:
165,41,313689,5,2,0:0:0:0:
374,155,313828,1,8,0:1:0:0:
200,318,313968,1,8,0:0:0:0:
500,251,314107,6,0,P|415:232|349:314,1,198.000006042481,12|8,0:1|0:1,0:0:0:0:
247,111,314526,2,0,L|258:3,1,99.0000030212403,8|8,0:0|1:1,0:0:0:0:
257,12,314735,1,0,1:0:0:0:
257,12,314805,5,8,1:2:0:0:
349,309,314945,1,0,1:0:0:0:
85,169,315084,1,8,1:2:0:0:
22,306,315224,6,0,P|117:281|214:261,1,198.000006042481,12|8,0:1|0:1,0:0:0:0:
460,116,315642,2,0,P|410:110|362:97,1,99.0000030212403,8|0,0:0|0:0,0:0:0:0:
175,47,315921,1,2,0:0:0:0:
293,207,316061,1,8,0:1:0:0:
176,346,316200,1,8,0:0:0:0:
271,123,316340,1,0,0:0:0:0:
454,348,316479,6,0,P|470:281|362:234,1,198.000006042481,10|8,0:1|0:0,0:0:0:0:
259,344,316898,1,0,0:0:0:0:
108,140,317038,2,0,P|155:152|204:161,1,99.0000030212403,2|8,0:0|0:1,0:0:0:0:
106,324,317317,2,0,P|57:332|9:345,1,99.0000030212403,8|0,0:0|0:0,0:0:0:0:
271,46,317596,6,0,P|253:143|239:241,1,198.000006042481,10|8,0:1|0:0,0:0:0:0:
135,49,318014,1,0,0:0:0:0:
370,144,318154,1,10,0:1:0:0:
127,212,318293,1,8,0:1:0:0:
276,28,318433,1,8,0:0:0:0:
358,242,318572,6,0,L|468:266,1,99.0000030212403,12|0,0:1|0:0,0:0:0:0:
137,196,318852,1,8,0:1:0:0:
197,348,318991,1,8,0:0:0:0:
248,59,319131,6,0,B|178:70|178:70|140:107|140:107|59:121,1,198.000006042481,12|8,0:1|0:1,0:0:0:0:
19,42,319549,1,8,0:0:0:0:
262,240,319689,6,0,B|299:194|356:203|356:203|391:246|444:234,1,198.000006042481,12|10,0:1|0:1,0:0:0:0:
328,103,320107,1,10,0:0:0:0:
386,338,320247,1,2,0:0:0:0:
128,313,320386,5,10,0:1:0:0:
423,156,320526,1,8,0:0:0:0:
108,20,320666,1,8,0:0:0:0:
243,337,320805,6,0,B|252:273|252:273|264:250|264:250|259:223|259:223|269:149,1,188.999994232178,12|0,0:1|0:0,0:0:0:0:
254,139,322061,6,0,B|156:108|184:212|50:190,1,198.000006042481,12|8,0:1|0:0,0:0:0:0:
339,189,322479,1,0,0:0:0:0:
232,328,322619,2,0,B|194:299|194:299|213:238,1,99.0000030212403,10|0,0:1|0:0,0:0:0:0:
492,276,322898,1,10,0:0:0:0:
375,384,323038,6,0,P|358:286|338:189,1,198.000006042481,12|8,0:1|0:1,0:0:0:0:
500,94,323456,2,0,P|509:148|466:201,1,99.0000030212403,10|0,0:0|0:0,0:0:0:0:
253,189,323735,1,2,0:0:0:0:
370,38,323875,1,8,0:1:0:0:
417,127,324014,1,10,0:0:0:0:
207,6,324154,6,0,P|116:35|114:133,1,198.000006042481,12|0,0:1|0:0,0:0:0:0:
227,297,324572,2,0,B|265:290|265:290|285:273|285:273|341:262,1,99.0000030212403,10|0,0:0|0:0,0:0:0:0:
232,164,324852,1,10,0:1:0:0:
404,327,324991,1,8,0:1:0:0:
180,384,325131,1,8,0:0:0:0:
418,347,325270,6,0,P|330:322|202:291,1,198.000006042481,12|8,0:1|0:1,0:0:0:0:
255,75,325689,5,10,0:0:0:0:
313,225,325828,1,0,0:0:0:0:
370,155,325968,5,2,0:0:0:0:
131,289,326107,1,8,0:1:0:0:
324,384,326247,2,0,P|371:368|423:356,1,99.0000030212403,10|0,0:0|3:0,0:0:0:0:
106,207,326526,6,0,B|76:202|56:177|56:177|-19:237|24:304,1,198.000006042481,12|10,0:1|0:0,0:0:0:0:
273,130,326945,1,0,0:0:0:0:
101,24,327084,2,0,P|116:85|123:121,1,99.0000030212403,2|8,0:0|0:1,0:0:0:0:
232,215,327363,1,10,0:0:0:0:
0,381,327503,6,0,P|61:323|175:350,1,198.000006042481,12|8,0:1|0:1,0:0:0:0:
350,211,327921,2,0,P|369:269|381:313,1,99.0000030212403,10|0,0:0|0:0,0:0:0:0:
283,99,328200,1,2,0:0:0:0:
509,256,328340,1,8,0:1:0:0:
255,382,328479,1,10,0:0:0:0:
454,196,328619,6,0,B|480:172|516:176|516:176|467:97|382:130,1,215.999993408203,12|8,0:1|0:1,0:0:0:0:
146,240,329038,2,0,P|122:199|137:138,1,107.999996704102,10|0,0:0|0:0,0:0:0:0:
339,86,329317,1,2,0:0:0:0:
231,182,329456,1,8,0:1:0:0:
385,299,329596,1,10,0:0:0:0:
256,0,329735,6,0,P|243:126|234:215,1,175.499991966248,12|0,0:1|0:0,0:0:0:0:
232,268,330014,1,8,0:0:0:0:
325,216,330154,5,8,0:0:0:0:
155,105,330293,1,8,0:0:0:0:
344,208,330433,5,8,0:0:0:0:
81,312,330573,1,8,0:0:0:0:
371,46,330712,5,8,0:0:0:0:
441,384,330852,1,12,0:1:0:0:
