osu file format v14

[General]
AudioFilename: Sweet Arms - Installation.mp3
AudioLeadIn: 0
PreviewTime: 73952
Countdown: 1
SampleSet: Normal
StackLeniency: 0.7
Mode: 0
LetterboxInBreaks: 0
WidescreenStoryboard: 0

[Editor]
Bookmarks: 17602
DistanceSpacing: 0.9
BeatDivisor: 4
GridSize: 4
TimelineZoom: 1.7

[Metadata]
Title:Installation (Short Ver.)
TitleUnicode:インストレーション (Short Ver.)
Artist:sweet ARMS
ArtistUnicode:sweet ARMS
Creator:Littleboy40
Version:Extra
Source:
Tags:
BeatmapID:791722
BeatmapSetID:360159

[Difficulty]
HPDrainRate:6
CircleSize:4
OverallDifficulty:7
ApproachRate:9.5
SliderMultiplier:2
SliderTickRate:1

[Events]
//Background and Video events
0,0,"a8f104e6e31e45f92a9b2fbe6b0a290b.jpg",0,0
//Break Periods
2,52245,89473
//Storyboard Layer 0 (Background)
//Storyboard Layer 1 (Fail)
//Storyboard Layer 2 (Pass)
//Storyboard Layer 3 (Foreground)
//Storyboard Sound Samples

[TimingPoints]
836,279.06976744186,4,1,0,100,1,0
836,-200,4,1,0,100,0,0
20929,-100,4,1,0,100,0,0
21487,-133.333333333333,4,1,0,100,0,0
21905,-100,4,1,0,100,0,0
22324,-133.333333333333,4,1,0,100,0,0
23022,-100,4,1,0,100,0,0
23440,-133.333333333333,4,1,0,100,0,0
24138,-100,4,1,0,100,0,0
24556,-133.333333333333,4,1,0,100,0,0
24835,-200,4,1,0,100,0,0
25394,-100,4,1,0,100,0,0
26789,-133.333333333333,4,1,0,100,0,0
27487,-100,4,1,0,100,0,0
27905,-133.333333333333,4,1,0,100,0,0
28603,-100,4,1,0,100,0,0
30417,-133.333333333333,4,1,0,100,0,0
30835,-100,4,1,0,100,0,0
32370,-133.333333333333,4,1,0,100,0,0
32649,-200,4,1,0,100,0,0
33068,-100,4,1,0,100,0,0
33487,-133.333333333333,4,1,0,100,0,0
34324,-100,4,1,0,100,0,0
34742,-133.333333333333,4,1,0,100,0,0
35161,-100,4,1,0,100,0,0
35719,-133.333333333333,4,1,0,100,0,0
36417,-100,4,1,0,100,0,0
36835,-133.333333333333,4,1,0,100,0,0
37533,-100,4,1,0,100,0,0
38789,-200,4,1,0,100,0,0
74510,-100,4,1,0,100,0,1
89022,-100,4,1,0,100,0,0

[Colours]
Combo1 : 128,128,128
Combo2 : 164,32,240
Combo3 : 255,0,128
Combo4 : 64,0,64
Combo5 : 192,192,192

[HitObjects]
320,140,836,53,0,0:0:0:0:
256,192,975,12,0,2789,0:0:0:0:
320,140,3068,5,0,0:0:0:0:
256,192,3208,12,0,5022,0:0:0:0:
320,140,5301,53,0,0:0:0:0:
256,192,5440,12,0,7254,0:0:0:0:
320,140,7533,5,0,0:0:0:0:
320,140,8649,53,0,0:0:0:0:
240,64,9068,1,0,0:0:0:0:
336,153,9208,1,0,0:0:0:0:
351,164,9626,1,0,0:0:0:0:
250,56,9766,6,0,P|181:28|148:32,1,100
141,27,10603,1,0,0:0:0:0:
117,30,11161,1,0,0:0:0:0:
93,36,11719,1,0,0:0:0:0:
100,191,11998,54,0,P|140:240|184:260,1,100
192,264,12835,1,0,0:0:0:0:
212,268,13394,1,0,0:0:0:0:
232,272,13952,1,0,0:0:0:0:
241,117,14231,6,0,P|308:69|330:62,1,100
340,59,15068,1,0,0:0:0:0:
363,59,15626,1,0,0:0:0:0:
386,62,16184,1,0,0:0:0:0:
423,169,16463,53,0,0:0:0:0:
422,179,17580,5,0,0:0:0:0:
417,193,17859,1,0,0:0:0:0:
392,321,17998,1,0,0:0:0:0:
407,203,18277,1,0,0:0:0:0:
382,331,18416,1,0,0:0:0:0:
370,197,18556,1,0,0:0:0:0:
420,37,18696,54,0,B|380:84|380:84|339:40|249:28|150:60,1,300
107,275,19812,53,0,0:0:0:0:
123,299,19882,1,0,0:0:0:0:
145,319,19952,1,0,0:0:0:0:
175,321,20022,1,0,0:0:0:0:
203,314,20091,1,0,0:0:0:0:
226,295,20161,1,0,0:0:0:0:
237,272,20231,37,0,0:0:0:0:
263,245,20301,1,0,0:0:0:0:
298,235,20370,1,0,0:0:0:0:
335,237,20440,1,0,0:0:0:0:
366,257,20510,1,0,0:0:0:0:
395,279,20580,1,0,0:0:0:0:
423,312,20649,5,0,0:0:0:0:
422,311,20929,6,0,B|454:240|446:173|413:112,1,200,0|0,0:0|0:0,0:0:0:0:
277,44,21347,1,0,0:0:0:0:
123,156,21487,2,0,P|99:206|111:251,1,75.0000028610231
272,162,21766,1,0,0:0:0:0:
123,156,21905,2,0,P|101:246|169:336,1,200,0|0,0:0|0:0,0:0:0:0:
254,233,22324,38,0,P|262:185|285:145,1,75.0000028610231
425,234,22603,1,0,0:0:0:0:
274,160,22742,1,0,0:0:0:0:
401,291,22882,1,0,0:0:0:0:
256,229,23022,2,0,B|168:226|168:226|154:153|204:88,1,200,0|0,0:0|0:0,0:0:0:0:
360,260,23440,6,0,P|340:324|312:344,2,75.0000028610231
371,97,23859,1,0,0:0:0:0:
288,260,23998,1,0,0:0:0:0:
380,60,24138,2,0,B|268:40|268:40|260:80|184:92,1,200,0|0,0:0|0:0,0:0:0:0:
60,236,24556,5,0,0:0:0:0:
232,212,24696,1,0,0:0:0:0:
120,344,24835,2,0,P|152:344|184:336,1,50
296,300,25115,2,0,P|332:300|356:312,1,50
464,340,25394,38,0,P|484:240|448:136,1,200,0|0,0:0|0:0,0:0:0:0:
329,39,25812,5,0,0:0:0:0:
371,307,25952,1,0,0:0:0:0:
298,150,26091,1,0,0:0:0:0:
398,227,26231,1,0,0:0:0:0:
255,53,26370,2,0,B|150:53|150:53|80:95|79:132,1,200,0|0,0:0|0:0,0:0:0:0:
156,301,26789,6,0,P|213:327|244:322,1,75.0000028610231
337,212,27068,2,0,P|276:186|239:190,1,75.0000028610231
146,200,27347,1,0,0:0:0:0:
335,213,27487,2,0,P|263:181|139:205,1,200,0|0,0:0|0:0,0:0:0:0:
243,309,27905,38,0,P|283:327|320:325,1,75.0000028610231
454,320,28184,1,0,0:0:0:0:
381,114,28324,1,0,0:0:0:0:
352,326,28463,1,0,0:0:0:0:
448,102,28603,2,0,P|368:67|249:86,1,200,0|0,0:0|0:0,0:0:0:0:
183,326,29022,5,0,0:0:0:0:
330,81,29161,1,0,0:0:0:0:
256,326,29301,1,0,0:0:0:0:
179,81,29440,1,0,0:0:0:0:
330,326,29580,1,0,0:0:0:0:
255,81,29719,1,0,0:0:0:0:
257,326,29859,6,0,B|312:347|395:327|395:327|417:255,1,200
432,91,30277,1,0,0:0:0:0:
334,249,30417,2,0,P|296:256|244:246,1,75.0000028610231
424,178,30696,1,0,0:0:0:0:
260,250,30835,2,0,B|146:230|146:230|109:144,1,200
275,56,31254,37,0,0:0:0:0:
261,253,31394,1,0,0:0:0:0:
115,151,31533,1,0,0:0:0:0:
306,87,31673,1,0,0:0:0:0:
292,284,31813,1,0,0:0:0:0:
146,184,31952,2,0,B|94:114|94:114|129:90|222:63,1,200
344,142,32370,6,0,P|369:175|381:213,1,75.0000028610231
188,249,32649,2,0,P|163:282|153:310,1,50
254,340,32929,1,0,0:0:0:0:
256,249,33068,2,0,B|256:182|243:142|243:142|142:126,1,200
59,251,33487,2,0,B|79:304|79:304|107:286,1,75.0000028610231
237,200,33766,2,0,P|261:169|263:124,2,75.0000028610231
217,349,34324,6,0,B|319:348|319:348|388:273,1,200
408,249,34742,1,0,0:0:0:0:
454,86,34882,2,0,P|392:82|360:101,1,75.0000028610231
411,215,35161,1,0,0:0:0:0:
454,86,35301,2,0,B|415:66|334:92|265:137,1,200
89,221,35719,1,0,0:0:0:0:
135,349,35859,1,0,0:0:0:0:
206,51,35998,1,0,0:0:0:0:
160,179,36138,1,0,0:0:0:0:
55,53,36277,1,0,0:0:0:0:
68,235,36417,2,0,B|97:298|97:298|161:263|222:275,1,200
406,319,36835,6,0,P|351:351|312:353,1,75.0000028610231
176,355,37115,1,0,0:0:0:0:
356,268,37254,1,0,0:0:0:0:
159,266,37394,1,0,0:0:0:0:
397,175,37533,2,0,B|373:128|325:78,1,100
256,7,37812,1,0,0:0:0:0:
106,83,37952,1,0,0:0:0:0:
80,249,38091,1,0,0:0:0:0:
198,367,38231,1,0,0:0:0:0:
364,341,38370,1,0,0:0:0:0:
441,192,38510,1,0,0:0:0:0:
441,192,38789,6,0,P|445:232|409:277,1,100
276,283,39347,2,0,P|226:259|172:263,1,100
53,287,39905,2,0,P|23:239|28:194,1,100
91,106,40463,2,0,P|141:135|192:126,1,100
319,80,41022,2,0,P|360:78|412:109,1,100
433,132,41440,1,0,0:0:0:0:
437,200,41719,2,0,P|437:248|399:284,1,100
364,307,42138,53,0,0:0:0:0:
319,302,42277,1,0,0:0:0:0:
274,311,42417,1,0,0:0:0:0:
232,295,42556,1,0,0:0:0:0:
186,291,42696,1,0,0:0:0:0:
148,266,42835,1,0,0:0:0:0:
108,244,42975,1,0,0:0:0:0:
88,203,43115,1,0,0:0:0:0:
87,158,43254,6,0,P|110:104|152:80,1,100
312,80,43812,2,0,P|310:129|272:174,1,100
208,299,44370,2,0,P|263:266|312:274,1,100
449,304,44929,2,0,P|426:252|381:207,1,100
280,133,45487,2,0,L|234:111,3,50
174,80,46045,2,0,P|144:66|118:68,3,50
62,64,46603,2,0,B|26:65|26:65|42:81,1,50
122,140,46882,2,0,B|86:141|86:141|102:157,1,50
179,216,47161,2,0,B|142:216|142:216|159:233,1,50
237,297,47440,2,0,B|201:298|201:298|217:314,1,50
280,357,47719,54,0,P|319:320|367:306,1,100
491,284,48277,2,0,P|445:240|446:204,1,100
445,70,48835,2,0,P|407:82|350:69,1,100
216,68,49394,2,0,P|185:106|185:162,1,100
241,302,49952,2,0,B|279:237|279:237|305:255,1,100
355,338,50370,2,0,P|378:284|407:251,1,100
418,236,50929,1,0,0:0:0:0:
475,181,51068,5,0,0:0:0:0:
475,181,51208,1,0,0:0:0:0:
443,74,51347,53,0,0:0:0:0:
443,74,51487,1,0,0:0:0:0:
323,69,51626,5,0,0:0:0:0:
323,69,51766,1,0,0:0:0:0:
186,66,51905,53,0,0:0:0:0:
186,66,52045,1,0,0:0:0:0:
256,192,89998,12,0,94324,0:0:0:0:
