osu file format v14

[General]
AudioFilename: 02 - Installation.mp3
AudioLeadIn: 0
PreviewTime: 73689
Countdown: 0
SampleSet: Soft
StackLeniency: 0.7
Mode: 2
LetterboxInBreaks: 0
WidescreenStoryboard: 0

[Editor]
Bookmarks: 56386,65317,69642,116666,124340,125596,132154,132224,132293,137735,138293,138852,139131,167456,177224,177782,178340,178898,179456,180014,180572,181131,185875,186154,186712,187270,187828,188386,188945,194038,194945,198014,202619,216991,218107,218526,219014,219084,219572,219642,219852,230386,230805,231363,231921,232479,233038,233805,235270,236038,237363,237503,238340,251735,257317,258363,276154,276293,284107,288014,330852
DistanceSpacing: 1.2
BeatDivisor: 4
GridSize: 4
TimelineZoom: 1.599999

[Metadata]
Title:Installation
TitleUnicode:インストレーション
Artist:sweet ARMS
ArtistUnicode:sweet ARMS
Creator:Nitsches
Version:Halvanhelev
Source:デート・ア・ライブ 或守インストール
Tags:arusu ars install compile heart sting playstation visual novel date a live ii 2 shio watanabe go sakabe
BeatmapID:824825
BeatmapSetID:376783

[Difficulty]
HPDrainRate:6
CircleSize:4
OverallDifficulty:9.4
ApproachRate:9.4
SliderMultiplier:1.9
SliderTickRate:2

[Events]
//Background and Video events
0,0,"BackGround.jpg",0,0
//Break Periods
2,154898,163009
2,288852,296666
//Storyboard Layer 0 (Background)
//Storyboard Layer 1 (Fail)
//Storyboard Layer 2 (Pass)
//Storyboard Layer 3 (Foreground)
//Storyboard Sound Samples

[TimingPoints]
573,279.06976744186,4,1,3,70,1,0
642,-133.333333333333,4,2,0,50,0,0
2596,-133.333333333333,4,2,0,5,0,0
2805,-133.333333333333,4,1,3,70,0,0
2875,-133.333333333333,4,2,0,50,0,0
4828,-133.333333333333,4,2,0,5,0,0
5038,-133.333333333333,4,1,3,70,0,0
5107,-133.333333333333,4,2,0,50,0,0
7061,-133.333333333333,4,2,0,5,0,0
7270,-133.333333333333,4,1,3,70,0,0
8456,-133.333333333333,4,2,2,50,0,0
16200,-133.333333333333,4,1,3,60,0,0
17317,-100,4,2,2,60,0,0
18433,-200,4,2,0,60,0,0
19549,-100,4,2,2,50,0,0
20666,-100,4,1,0,60,0,0
38596,-133.333333333333,4,2,2,35,0,0
41875,-133.333333333333,4,2,0,35,0,0
42991,-133.333333333333,4,2,2,35,0,0
55828,-133.333333333333,4,2,2,70,0,0
56386,-114.942528735632,4,2,2,50,0,0
73689,-114.942528735632,4,2,2,30,0,0
74247,-100,4,1,3,70,0,1
89875,-114.942528735632,4,1,3,60,0,0
98805,-133.333333333333,4,2,2,35,0,0
102154,-133.333333333333,4,2,0,35,0,0
103270,-133.333333333333,4,2,2,35,0,0
107735,-114.942528735632,4,2,2,50,0,0
133968,-114.942528735632,4,2,2,30,0,0
134526,-100,4,1,3,70,0,1
148898,-100,4,1,3,60,0,0
163549,-114.942528735632,4,1,2,35,0,0
165503,-114.942528735632,4,1,2,5,0,0
165782,-114.942528735632,4,2,2,60,0,0
168084,-100,4,1,3,60,0,0
168642,-100,4,2,3,60,0,0
168782,-100,4,1,3,60,0,0
176945,-100,4,1,2,60,0,0
180293,-100,4,1,3,60,0,0
203735,-100,4,1,3,70,0,0
203805,-100,4,1,3,60,0,0
230456,-100,4,1,2,60,0,0
233875,-100,4,1,3,60,0,0
235270,-100,4,1,2,60,0,0
238340,-100,4,1,3,60,0,0
239456,-100,4,1,3,60,0,1
239526,-100,4,1,3,60,0,1
248386,-100,4,1,3,70,0,1
256200,-100,4,1,3,40,0,1
256968,-100,4,1,3,70,0,1
259549,-114.942528735632,4,1,3,70,0,0
259619,-114.942528735632,4,1,3,60,0,0
268479,-114.942528735632,4,2,2,50,0,0
288014,-114.942528735632,4,2,2,30,0,0
288572,-114.942528735632,4,2,0,30,0,0
297503,-133.333333333333,4,2,0,30,0,0
305317,-133.333333333333,4,2,0,50,0,0
305875,-114.942528735632,4,2,0,30,0,1
306433,-100,4,1,3,70,0,1
322061,-100,4,1,3,70,0,0
322340,-114.942528735632,4,1,3,60,0,0

[Colours]
Combo1 : 173,53,219
Combo2 : 56,56,56
Combo3 : 176,197,206
Combo4 : 215,0,0

[HitObjects]
256,192,573,5,4,0:0:0:0:
256,192,852,12,0,2596,0:0:0:0:
200,192,2805,5,4,0:0:0:0:
256,192,3084,12,0,4898,0:0:0:0:
112,192,5038,5,4,0:0:0:0:
256,192,5317,12,0,7131,0:0:0:0:
256,192,7270,5,4,0:0:0:0:
64,256,8386,6,0,L|172:350,1,142.500005435944,4|0,0:0|0:0,0:0:0:0:
264,248,8805,1,0,0:0:0:0:
352,96,8945,1,10,0:0:0:0:
107,188,9084,2,0,L|215:95,1,142.500005435944
496,192,9503,5,6,0:0:0:0:
424,304,9782,2,0,L|281:304,1,142.500005435944,2|8,0:0|0:0,0:0:0:0:
380,344,10200,1,0,0:0:0:0:
480,192,10340,2,0,L|362:111,1,142.500005435944,0|2,0:0|0:0,0:0:0:0:
280,104,10759,1,0,0:0:0:0:
199,56,10898,2,0,L|128:56,2,71.2500027179719,2|0|8,0:0|0:0|0:0,0:0:0:0:
56,272,11317,2,0,L|128:272,2,71.2500027179719,2|0|0,0:0|0:0|0:0,0:0:0:0:
336,176,11735,5,6,0:0:0:0:
400,96,11875,2,0,L|472:96,2,71.2500027179719,0|2|0,0:0|0:0|0:0,0:0:0:0:
256,96,12293,2,0,L|184:96,2,71.2500027179719,8|0|0,0:0|0:0|0:0,0:0:0:0:
192,304,12852,2,0,B|248:256|248:256|321:289,1,142.500005435944,2|0,0:0|0:0,0:0:0:0:
416,160,13270,2,0,L|264:160,1,142.500005435944,8|2,0:0|0:0,0:0:0:0:
136,160,13689,2,0,L|208:160,1,71.2500027179719,8|0,0:0|0:0,0:0:0:0:
488,192,13968,5,6,0:0:0:0:
280,192,14247,2,0,L|422:192,1,142.500005435944
304,248,14666,1,0,0:0:0:0:
224,248,14805,2,0,L|128:248,1,71.2500027179719
296,320,15084,2,0,L|349:272,1,71.2500027179719
472,304,15363,2,0,L|419:256,1,71.2500027179719
208,240,15642,1,0,0:0:0:0:
72,160,15782,1,0,0:0:0:0:
208,104,15921,1,0,0:0:0:0:
72,32,16061,1,0,0:0:0:0:
352,32,16200,1,4,0:0:0:0:
240,32,17317,6,0,L|344:32,1,95,6|0,0:0|0:0,0:0:0:0:
464,112,17596,1,8,0:0:0:0:
240,152,17735,2,0,L|344:152,1,95,6|0,0:0|0:0,0:0:0:0:
464,224,18014,1,8,0:0:0:0:
240,296,18154,2,0,B|112:296,1,95,6|0,0:0|0:0,0:0:0:0:
344,40,18433,6,0,B|512:40|512:264|344:264,1,356.25
200,304,19549,5,8,0:0:0:0:
136,304,19619,1,0,0:0:0:0:
72,304,19689,1,0,0:0:0:0:
136,248,19759,1,0,0:0:0:0:
304,192,19829,1,0,0:0:0:0:
352,192,19899,1,0,0:0:0:0:
136,248,19968,5,8,0:0:0:0:
72,248,20038,1,0,0:0:0:0:
8,248,20108,1,0,0:0:0:0:
72,192,20178,1,0,0:0:0:0:
240,136,20248,1,0,0:0:0:0:
288,136,20318,1,0,0:0:0:0:
147,214,20386,6,0,B|59:230|59:230|15:199,1,142.5,8|0,0:0|0:0,0:0:0:0:
160,64,20666,6,0,B|248:88|248:88|336:24,1,190,4|8,0:0|0:0,0:0:0:0:
472,24,21084,1,0,0:0:0:0:
328,192,21224,2,0,L|392:120,2,95,0|0|8,0:0|0:0|0:0,0:0:0:0:
40,104,21642,6,0,B|128:104|128:104|232:48,1,190,4|0,0:0|0:0,0:0:0:0:
424,152,22061,2,0,L|464:64,1,95,8|0,0:0|0:0,0:0:0:0:
328,72,22340,1,0,0:0:0:0:
228,72,22479,1,0,0:0:0:0:
128,72,22619,1,8,0:0:0:0:
360,192,22759,6,0,B|408:273|408:273|488:216,1,190,4|0,0:0|0:0,0:0:0:0:
336,224,23177,2,0,L|256:280,1,95,8|0,0:0|0:0,0:0:0:0:
400,304,23456,1,0,0:0:0:0:
288,304,23596,1,0,0:0:0:0:
176,304,23735,1,0,0:0:0:0:
376,160,23875,6,0,B|457:112|457:112|400:32,1,190,4|0,0:0|0:0,0:0:0:0:
200,64,24293,1,0,0:0:0:0:
312,112,24433,1,8,0:0:0:0:
192,168,24572,2,0,L|288:240,1,95
392,112,24852,2,0,L|296:184,1,95
112,128,25131,6,0,B|64:192|64:192|184:240,1,190,4|8,0:0|0:0,0:0:0:0:
280,120,25550,2,0,L|184:120,1,95
16,72,25828,1,0,0:0:0:0:
120,72,25968,1,8,0:0:0:0:
328,176,26107,6,0,B|432:120|432:120|480:32,1,190,4|0,0:0|0:0,0:0:0:0:
320,288,26526,2,0,L|225:288,1,95,8|0,0:0|0:0,0:0:0:0:
16,240,26805,1,0,0:0:0:0:
144,296,26945,1,0,0:0:0:0:
272,216,27084,1,8,0:0:0:0:
40,88,27224,6,0,B|136:88|136:88|224:48,1,190,4|0,0:0|0:0,0:0:0:0:
440,24,27642,2,0,L|344:24,1,95,8|0,0:0|0:0,0:0:0:0:
240,32,27921,1,0,0:0:0:0:
136,40,28061,2,0,L|216:96,1,95
440,224,28340,6,0,B|440:304|440:304|392:280|392:280|320:280,1,190,4|0,0:0|0:0,0:0:0:0:
136,192,28759,2,0,L|72:112,1,95
232,192,29038,2,0,L|232:68,1,95
388,192,29317,2,0,L|404:96,1,95
144,168,29596,6,0,B|240:168|240:168|320:120,1,190,4|8,0:0|0:0,0:0:0:0:
416,96,30014,1,0,0:0:0:0:
152,192,30154,2,0,L|40:192,2,95,0|0|8,0:0|0:0|0:0,0:0:0:0:
408,24,30572,6,0,B|312:48|312:48|216:24,1,190,4|0,0:0|0:0,0:0:0:0:
312,24,30991,1,8,0:0:0:0:
208,112,31131,1,0,0:0:0:0:
104,112,31270,1,0,0:0:0:0:
16,200,31410,2,0,L|111:200,1,95,0|8,0:0|0:0,0:0:0:0:
320,192,31689,6,0,L|400:136,2,95,4|0|0,0:0|0:0|0:0,0:0:0:0:
119,112,32107,2,0,L|15:112,1,95,8|0,0:0|0:0,0:0:0:0:
256,96,32386,1,0,0:0:0:0:
364,64,32526,1,0,0:0:0:0:
472,24,32666,1,8,0:0:0:0:
256,160,32805,6,0,L|440:232,1,190,4|0,0:0|0:0,0:0:0:0:
88,104,33224,2,0,B|136:200,1,95
368,104,33503,2,0,B|328:200,1,95
92,352,33782,2,0,L|140:256,1,95,8|0,0:0|0:0,0:0:0:0:
376,112,34061,6,0,B|408:216|408:216|368:304,1,190,4|0,0:0|0:0,0:0:0:0:
232,184,34479,1,0,0:0:0:0:
496,120,34619,2,0,B|400:144|400:144|304:112,1,190,0|8,0:0|0:0,0:0:0:0:
104,32,35038,6,0,L|199:32,2,95,4|0|0,0:0|0:0|0:0,0:0:0:0:
304,160,35456,2,0,B|392:240|288:336,1,190,8|0,0:0|0:0,0:0:0:0:
168,300,35875,1,8,0:0:0:0:
60,296,36014,1,0,0:0:0:0:
324,296,36154,6,0,L|424:296,2,95,4|0|0,0:0|0:0|0:0,0:0:0:0:
188,208,36572,2,0,L|88:208,2,95,8|0|0,0:0|0:0|0:0,0:0:0:0:
280,140,36991,1,0,0:0:0:0:
384,140,37131,1,8,0:0:0:0:
136,32,37270,6,0,B|232:56|232:56|328:32,1,190,4|0,0:0|0:0,0:0:0:0:
432,192,37689,1,8,0:0:0:0:
320,272,37828,1,0,0:0:0:0:
208,208,37968,1,0,0:0:0:0:
332,144,38108,1,0,0:0:0:0:
136,120,38247,1,0,0:0:0:0:
368,48,38387,1,0,0:0:0:0:
120,24,38526,6,0,B|48:160|48:160|120:320,1,285
312,288,39084,2,0,P|384:248|384:176,1,142.500005435944,8|0,0:0|0:0,0:0:0:0:
184,192,39642,2,0,B|112:248|120:336,1,142.500005435944
336,248,40200,2,0,P|416:248|416:320,1,142.500005435944
248,216,40759,6,0,B|200:160|200:160|256:104,1,142.500005435944,2|0,0:0|0:0,0:0:0:0:
456,32,41177,1,2,0:0:0:0:
301,75,41456,1,0,0:0:0:0:
128,104,41735,2,0,B|8:176|8:176|208:232|208:232|64:312|64:312,1,498.750019025803
312,296,42991,6,0,B|448:272|448:272|464:120,1,285.000010871888,2|8,0:0|0:0,0:0:0:0:
200,296,44107,2,0,B|64:272|64:272|48:120,1,285.000010871888,0|8,0:0|0:0,0:0:0:0:
400,56,45224,6,0,B|320:40|256:68|256:68|192:40|112:56,2,285.000010871888,2|0|8,0:0|0:0|0:0,0:0:0:0:
256,48,46619,1,2,0:0:0:0:
368,48,46898,1,8,0:0:0:0:
144,48,47177,1,2,0:0:0:0:
376,168,47456,6,0,B|285:279,1,142.500005435944,4|0,0:0|0:0,0:0:0:0:
400,280,47875,1,0,0:0:0:0:
192,304,48014,2,0,B|152:344|152:344|65:312,1,142.500005435944,8|0,0:0|0:0,0:0:0:0:
168,216,48433,1,0,0:0:0:0:
248,216,48572,5,0,0:0:0:0:
168,216,48712,1,0,0:0:0:0:
400,160,48852,2,0,L|336:224,1,71.2500027179719
232,200,49131,2,0,L|288:152,1,71.2500027179719
184,128,49410,2,0,L|128:80,1,71.2500027179719
416,64,49689,6,0,B|448:136|448:136|400:208,1,142.500005435944,2|0,0:0|0:0,0:0:0:0:
280,144,50107,2,0,B|265:176|265:176|281:216,1,71.2500027179719
424,328,50386,2,0,L|344:328,1,71.2500027179719
216,328,50666,2,0,B|88:272|88:272|240:208|240:208,1,285.000010871888
264,152,51503,1,0,0:0:0:0:
192,128,51642,1,0,0:0:0:0:
120,56,51782,1,0,0:0:0:0:
232,56,51921,6,0,B|368:56|368:56|304:104,1,213.750008153916,2|0,0:0|0:0,0:0:0:0:
88,64,52479,2,0,B|16:64,1,71.2500027179719,8|0,0:0|0:0,0:0:0:0:
112,144,52759,1,0,0:0:0:0:
240,288,52898,2,0,L|96:288,1,142.500005435944
160,96,53317,1,0,0:0:0:0:
232,96,53456,6,0,L|375:96,1,142.500005435944
256,136,53875,2,0,L|224:200,1,71.2500027179719
496,232,54154,6,0,L|387:324,1,142.500005435944,2|0,0:0|0:0,0:0:0:0:
144,192,54712,2,0,B|104:248|104:248|152:320,1,142.500005435944
416,200,55270,2,0,B|416:120|416:120|352:80,1,142.500005435944
128,48,55828,1,8,0:0:0:0:
40,112,55968,1,0,0:0:0:0:
168,192,56107,1,8,0:0:0:0:
32,192,56247,1,0,0:0:0:0:
296,336,56386,6,0,B|347:264|347:264|280:184,1,165.300001387253,6|0,0:0|0:0,0:0:0:0:
148,312,56805,2,0,B|48:256|164:184,1,165.300001387253,2|0,0:0|0:0,0:0:0:0:
376,80,57224,2,0,L|272:80,1,82.6500006936264,8|0,0:0|0:0,0:0:0:0:
72,72,57503,6,0,B|208:72|224:80|208:40,1,165.300001387253,2|0,0:0|0:0,0:0:0:0:
356,192,57921,2,0,L|164:192,1,165.300001387253,2|0,0:0|0:0,0:0:0:0:
412,336,58340,2,0,L|316:336,1,82.6500006936264,8|0,0:0|0:0,0:0:0:0:
108,296,58619,6,0,B|40:248|40:248|64:168,1,165.300001387253,2|0,0:0|0:0,0:0:0:0:
208,328,59038,2,0,B|304:272|304:272|344:224,1,165.300001387253,2|0,0:0|0:0,0:0:0:0:
120,64,59456,2,0,L|202:64,1,82.6500006936264,8|0,0:0|0:0,0:0:0:0:
424,80,59735,6,0,B|472:152|472:152|424:224,1,165.300001387253,2|0,0:0|0:0,0:0:0:0:
280,192,60154,2,0,B|280:280|384:312,1,165.300001387253,2|2,0:0|0:0,0:0:0:0:
152,72,60572,1,8,0:0:0:0:
300,72,60712,1,0,0:0:0:0:
80,120,60852,6,0,B|15:64|15:64|104:16,1,165.300001387253,2|0,0:0|0:0,0:0:0:0:
232,24,61270,2,0,B|296:80|260:176,1,165.300001387253,2|0,0:0|0:0,0:0:0:0:
480,320,61689,2,0,L|384:320,1,82.6500006936264,8|0,0:0|0:0,0:0:0:0:
176,300,61968,6,0,P|204:212|208:136,1,165.300001387253,2|0,0:0|0:0,0:0:0:0:
356,200,62386,2,0,B|444:168|332:88|444:60,1,165.300001387253,2|0,0:0|0:0,0:0:0:0:
204,96,62805,2,0,L|312:96,1,82.6500006936264
68,336,63084,6,0,L|236:336,1,165.300001387253,2|0,0:0|0:0,0:0:0:0:
384,272,63503,2,0,B|272:272|224:272|236:232,1,165.300001387253,2|0,0:0|0:0,0:0:0:0:
16,200,63921,2,0,L|96:232,1,82.6500006936264,8|0,0:0|0:0,0:0:0:0:
376,216,64200,6,0,L|302:252,1,82.6500006936264,8|0,0:0|0:0,0:0:0:0:
16,152,64479,2,0,L|91:188,1,82.6500006936264,8|0,0:0|0:0,0:0:0:0:
376,152,64759,2,0,L|302:188,1,82.6500006936264,8|0,0:0|0:0,0:0:0:0:
104,192,65038,1,8,0:0:0:0:
200,192,65177,1,8,0:0:0:0:
432,128,65317,6,0,B|496:192|496:192|472:272,1,165.300001387253,6|0,0:0|0:0,0:0:0:0:
328,32,65735,2,0,B|424:32|440:48|424:152,1,165.300001387253,2|0,0:0|0:0,0:0:0:0:
208,108,66154,2,0,L|281:144,1,82.6500006936264,8|0,0:0|0:0,0:0:0:0:
64,136,66433,6,0,L|60:301,1,165.300001387253,2|0,0:0|0:0,0:0:0:0:
208,272,66852,2,0,B|152:224|152:224|56:208,1,165.300001387253,2|0,0:0|0:0,0:0:0:0:
280,216,67270,2,0,L|192:216,1,82.6500006936264,8|0,0:0|0:0,0:0:0:0:
416,40,67549,6,0,P|400:72|256:128,1,165.300001387253,2|0,0:0|0:0,0:0:0:0:
440,264,67968,2,0,B|504:192|504:192|464:128,1,165.300001387253,2|0,0:0|0:0,0:0:0:0:
248,192,68386,2,0,L|330:192,1,82.6500006936264,8|0,0:0|0:0,0:0:0:0:
108,300,68666,6,0,B|40:240|40:240|84:160,1,165.300001387253,2|0,0:0|0:0,0:0:0:0:
224,144,69084,2,0,L|400:144,1,165.300001387253,2|2,0:0|0:0,0:0:0:0:
168,68,69503,1,8,0:0:0:0:
80,72,69642,1,0,0:0:0:0:
300,240,69782,6,0,L|465:240,1,165.300001387253,2|0,0:0|0:0,0:0:0:0:
316,304,70200,2,0,L|150:304,1,165.300001387253,2|0,0:0|0:0,0:0:0:0:
372,336,70619,1,8,0:0:0:0:
160,104,70898,6,0,L|424:152,1,247.950002080879
184,192,71456,2,0,L|296:192,1,82.6500006936264
384,192,71735,1,0,0:0:0:0:
48,192,72014,5,6,0:0:0:0:
296,152,72154,1,8,0:0:0:0:
344,184,72223,1,0,0:0:0:0:
392,224,72293,1,8,0:0:0:0:
168,152,72433,1,8,0:0:0:0:
95,151,72572,2,0,B|80:112|80:112|96:72,1,82.6500006936264,2|2,0:0|0:0,0:0:0:0:
418,71,72852,2,0,B|432:112|432:112|416:152,1,82.6500006936264,8|2,0:0|0:0,0:0:0:0:
168,80,73131,5,4,0:0:0:0:
368,80,73270,1,0,0:0:0:0:
96,80,73410,1,4,0:0:0:0:
232,304,73689,5,0,0:0:0:0:
104,304,73828,1,0,0:0:0:0:
304,240,73968,1,0,0:0:0:0:
176,240,74107,1,0,0:0:0:0:
408,336,74247,6,0,B|480:264|480:264|432:184,1,190,4|8,0:0|0:0,0:0:0:0:
288,176,74666,1,0,0:0:0:0:
140,184,74805,2,0,L|128:76,1,95
360,96,75084,2,0,L|456:96,1,95,8|0,0:0|0:0,0:0:0:0:
224,104,75363,6,0,B|144:56|144:56|56:104,1,190,0|8,0:0|0:0,0:0:0:0:
128,184,75782,1,0,0:0:0:0:
348,328,75921,2,0,L|360:224,1,95
144,232,76200,2,0,L|168:328,1,95,8|0,0:0|0:0,0:0:0:0:
460,184,76479,6,0,B|384:128|384:128|288:168,1,190,0|8,0:0|0:0,0:0:0:0:
176,264,76898,1,0,0:0:0:0:
376,328,77038,2,0,L|471:328,2,95,0|0|8,0:0|0:0|0:0,0:0:0:0:
136,328,77456,6,0,B|40:296,1,95,4|0,0:0|0:0,0:0:0:0:
328,192,77735,1,0,0:0:0:0:
184,192,77875,1,8,0:0:0:0:
384,328,78014,2,0,B|480:296,1,95,4|0,0:0|0:0,0:0:0:0:
256,192,78293,1,0,0:0:0:0:
368,192,78433,1,8,0:0:0:0:
172,264,78572,6,0,L|267:264,1,95,4|0,0:0|0:0,0:0:0:0:
424,88,78852,2,0,L|329:88,1,95,0|8,0:0|0:0,0:0:0:0:
128,192,79131,1,0,0:0:0:0:
432,192,79270,2,0,B|472:112|472:112|432:16,1,190,8|8,0:0|0:0,0:0:0:0:
216,24,79689,6,0,B|176:104|176:104|224:192,1,190,4|0,0:0|0:0,0:0:0:0:
352,240,80107,1,8,0:0:0:0:
112,328,80247,1,0,0:0:0:0:
20,248,80386,1,8,0:0:0:0:
152,192,80526,1,0,0:0:0:0:
24,128,80666,1,8,0:0:0:0:
256,336,80805,6,0,B|296:296|296:296|216:224|216:224|256:184,1,190,4|0,0:0|0:0,0:0:0:0:
368,88,81224,1,8,0:0:0:0:
456,32,81364,1,0,0:0:0:0:
208,24,81503,2,0,B|128:64|128:64|192:152,1,190,8|0,0:0|0:0,0:0:0:0:
264,144,81921,1,4,0:0:0:0:
64,240,82061,6,0,L|159:240,1,95
304,272,82340,2,0,B|200:272,1,95,8|8,0:0|0:0,0:0:0:0:
352,272,82619,1,0,0:0:0:0:
208,236,82759,1,8,0:0:0:0:
504,232,82898,1,8,0:0:0:0:
288,176,83038,6,0,B|192:195|192:195|104:171,1,190,4|0,0:0|0:0,0:0:0:0:
224,136,83456,2,0,L|168:56,1,95,8|0,0:0|0:0,0:0:0:0:
400,152,83735,2,0,L|443:68,1,95
296,56,84014,2,0,L|240:144,1,95,8|0,0:0|0:0,0:0:0:0:
24,296,84293,6,0,B|80:224|80:224|8:128,1,190,4|8,0:0|0:0,0:0:0:0:
116,64,84712,1,0,0:0:0:0:
212,280,84852,2,0,L|112:280,1,95
272,136,85131,2,0,L|368:136,1,95,8|0,0:0|0:0,0:0:0:0:
64,272,85410,6,0,B|64:168|64:168|136:88,1,190,4|8,0:0|0:0,0:0:0:0:
208,40,85828,1,0,0:0:0:0:
408,136,85968,2,0,L|480:208,1,95
344,296,86247,1,8,0:0:0:0:
116,280,86386,6,0,B|48:216|48:216|48:120,1,190,4|0,0:0|0:0,0:0:0:0:
168,120,86805,1,8,0:0:0:0:
464,120,86945,2,0,B|464:216|464:216|392:280,1,190,4|0,0:0|0:0,0:0:0:0:
280,280,87363,1,8,0:0:0:0:
56,120,87503,6,0,B|152:104|152:104|248:120,1,190,4|0,0:0|0:0,0:0:0:0:
392,216,87921,2,0,B|424:256|424:256|424:304,1,95,8|0,0:0|0:0,0:0:0:0:
168,208,88200,2,0,B|144:248|144:248|144:296,1,95,8|0,0:0|0:0,0:0:0:0:
368,104,88479,1,8,0:0:0:0:
80,104,88619,1,4,0:0:0:0:
256,192,88759,12,4,89876,0:0:0:0:
256,192,90154,6,0,L|168:192,1,82.6500006936264,8|0,0:0|0:0,0:0:0:0:
384,128,90433,2,0,L|480:128,2,82.6500006936264,0|0|8,0:0|0:0|0:0,0:0:0:0:
62,81,90852,6,0,B|128:40|128:40|216:64,1,165.300001387253,4|0,0:0|0:0,0:0:0:0:
304,128,91270,2,0,L|220:128,1,82.6500006936264,8|0,0:0|0:0,0:0:0:0:
112,296,91549,2,0,L|24:296,2,82.6500006936264
368,264,91968,6,0,B|304:312|304:312|216:312,1,165.300001387253,4|0,0:0|0:0,0:0:0:0:
312,224,92386,2,0,L|408:224,2,82.6500006936264,8|0|0,0:0|0:0|0:0,0:0:0:0:
424,120,92805,1,8,0:0:0:0:
328,120,92945,1,0,0:0:0:0:
24,128,93084,6,0,B|104:104|104:104|168:48,1,165.300001387253,4|0,0:0|0:0,0:0:0:0:
288,168,93503,1,0,0:0:0:0:
188,104,93642,1,0,0:0:0:0:
44,208,93782,1,0,0:0:0:0:
144,284,93921,1,0,0:0:0:0:
288,296,94061,2,0,L|205:296,1,82.6500006936264,8|0,0:0|0:0,0:0:0:0:
468,228,94340,6,0,B|480:148|480:148|416:92,1,165.300001387253,4|8,0:0|0:0,0:0:0:0:
264,188,94759,1,0,0:0:0:0:
112,192,94898,2,0,L|30:192,2,82.6500006936264,0|0|8,0:0|0:0|0:0,0:0:0:0:
320,48,95317,6,0,B|396:72|448:72|448:72|440:36,1,165.300001387253,4|0,0:0|0:0,0:0:0:0:
320,116,95735,2,0,L|212:96,1,82.6500006936264,8|0,0:0|0:0,0:0:0:0:
360,304,96014,2,0,L|452:304,2,82.6500006936264,0|0|8,0:0|0:0|0:0,0:0:0:0:
112,304,96433,6,0,L|8:176,1,165.300001387253,4|0,0:0|0:0,0:0:0:0:
136,24,96852,2,0,L|54:24,2,82.6500006936264,8|0|0,0:0|0:0|0:0,0:0:0:0:
256,88,97270,1,0,0:0:0:0:
136,88,97410,1,8,0:0:0:0:
352,144,97549,6,0,B|416:96|416:96|344:40,1,165.300001387253,4|0,0:0|0:0,0:0:0:0:
104,48,97968,1,8,0:0:0:0:
168,120,98107,1,0,0:0:0:0:
92,192,98247,1,8,0:0:0:0:
384,48,98386,1,8,0:0:0:0:
320,116,98525,1,0,0:0:0:0:
396,192,98665,1,8,0:0:0:0:
184,40,98805,6,0,B|56:68|24:132|92:184|120:196,1,249.375009512902
40,232,99363,2,0,L|304:232,1,249.375009512902,8|0,0:0|0:0,0:0:0:0:
368,192,99921,2,0,B|240:176|224:128|240:80|336:48,1,249.375009512902
236,152,100479,2,0,B|310:176|326:224|310:272|182:288,1,249.375009512902
104,120,101038,6,0,L|248:120,1,142.500005435944,2|0,0:0|0:0,0:0:0:0:
404,192,101456,1,0,0:0:0:0:
272,192,101735,1,0,0:0:0:0:
144,192,102014,1,2,0:0:0:0:
344,136,102154,6,0,L|424:120,2,71.2500027179719,2|0|0,0:0|0:0|0:0,0:0:0:0:
224,80,102572,1,2,0:0:0:0:
96,136,102712,2,0,L|8:120,2,71.2500027179719,2|0|2,0:0|0:0|0:0,0:0:0:0:
392,304,103270,6,0,B|472:200|472:200|320:152,1,285.000010871888
120,304,104386,2,0,B|40:200|40:200|192:152,1,285.000010871888
368,320,105503,2,0,B|442:296|458:248|442:200|314:184,1,249.375009512902
244,212,106061,2,0,B|172:204|152:180|136:132|144:108,1,142.500005435944
312,32,106619,5,0,0:0:0:0:
136,32,106898,1,0,0:0:0:0:
336,32,107177,1,0,0:0:0:0:
80,32,107456,1,0,0:0:0:0:
184,56,107735,6,0,L|248:112,1,82.6500006936264,0|2,0:0|0:0,0:0:0:0:
488,40,108014,2,0,L|400:40,1,82.6500006936264,6|2,0:0|0:0,0:0:0:0:
168,48,108293,2,0,L|0:48,1,165.300001387253,8|2,0:0|0:0,0:0:0:0:
128,120,108712,1,0,0:0:0:0:
0,258,108852,6,0,L|40:188,1,82.6500006936264,0|2,0:0|0:0,0:0:0:0:
176,256,109131,2,0,L|240:192,2,82.6500006936264,8|0|2,0:0|0:0|0:0,0:0:0:0:
400,200,109549,1,2,0:0:0:0:
320,264,109689,2,0,L|403:264,1,82.6500006936264,8|0,0:0|0:0,0:0:0:0:
40,240,109968,6,0,B|56:328|56:328|124:360,1,165.300001387253,2|0,0:0|0:0,0:0:0:0:
40,152,110386,1,2,0:0:0:0:
317,48,110526,2,0,L|152:56,1,165.300001387253,8|2,0:0|0:0,0:0:0:0:
448,88,110945,2,0,B|488:168|488:168|440:232,1,165.300001387253,0|2,0:0|0:0,0:0:0:0:
237,328,111363,6,0,L|320:328,1,82.6500006936264,8|0,0:0|0:0,0:0:0:0:
96,248,111642,2,0,L|20:292,2,82.6500006936264,8|0|0,0:0|0:0|0:0,0:0:0:0:
216,152,112060,1,2,0:0:0:0:
96,48,112200,6,0,L|261:48,1,165.300001387253,2|0,0:0|0:0,0:0:0:0:
372,48,112619,1,2,0:0:0:0:
480,48,112759,2,0,B|504:128|504:128|448:200,1,165.300001387253,8|2,0:0|0:0,0:0:0:0:
320,272,113177,2,0,B|400:256|400:256|488:304,1,165.300001387253,0|2,0:0|0:0,0:0:0:0:
104,280,113596,6,0,L|0:280,2,82.6500006936264,8|0|2,0:0|0:0|0:0,0:0:0:0:
220,220,114014,1,2,0:0:0:0:
124,160,114154,2,0,L|32:160,1,82.6500006936264,8|0,0:0|0:0,0:0:0:0:
320,224,114433,6,0,B|394:224|394:224|376:128,1,165.300001387253,2|0,0:0|0:0,0:0:0:0:
256,176,114852,1,2,0:0:0:0:
493,63,114991,2,0,B|416:48|416:48|336:80,1,165.300001387253,8|2,0:0|0:0,0:0:0:0:
112,88,115410,1,0,0:0:0:0:
288,128,115689,5,2,0:0:0:0:
160,288,115828,2,0,L|78:288,1,82.6500006936264,8|0,0:0|0:0,0:0:0:0:
296,248,116107,1,8,0:0:0:0:
416,248,116247,1,8,0:0:0:0:
328,192,116386,1,0,0:0:0:0:
456,192,116526,1,0,0:0:0:0:
128,208,116666,6,0,B|72:200|72:200|24:96,1,165.300001387253,4|0,0:0|0:0,0:0:0:0:
176,216,117084,2,0,B|208:176|208:176|256:72,1,165.300001387253,2|0,0:0|0:0,0:0:0:0:
480,152,117503,2,0,L|480:248,1,82.6500006936264,8|0,0:0|0:0,0:0:0:0:
160,336,117782,6,0,L|326:336,1,165.300001387253,2|0,0:0|0:0,0:0:0:0:
176,48,118200,2,0,L|344:48,1,165.300001387253,2|0,0:0|0:0,0:0:0:0:
40,108,118619,2,0,L|40:208,1,82.6500006936264,8|0,0:0|0:0,0:0:0:0:
272,80,118898,6,0,L|344:232,1,165.300001387253,2|0,0:0|0:0,0:0:0:0:
492,80,119317,2,0,L|448:240,1,165.300001387253,2|0,0:0|0:0,0:0:0:0:
200,304,119735,2,0,L|280:328,1,82.6500006936264,8|0,0:0|0:0,0:0:0:0:
80,136,120014,6,0,L|17:289,1,165.300001387253,2|0,0:0|0:0,0:0:0:0:
192,200,120433,2,0,L|263:242,2,82.6500006936264,2|0|2,0:0|0:0|0:0,0:0:0:0:
400,32,120852,1,8,0:0:0:0:
36,36,121131,6,0,B|112:56|112:56|192:16,1,165.300001387253,2|0,0:0|0:0,0:0:0:0:
336,40,121549,2,0,B|256:8|256:8|176:32,1,165.300001387253,2|0,0:0|0:0,0:0:0:0:
368,24,121968,2,0,L|286:24,1,82.6500006936264,8|0,0:0|0:0,0:0:0:0:
48,112,122247,6,0,B|24:192|24:192|44:280,1,165.300001387253,2|0,0:0|0:0,0:0:0:0:
192,128,122666,2,0,B|216:200|216:200|280:272,1,165.300001387253,2|0,0:0|0:0,0:0:0:0:
472,256,123084,2,0,L|368:256,1,82.6500006936264,8|0,0:0|0:0,0:0:0:0:
32,256,123363,6,0,B|104:216|104:216|136:120,1,165.300001387253,2|0,0:0|0:0,0:0:0:0:
280,48,123782,2,0,L|115:48,1,165.300001387253,2|0,0:0|0:0,0:0:0:0:
424,136,124200,2,0,L|336:136,1,82.6500006936264,8|0,0:0|0:0,0:0:0:0:
120,136,124479,6,0,L|204:136,1,82.6500006936264,2|0,0:0|0:0,0:0:0:0:
476,220,124759,2,0,L|388:220,1,82.6500006936264,8|0,0:0|0:0,0:0:0:0:
36,212,125038,6,0,L|120:212,1,82.6500006936264,2|0,0:0|0:0,0:0:0:0:
208,208,125317,1,8,0:0:0:0:
432,144,125456,1,8,0:0:0:0:
48,143,125596,6,0,B|16:216|16:216|80:280,1,165.300001387253
224,272,126014,2,0,B|200:192|200:192|112:232,1,165.300001387253,2|0,0:0|0:0,0:0:0:0:
400,48,126433,1,8,0:0:0:0:
496,48,126572,1,0,0:0:0:0:
216,232,126712,6,0,B|152:176|152:176|236:128,1,165.300001387253,2|0,0:0|0:0,0:0:0:0:
72,136,127131,2,0,B|32:208|32:208|64:284,1,165.300001387253,2|0,0:0|0:0,0:0:0:0:
368,328,127549,1,8,0:0:0:0:
264,328,127689,1,0,0:0:0:0:
480,256,127828,6,0,L|504:80,1,165.300001387253,2|0,0:0|0:0,0:0:0:0:
352,80,128247,2,0,L|264:240,1,165.300001387253,2|0,0:0|0:0,0:0:0:0:
509,93,128666,1,8,0:0:0:0:
359,245,128805,1,0,0:0:0:0:
64,208,128945,6,0,B|32:128|32:128|88:64,1,165.300001387253,2|0,0:0|0:0,0:0:0:0:
232,64,129363,2,0,L|160:224,1,165.300001387253,2|2,0:0|0:0,0:0:0:0:
440,328,129782,2,0,L|357:328,1,82.6500006936264,8|0,0:0|0:0,0:0:0:0:
222,314,130061,6,0,B|304:280|304:280|368:332,1,165.300001387253,2|0,0:0|0:0,0:0:0:0:
512,360,130479,2,0,L|512:192,1,165.300001387253,2|0,0:0|0:0,0:0:0:0:
248,112,130898,2,0,L|330:112,1,82.6500006936264,8|0,0:0|0:0,0:0:0:0:
120,104,131177,6,0,B|136:24|136:24|216:48|216:48|288:-8,1,247.950002080879,2|0,0:0|0:0,0:0:0:0:
64,88,131735,2,0,B|136:176,1,82.6500006936264,2|0,0:0|0:0,0:0:0:0:
408,192,132014,1,8,0:0:0:0:
48,192,132293,5,6,0:0:0:0:
280,248,132433,1,8,0:0:0:0:
240,200,132502,1,0,0:0:0:0:
200,160,132572,1,8,0:0:0:0:
408,192,132712,1,8,0:0:0:0:
128,152,132851,2,0,L|112:64,1,82.6500006936264,2|2,0:0|0:0,0:0:0:0:
400,72,133131,2,0,L|432:152,1,82.6500006936264,8|2,0:0|0:0,0:0:0:0:
232,352,133410,5,4,0:0:0:0:
104,216,133549,1,4,0:0:0:0:
336,216,133689,1,4,0:0:0:0:
104,168,133968,6,0,B|96:216|96:216|112:256,1,82.6500006936264
408,248,134247,2,0,B|416:208|416:208|400:160,1,82.6500006936264
152,208,134526,6,0,L|256:44,1,190,4|8,0:0|0:0,0:0:0:0:
56,128,134945,1,0,0:0:0:0:
288,136,135084,2,0,L|288:232,1,95
0,264,135363,2,0,L|96:264,1,95,8|0,0:0|0:0,0:0:0:0:
440,308,135642,6,8,L|516:104,1,190,0|8,0:0|0:0,0:0:0:0:
368,32,136061,1,0,0:0:0:0:
488,64,136200,2,0,L|384:64,1,95
144,224,136479,2,0,L|240:224,1,95,8|0,0:0|0:0,0:0:0:0:
448,304,136759,6,0,B|480:224|480:224|440:128,1,190,0|8,0:0|0:0,0:0:0:0:
152,88,137177,1,0,0:0:0:0:
276,128,137317,2,0,L|181:128,1,95
308,80,137596,1,0,0:0:0:0:
512,84,137735,6,0,L|424:121,1,95,4|0,0:0|0:0,0:0:0:0:
192,32,138014,1,0,0:0:0:0:
320,32,138154,1,8,0:0:0:0:
0,92,138293,2,0,L|87:129,1,95,4|0,0:0|0:0,0:0:0:0:
320,136,138572,1,0,0:0:0:0:
192,136,138712,1,8,0:0:0:0:
460,280,138852,2,0,L|360:248,1,95,4|0,0:0|0:0,0:0:0:0:
64,140,139131,6,0,L|144:192,2,95,0|8|0,0:0|0:0|0:0,0:0:0:0:
348,312,139549,2,0,B|428:272|428:272|484:188,1,190,8|8,0:0|0:0,0:0:0:0:
124,240,139968,6,0,B|84:152|84:152|132:64,1,190,4|0,0:0|0:0,0:0:0:0:
392,192,140386,2,0,L|496:192,1,95
180,136,140666,2,0,L|276:136,2,95
464,192,141084,6,0,B|464:296|464:296|408:360,1,190,4|0,0:0|0:0,0:0:0:0:
104,336,141503,2,0,L|72:136,1,190,8|0,0:0|0:0,0:0:0:0:
176,192,141921,2,0,L|271:192,1,95,0|8,0:0|0:0,0:0:0:0:
16,56,142200,6,0,L|208:56,1,190,4|0,0:0|0:0,0:0:0:0:
416,48,142619,2,0,B|453:133|453:133|416:224,1,190,8|8,0:0|0:0,0:0:0:0:
304,208,143038,1,0,0:0:0:0:
432,312,143177,1,0,0:0:0:0:
48,312,143317,6,0,B|16:264|16:264|80:120,1,190,4|0,0:0|0:0,0:0:0:0:
336,108,143735,2,0,L|336:232,1,95,8|0,0:0|0:0,0:0:0:0:
176,200,144014,2,0,L|176:104,1,95
408,40,144293,2,0,L|432:136,1,95,8|0,0:0|0:0,0:0:0:0:
78,128,144572,6,0,B|96:32|96:32|192:8,1,190,4|8,0:0|0:0,0:0:0:0:
288,96,144991,1,0,0:0:0:0:
124,228,145131,2,0,L|28:228,1,95
161,96,145410,2,0,L|257:96,1,95,8|0,0:0|0:0,0:0:0:0:
464,184,145689,6,0,L|516:300,1,95,4|0,0:0|0:0,0:0:0:0:
204,268,145968,1,8,0:0:0:0:
328,268,146107,1,0,0:0:0:0:
32,264,146247,2,0,L|128:264,1,95
32,184,146526,1,8,0:0:0:0:
423,144,146666,6,0,L|328:144,1,95,4|0,0:0|0:0,0:0:0:0:
128,136,146945,2,0,L|223:136,1,95,4|0,0:0|0:0,0:0:0:0:
24,80,147224,2,0,L|120:80,1,95,4|0,0:0|0:0,0:0:0:0:
256,96,147503,1,0,0:0:0:0:
400,144,147642,1,8,0:0:0:0:
180,276,147782,6,0,B|120:344|120:344|24:320,1,190,4|0,0:0|0:0,0:0:0:0:
344,80,148200,2,0,L|344:200,1,95,8|0,0:0|0:0,0:0:0:0:
168,176,148479,2,0,L|168:80,1,95,8|0,0:0|0:0,0:0:0:0:
392,268,148759,1,8,0:0:0:0:
168,272,148898,1,4,0:0:0:0:
256,192,149038,12,0,149875,0:0:0:0:
256,192,150154,5,4,0:0:0:0:
256,192,150293,12,0,154619,0:0:0:0:
256,192,163549,12,0,165503,0:0:0:0:
208,104,165782,6,0,B|128:128|128:128|48:104,1,165.300001387253,2|0,0:0|0:0,0:0:0:0:
320,72,166200,2,0,B|408:48|408:48|488:72,1,165.300001387253,2|2,0:0|0:0,0:0:0:0:
208,136,166619,2,0,L|120:136,1,82.6500006936264,2|0,0:0|0:0,0:0:0:0:
440,336,166898,5,8,0:0:0:0:
320,336,167038,1,0,0:0:0:0:
200,336,167177,1,8,0:0:0:0:
72,336,167317,1,0,0:0:0:0:
296,288,167456,1,0,0:0:0:0:
200,280,167596,1,8,0:0:0:0:
312,224,167735,1,0,0:0:0:0:
104,224,167875,1,8,0:0:0:0:
424,240,168014,6,0,L|520:208,1,82.6500006936264,4|0,0:0|0:0,0:0:0:0:
296,128,168293,2,0,B|200:168,1,95,8|0,0:0|0:0,0:0:0:0:
126,102,168572,1,0,0:0:0:0:
328,40,168712,1,0,0:0:0:0:
216,40,168852,1,8,0:0:0:0:
424,64,168991,5,0,0:0:0:0:
472,104,169061,1,0,0:0:0:0:
496,160,169131,1,0,0:0:0:0:
496,224,169200,1,0,0:0:0:0:
472,280,169270,1,0,0:0:0:0:
424,320,169340,1,0,0:0:0:0:
200,224,169410,6,0,B|96:288|96:288|24:136,1,285
136,232,169968,2,0,L|96:144,1,95,8|0,0:0|0:0,0:0:0:0:
144,104,170177,1,0,0:0:0:0:
208,104,170247,1,0,0:0:0:0:
416,128,170386,5,0,0:0:0:0:
480,48,170526,2,0,L|384:48,2,95,8|0|0,0:0|0:0|0:0,0:0:0:0:
328,192,170945,1,0,0:0:0:0:
112,336,171084,2,0,L|208:336,1,95,8|0,0:0|0:0,0:0:0:0:
484,192,171363,6,0,L|380:192,1,95,4|0,0:0|0:0,0:0:0:0:
152,128,171642,1,8,0:0:0:0:
417,60,171782,2,0,L|512:60,1,95,4|0,0:0|0:0,0:0:0:0:
256,128,172061,1,0,0:0:0:0:
156,128,172200,1,8,0:0:0:0:
360,32,172340,6,0,B|272:56|272:56|176:32,1,190,4|0,0:0|0:0,0:0:0:0:
16,104,172759,2,0,L|56:208,1,95,8|0,0:0|0:0,0:0:0:0:
248,216,173038,2,0,L|224:120,1,95
24,144,173317,2,0,L|56:240,1,95,8|0,0:0|0:0,0:0:0:0:
272,272,173596,2,0,L|224:160,1,95
176,144,173805,5,0,0:0:0:0:
120,112,173875,1,8,0:0:0:0:
16,80,174014,1,0,0:0:0:0:
216,120,174154,1,0,0:0:0:0:
312,192,174293,1,0,0:0:0:0:
216,248,174433,1,8,0:0:0:0:
416,128,174572,6,0,B|456:208|456:208|404:296,1,190
168,352,174991,2,0,L|52:352,1,95,8|0,0:0|0:0,0:0:0:0:
224,144,175270,2,0,L|344:144,1,95
76,232,175549,1,8,0:0:0:0:
0,232,175689,1,0,0:0:0:0:
344,88,175828,6,0,B|344:184|344:184|264:240,1,190,4|8,0:0|0:0,0:0:0:0:
24,60,176247,2,0,L|224:48,1,190,4|0,0:0|0:0,0:0:0:0:
336,120,176666,1,8,0:0:0:0:
424,232,176805,1,0,0:0:0:0:
104,336,176945,2,0,L|152:340,3,47.5,4|0|0|0,0:0|0:0|0:0|0:0,0:0:0:0:
200,304,177224,5,0,0:0:0:0:
240,288,177293,1,0,0:0:0:0:
280,272,177363,1,0,0:0:0:0:
320,256,177433,1,0,0:0:0:0:
424,224,177503,1,0,0:0:0:0:
480,184,177572,1,0,0:0:0:0:
480,120,177642,1,0,0:0:0:0:
424,80,177712,1,0,0:0:0:0:
152,352,177782,5,0,0:0:0:0:
112,320,177852,1,0,0:0:0:0:
80,280,177921,1,0,0:0:0:0:
64,232,177991,1,0,0:0:0:0:
128,232,178061,1,0,0:0:0:0:
88,200,178131,1,0,0:0:0:0:
56,168,178200,1,0,0:0:0:0:
40,120,178270,1,0,0:0:0:0:
368,352,178340,5,0,0:0:0:0:
408,320,178410,1,0,0:0:0:0:
440,280,178479,1,0,0:0:0:0:
464,232,178549,1,0,0:0:0:0:
288,208,178619,1,0,0:0:0:0:
240,168,178689,1,0,0:0:0:0:
432,200,178759,1,0,0:0:0:0:
480,160,178828,1,0,0:0:0:0:
80,200,178898,5,0,0:0:0:0:
32,160,178968,1,0,0:0:0:0:
224,208,179038,1,0,0:0:0:0:
272,168,179107,1,0,0:0:0:0:
456,152,179177,1,0,0:0:0:0:
480,104,179247,1,0,0:0:0:0:
448,48,179317,1,0,0:0:0:0:
392,24,179386,1,0,0:0:0:0:
120,38,179456,5,0,0:0:0:0:
90,74,179525,1,0,0:0:0:0:
78,120,179595,1,0,0:0:0:0:
87,166,179665,1,0,0:0:0:0:
114,204,179735,1,0,0:0:0:0:
155,228,179804,1,0,0:0:0:0:
202,232,179874,1,0,0:0:0:0:
246,216,179944,1,0,0:0:0:0:
378,306,180014,6,0,L|416:336,3,47.5,4|0|0|0,0:0|0:0|0:0|0:0,0:0:0:0:
216,328,180293,6,0,L|120:328,1,95,4|0,0:0|0:0,0:0:0:0:
8,232,180572,1,8,0:0:0:0:
208,64,180712,6,0,B|280:112|280:112|192:152|192:152|192:128,1,190,4|0,0:0|0:0,0:0:0:0:
456,112,181131,1,8,0:0:0:0:
180,100,181270,6,0,B|96:136|96:136|152:56,1,190,4|0,0:0|0:0,0:0:0:0:
351,56,181689,2,0,L|256:56,2,95,8|0|0,0:0|0:0|0:0,0:0:0:0:
120,64,182107,2,0,L|72:64,2,47.5,0|0|8,0:0|0:0|0:0,0:0:0:0:
324,192,182386,6,0,L|420:112,1,95
48,264,182666,1,0,0:0:0:0:
144,264,182805,2,0,L|244:264,1,95,8|0,0:0|0:0,0:0:0:0:
488,336,183084,2,0,L|393:336,2,95,0|0|8,0:0|0:0|0:0,0:0:0:0:
320,240,183503,6,0,B|280:152|280:152|320:64,1,190
392,64,183852,1,8,0:0:0:0:
456,64,183921,1,0,0:0:0:0:
168,64,184061,2,0,L|263:64,1,95
464,192,184340,1,0,0:0:0:0:
328,320,184479,2,0,L|423:320,1,95,8|0,0:0|0:0,0:0:0:0:
192,176,184759,6,0,B|96:176|96:176|32:104,1,190,4|8,0:0|0:0,0:0:0:0:
264,40,185177,2,0,L|384:192,1,190,4|8,0:0|0:0,0:0:0:0:
224,256,185596,1,8,0:0:0:0:
104,256,185735,1,0,0:0:0:0:
336,280,185875,5,0,0:0:0:0:
392,248,185945,1,0,0:0:0:0:
440,208,186014,1,0,0:0:0:0:
480,144,186084,1,0,0:0:0:0:
232,40,186154,5,8,0:0:0:0:
160,56,186224,1,8,0:0:0:0:
88,80,186293,1,8,0:0:0:0:
16,128,186363,1,0,0:0:0:0:
40,152,186433,1,0,0:0:0:0:
64,168,186502,1,0,0:0:0:0:
88,184,186572,1,8,0:0:0:0:
112,200,186642,1,0,0:0:0:0:
440,32,186712,5,0,0:0:0:0:
504,72,186781,1,0,0:0:0:0:
504,120,186851,1,8,0:0:0:0:
448,168,186921,1,0,0:0:0:0:
504,216,186991,1,0,0:0:0:0:
504,280,187061,1,0,0:0:0:0:
440,312,187131,1,0,0:0:0:0:
384,296,187200,1,0,0:0:0:0:
152,288,187270,5,0,0:0:0:0:
88,256,187339,1,0,0:0:0:0:
24,216,187409,1,0,0:0:0:0:
68,184,187479,1,8,0:0:0:0:
112,160,187549,1,8,0:0:0:0:
152,136,187618,1,8,0:0:0:0:
88,96,187689,1,8,0:0:0:0:
24,56,187758,1,0,0:0:0:0:
352,336,187827,5,0,0:0:0:0:
416,304,187898,1,0,0:0:0:0:
416,240,187967,1,0,0:0:0:0:
352,208,188037,1,8,0:0:0:0:
288,168,188106,1,0,0:0:0:0:
288,104,188176,1,0,0:0:0:0:
352,64,188247,1,0,0:0:0:0:
416,40,188317,1,0,0:0:0:0:
64,32,188386,5,0,0:0:0:0:
112,32,188456,1,0,0:0:0:0:
160,32,188526,1,0,0:0:0:0:
112,88,188596,1,0,0:0:0:0:
56,112,188666,1,0,0:0:0:0:
112,176,188735,1,0,0:0:0:0:
192,232,188805,1,0,0:0:0:0:
288,280,188875,1,0,0:0:0:0:
472,184,188945,6,0,L|388:138,1,95,8|0,0:0|0:0,0:0:0:0:
144,320,189224,1,0,0:0:0:0:
84,284,189294,1,0,0:0:0:0:
28,240,189364,1,8,0:0:0:0:
88,192,189433,2,0,L|144:192,2,47.5
304,216,189712,5,0,0:0:0:0:
360,184,189782,1,0,0:0:0:0:
360,112,189852,1,0,0:0:0:0:
304,72,189921,1,0,0:0:0:0:
72,80,190061,6,0,L|24:80,1,47.5
168,80,190200,2,0,B|256:120|256:120|168:176,1,190,4|0,0:0|0:0,0:0:0:0:
408,192,190619,2,0,L|512:192,2,95,8|0|0,0:0|0:0|0:0,0:0:0:0:
296,152,191038,1,0,0:0:0:0:
144,232,191177,2,0,L|240:224,1,95,8|0,0:0|0:0,0:0:0:0:
24,328,191456,6,0,L|132:320,1,95
340,231,191735,2,0,L|340:136,1,95,8|0,0:0|0:0,0:0:0:0:
328,116,191945,1,0,0:0:0:0:
304,100,192014,2,0,L|108:92,1,190,0|8,0:0|0:0,0:0:0:0:
213,292,192433,6,0,L|24:300,1,190
415,328,192852,2,0,L|320:328,1,95,8|0,0:0|0:0,0:0:0:0:
232,192,193131,1,0,0:0:0:0:
480,192,193270,1,0,0:0:0:0:
280,56,193410,2,0,L|375:56,1,95,8|0,0:0|0:0,0:0:0:0:
496,104,193689,6,0,L|376:104,2,95,4|0|12,0:0|0:0|0:0,0:0:0:0:
248,176,194038,1,0,0:0:0:0:
204,204,194107,1,0,0:0:0:0:
184,244,194177,1,0,0:0:0:0:
204,296,194247,1,0,0:0:0:0:
240,320,194317,1,0,0:0:0:0:
300,320,194386,1,0,0:0:0:0:
108,304,194526,1,8,0:0:0:0:
328,312,194666,6,0,B|368:248|368:248|284:192|284:192|264:192,1,190,4|0,0:0|0:0,0:0:0:0:
472,104,195084,2,0,L|368:104,1,95,8|0,0:0|0:0,0:0:0:0:
72,104,195363,2,0,L|176:104,1,95
288,104,195642,1,8,0:0:0:0:
179,177,195782,6,0,B|176:160|137:123|128:96,1,95
432,296,196061,1,0,0:0:0:0:
333,207,196200,2,0,B|336:224|375:261|384:288,1,95,8|0,0:0|0:0,0:0:0:0:
72,192,196479,1,0,0:0:0:0:
328,120,196619,2,0,B|248:176,1,95,0|8,0:0|0:0,0:0:0:0:
168,204,196898,6,0,B|256:232|256:232|352:200,1,190
48,160,197317,2,0,L|48:256,1,95,8|0,0:0|0:0,0:0:0:0:
272,256,197596,1,0,0:0:0:0:
152,200,197735,2,0,L|56:200,2,95,0|8|0,0:0|0:0|0:0,0:0:0:0:
424,232,198154,5,4,0:0:0:0:
456,192,198224,1,0,0:0:0:0:
488,152,198293,1,0,0:0:0:0:
456,120,198363,1,0,0:0:0:0:
424,72,198433,1,0,0:0:0:0:
216,200,198572,2,0,L|104:200,2,95,4|0|4,0:0|0:0|0:0,0:0:0:0:
344,200,198991,1,8,0:0:0:0:
24,96,199131,1,4,0:0:0:0:
64,96,199200,1,2,0:0:0:0:
192,96,199270,6,2,B|245:59|280:128|280:128|372:92,1,190,6|10,0:0|0:0,0:0:0:0:
84,12,199689,2,0,B|48:96|48:96|88:192,1,190
428,184,200107,2,0,B|464:97|464:97|424:8,1,190,8|0,0:0|0:0,0:0:0:0:
344,92,200526,5,0,0:0:0:0:
416,304,200666,2,0,L|512:304,1,95,8|0,0:0|0:0,0:0:0:0:
192,208,200945,2,0,L|128:208,2,63.3333333333333
280,208,201224,2,0,L|368:208,2,63.3333333333333
440,208,201503,6,0,B|492:136|492:136|452:40,1,190,0|8,0:0|0:0,0:0:0:0:
108,24,201921,1,0,0:0:0:0:
16,128,202061,2,0,L|111:128,1,95
312,32,202340,2,0,L|217:32,1,95,8|0,0:0|0:0,0:0:0:0:
416,164,202619,6,0,L|504:224,1,95,4|8,0:0|0:0,0:0:0:0:
132,188,202898,1,8,0:0:0:0:
256,272,203038,2,0,B|168:296|168:296|72:264,1,190,4|0,0:0|0:0,0:0:0:0:
360,272,203456,1,0,0:0:0:0:
432,224,203526,1,0,0:0:0:0:
488,160,203596,1,0,0:0:0:0:
432,96,203666,1,0,0:0:0:0:
144,24,203735,6,0,B|80:95|80:95|176:176,1,190,4|8,0:0|0:0,0:0:0:0:
80,160,204154,1,0,0:0:0:0:
404,160,204293,2,0,B|400:208|400:208|374:247,1,95
120,152,204572,2,0,B|120:200|120:200|150:240,1,95,8|0,0:0|0:0,0:0:0:0:
376,336,204852,6,0,B|424:328|424:328|460:292,1,95
132,328,205131,2,0,B|88:320|88:320|51:286,1,95,8|0,0:0|0:0,0:0:0:0:
416,224,205410,6,0,L|304:224,1,95
448,160,205619,1,0,0:0:0:0:
476,128,205689,1,8,0:0:0:0:
504,96,205759,1,0,0:0:0:0:
512,44,205828,1,0,0:0:0:0:
176,56,205968,6,0,L|272:64,1,95
128,96,206177,1,0,0:0:0:0:
80,144,206247,1,8,0:0:0:0:
56,208,206317,1,0,0:0:0:0:
80,272,206386,1,0,0:0:0:0:
284,264,206526,6,0,L|392:264,1,95
176,352,206805,1,8,0:0:0:0:
108,336,206875,1,0,0:0:0:0:
56,296,206945,1,0,0:0:0:0:
20,248,207014,1,0,0:0:0:0:
320,352,207084,6,0,B|416:344|416:344|448:256,1,190,4|8,0:0|0:0,0:0:0:0:
192,32,207503,2,0,B|96:40|96:40|64:128,1,190,4|8,0:0|0:0,0:0:0:0:
384,80,207921,1,8,0:0:0:0:
168,272,208061,1,0,0:0:0:0:
120,272,208131,1,4,0:0:0:0:
124,240,208200,6,0,L|219:240,1,95
212,132,208479,2,0,L|118:132,1,95,8|0,0:0|0:0,0:0:0:0:
8,92,208759,2,0,L|8:192,1,95
272,256,209038,2,0,L|272:160,1,95,8|0,0:0|0:0,0:0:0:0:
32,296,209317,5,0,0:0:0:0:
88,280,209386,1,0,0:0:0:0:
144,256,209456,1,8,0:0:0:0:
192,228,209526,1,0,0:0:0:0:
248,200,209596,1,0,0:0:0:0:
488,96,209735,2,0,B|415:153|415:153|320:136,1,190
112,80,210154,1,8,0:0:0:0:
232,160,210293,1,8,0:0:0:0:
288,136,210363,1,0,0:0:0:0:
348,132,210433,6,0,L|476:124,2,95,0|0|8,0:0|0:0|0:0,0:0:0:0:
136,184,210852,2,0,L|8:176,1,95
352,104,211131,2,0,L|480:96,1,95,0|8,0:0|0:0,0:0:0:0:
452,140,211410,1,0,0:0:0:0:
408,84,211479,1,0,0:0:0:0:
104,32,211549,6,0,B|12:40|12:40|55:127,1,190,4|8,0:0|0:0,0:0:0:0:
208,160,211968,2,0,L|104:160,1,95,4|0,0:0|0:0,0:0:0:0:
16,296,212247,1,8,0:0:0:0:
224,352,212386,1,8,0:0:0:0:
112,284,212526,1,8,0:0:0:0:
312,344,212666,6,0,B|408:344,1,95,4|0,0:0|0:0,0:0:0:0:
304,184,212945,2,0,B|208:184,1,95,8|0,0:0|0:0,0:0:0:0:
448,56,213224,2,0,B|488:144|488:144|448:228,1,190,0|8,0:0|0:0,0:0:0:0:
240,72,213642,1,0,0:0:0:0:
383,200,213782,6,0,L|288:200,2,95,0|0|8,0:0|0:0|0:0,0:0:0:0:
312,168,214200,1,0,0:0:0:0:
112,240,214340,2,0,L|21:212,2,95,0|0|8,0:0|0:0|0:0,0:0:0:0:
312,72,214759,6,0,B|374:44|374:44|488:88,1,190
256,148,215177,1,8,0:0:0:0:
360,64,215317,1,0,0:0:0:0:
472,132,215456,2,0,L|472:232,1,95
400,264,215666,1,0,0:0:0:0:
320,336,215735,2,0,L|415:336,1,95,8|0,0:0|0:0,0:0:0:0:
152,192,216014,6,0,B|236:232|236:232|324:192,1,190,4|8,0:0|0:0,0:0:0:0:
16,288,216433,2,0,L|112:288,2,95,4|0|0,0:0|0:0|0:0,0:0:0:0:
168,288,216852,1,8,0:0:0:0:
448,304,216991,6,0,B|504:232|504:232|408:128,1,190,4|0,0:0|0:0,0:0:0:0:
360,48,217410,2,0,B|433:97|433:97|513:25,1,190,8|0,0:0|0:0,0:0:0:0:
343,47,217828,1,0,0:0:0:0:
464,48,217968,1,8,0:0:0:0:
240,344,218107,5,0,0:0:0:0:
192,296,218177,1,0,0:0:0:0:
192,232,218247,1,0,0:0:0:0:
240,184,218316,1,0,0:0:0:0:
400,176,218386,1,0,0:0:0:0:
464,128,218457,1,0,0:0:0:0:
88,160,218526,5,8,0:0:0:0:
40,104,218596,1,0,0:0:0:0:
88,40,218666,1,8,0:0:0:0:
360,40,218735,1,8,0:0:0:0:
400,64,218805,1,0,0:0:0:0:
424,112,218875,1,0,0:0:0:0:
424,168,218945,1,0,0:0:0:0:
392,216,219014,1,0,0:0:0:0:
168,224,219084,5,0,0:0:0:0:
112,224,219154,1,0,0:0:0:0:
56,168,219223,1,0,0:0:0:0:
112,112,219293,1,0,0:0:0:0:
400,224,219364,1,0,0:0:0:0:
448,168,219433,1,0,0:0:0:0:
400,112,219503,1,0,0:0:0:0:
344,112,219572,1,0,0:0:0:0:
168,320,219641,5,0,0:0:0:0:
112,320,219711,1,0,0:0:0:0:
56,320,219782,1,0,0:0:0:0:
0,320,219851,1,0,0:0:0:0:
152,136,219921,2,0,L|247:104,1,95
112,72,220200,2,0,L|17:104,1,95,8|0,0:0|0:0,0:0:0:0:
368,352,220479,6,0,B|424:280|424:280|360:200,1,190,4|8,0:0|0:0,0:0:0:0:
160,200,220898,2,0,B|95:278|95:278|175:374,1,190,4|0,0:0|0:0,0:0:0:0:
56,344,221317,1,8,0:0:0:0:
360,351,221456,1,8,0:0:0:0:
24,224,221596,6,0,L|120:224,1,95,4|0,0:0|0:0,0:0:0:0:
72,160,221875,2,0,L|16:160,2,47.5,8|0|0,0:0|0:0|0:0,0:0:0:0:
368,304,222154,2,0,B|385:253|385:253|368:200,1,95
136,160,222433,1,8,0:0:0:0:
96,120,222503,1,0,0:0:0:0:
56,72,222572,1,0,0:0:0:0:
320,80,222712,6,0,B|418:52|418:104|506:80,1,190,0|8,0:0|0:0,0:0:0:0:
200,32,223131,1,0,0:0:0:0:
64,88,223270,2,0,L|96:128,3,47.5
296,72,223549,1,8,0:0:0:0:
376,108,223619,1,0,0:0:0:0:
436,176,223689,1,0,0:0:0:0:
376,232,223759,1,0,0:0:0:0:
304,280,223828,6,0,L|204:280,1,95
360,280,224107,1,8,0:0:0:0:
392,248,224177,1,0,0:0:0:0:
424,216,224247,1,0,0:0:0:0:
80,88,224386,2,0,L|16:160,1,95
216,192,224666,1,8,0:0:0:0:
112,192,224805,1,0,0:0:0:0:
312,256,224945,6,0,L|512:256,1,190,4|8,0:0|0:0,0:0:0:0:
224,168,225363,2,0,L|24:168,1,190,4|0,0:0|0:0,0:0:0:0:
160,112,225782,1,8,0:0:0:0:
474,265,225921,6,0,L|280:264,1,190,4|0,0:0|0:0,0:0:0:0:
376,192,226340,2,0,L|472:192,1,95,8|0,0:0|0:0,0:0:0:0:
184,312,226619,2,0,L|144:336,2,47.5
56,144,226898,2,0,L|16:240,1,95,8|0,0:0|0:0,0:0:0:0:
136,192,227177,5,0,0:0:0:0:
424,196,227317,1,0,0:0:0:0:
504,152,227456,2,0,L|400:152,1,95,8|0,0:0|0:0,0:0:0:0:
240,232,227666,1,0,0:0:0:0:
184,296,227735,2,0,L|279:296,1,95
48,296,228014,1,8,0:0:0:0:
152,160,228154,6,0,B|48:160|48:160|48:72,1,190
368,72,228572,2,0,B|280:32|280:32|192:72,1,190,8|0,0:0|0:0,0:0:0:0:
336,144,228991,2,0,L|236:144,2,95,0|8|0,0:0|0:0|0:0,0:0:0:0:
96,192,229410,6,0,L|192:192,1,95,4|0,0:0|0:0,0:0:0:0:
56,192,229689,1,8,0:0:0:0:
197,78,229828,2,0,B|112:48|112:48|24:96,1,190,4|8,0:0|0:0,0:0:0:0:
236,188,230247,1,8,0:0:0:0:
352,296,230386,5,0,0:0:0:0:
400,272,230456,1,0,0:0:0:0:
448,224,230526,1,0,0:0:0:0:
448,160,230595,1,0,0:0:0:0:
400,112,230666,1,0,0:0:0:0:
352,88,230735,1,0,0:0:0:0:
168,152,230804,5,8,0:0:0:0:
120,120,230874,1,0,0:0:0:0:
88,64,230945,1,0,0:0:0:0:
128,16,231014,1,0,0:0:0:0:
376,40,231084,1,8,0:0:0:0:
440,40,231154,1,0,0:0:0:0:
504,40,231224,1,0,0:0:0:0:
448,88,231294,1,0,0:0:0:0:
88,232,231363,5,8,0:0:0:0:
48,192,231433,1,0,0:0:0:0:
304,232,231503,1,8,0:0:0:0:
344,192,231573,1,0,0:0:0:0:
208,232,231642,1,8,0:0:0:0:
168,192,231712,1,0,0:0:0:0:
424,232,231782,1,8,0:0:0:0:
464,192,231852,1,0,0:0:0:0:
168,40,231921,5,8,0:0:0:0:
104,40,231991,1,0,0:0:0:0:
40,40,232061,1,0,0:0:0:0:
96,88,232131,1,0,0:0:0:0:
400,48,232201,1,0,0:0:0:0:
472,48,232271,1,0,0:0:0:0:
472,112,232341,1,0,0:0:0:0:
400,112,232410,1,0,0:0:0:0:
208,112,232479,5,0,0:0:0:0:
144,112,232548,1,0,0:0:0:0:
80,112,232618,1,0,0:0:0:0:
16,112,232688,1,0,0:0:0:0:
368,24,232758,1,0,0:0:0:0:
424,48,232828,1,0,0:0:0:0:
464,88,232897,1,0,0:0:0:0:
416,136,232967,1,0,0:0:0:0:
80,320,233037,5,0,0:0:0:0:
40,264,233107,1,0,0:0:0:0:
80,176,233177,1,0,0:0:0:0:
368,216,233247,1,0,0:0:0:0:
416,176,233317,1,0,0:0:0:0:
464,128,233386,1,0,0:0:0:0:
512,88,233456,1,0,0:0:0:0:
176,200,233526,5,0,0:0:0:0:
136,168,233596,1,8,0:0:0:0:
96,128,233666,1,0,0:0:0:0:
96,88,233735,1,0,0:0:0:0:
136,48,233805,1,0,0:0:0:0:
452,304,233875,6,0,L|340:296,1,95,4|0,0:0|0:0,0:0:0:0:
280,344,234154,1,8,0:0:0:0:
84,228,234293,2,0,B|168:264|168:264|256:216,1,190,4|0,0:0|0:0,0:0:0:0:
416,56,234712,2,0,L|416:160,1,95,8|4,0:0|0:0,0:0:0:0:
128,272,234991,1,0,0:0:0:0:
272,32,235131,5,0,0:0:0:0:
328,32,235200,1,0,0:0:0:0:
384,32,235270,1,0,0:0:0:0:
344,80,235340,1,0,0:0:0:0:
64,144,235410,5,8,0:0:0:0:
16,104,235479,1,0,0:0:0:0:
448,144,235549,1,8,0:0:0:0:
496,104,235618,1,0,0:0:0:0:
144,144,235689,1,8,0:0:0:0:
96,104,235758,1,0,0:0:0:0:
368,144,235828,1,8,0:0:0:0:
416,104,235897,1,0,0:0:0:0:
152,288,235969,5,0,0:0:0:0:
96,288,236038,1,0,0:0:0:0:
40,288,236107,1,0,0:0:0:0:
40,200,236177,1,0,0:0:0:0:
96,200,236248,1,0,0:0:0:0:
152,200,236317,1,0,0:0:0:0:
360,288,236387,5,0,0:0:0:0:
424,288,236456,1,0,0:0:0:0:
488,288,236527,1,0,0:0:0:0:
488,200,236595,1,0,0:0:0:0:
424,200,236666,1,0,0:0:0:0:
360,200,236735,1,0,0:0:0:0:
144,272,236805,5,0,0:0:0:0:
80,240,236875,1,0,0:0:0:0:
16,208,236945,1,0,0:0:0:0:
56,152,237014,1,0,0:0:0:0:
96,104,237084,1,0,0:0:0:0:
136,56,237154,1,0,0:0:0:0:
368,128,237224,2,0,B|412:80|412:80|360:16,1,142.5
184,160,237502,5,0,0:0:0:0:
240,192,237572,1,0,0:0:0:0:
384,160,237641,1,0,0:0:0:0:
328,192,237711,1,0,0:0:0:0:
184,224,237781,1,0,0:0:0:0:
240,256,237851,1,0,0:0:0:0:
384,224,237921,1,8,0:0:0:0:
328,256,237991,1,0,0:0:0:0:
136,296,238061,6,4,B|-16:192|248:96,1,285,0|4,0:0|0:0,0:0:0:0:
480,160,238619,1,8,0:0:0:0:
272,160,238759,2,0,B|188:192|188:192|92:160,1,190,4|8,0:0|0:0,0:0:0:0:
232,8,239177,2,0,L|176:88,1,95,8|0,0:0|0:0,0:0:0:0:
471,192,239456,6,0,L|376:192,2,95,4|0|8,0:0|0:0|0:0,0:0:0:0:
24,336,239875,2,0,B|150:337|150:337|192:272,1,190
48,216,240293,1,8,0:0:0:0:
136,216,240433,1,0,0:0:0:0:
440,64,240572,6,0,L|345:64,2,95,0|0|8,0:0|0:0|0:0,0:0:0:0:
224,152,240991,1,0,0:0:0:0:
360,108,241131,2,0,L|336:200,1,95
176,152,241410,1,8,0:0:0:0:
96,152,241549,1,0,0:0:0:0:
384,4,241689,6,0,B|464:64|464:64|464:160,1,190,0|8,0:0|0:0,0:0:0:0:
368,220,242107,1,0,0:0:0:0:
136,136,242247,2,0,L|136:32,1,95
340,40,242526,1,8,0:0:0:0:
448,40,242666,1,0,0:0:0:0:
144,216,242805,6,0,L|32:216,2,95,0|0|8,0:0|0:0|0:0,0:0:0:0:
372,304,243224,2,0,L|488:304,2,95
224,224,243642,1,8,0:0:0:0:
320,224,243782,1,0,0:0:0:0:
120,144,243921,6,0,L|24:208,2,95,0|0|8,0:0|0:0|0:0,0:0:0:0:
264,248,244340,2,0,L|48:248,1,190
216,352,244759,2,0,L|320:352,1,95,8|0,0:0|0:0,0:0:0:0:
128,176,245038,5,0,0:0:0:0:
336,176,245177,2,0,L|432:176,1,95,0|8,0:0|0:0,0:0:0:0:
224,176,245456,1,0,0:0:0:0:
128,176,245596,1,0,0:0:0:0:
24,112,245735,1,0,0:0:0:0:
224,104,245875,1,8,0:0:0:0:
128,104,246014,1,0,0:0:0:0:
18,280,246154,6,0,L|208:280,1,190,0|8,0:0|0:0,0:0:0:0:
472,352,246572,2,0,L|282:352,1,190
360,232,246991,1,8,0:0:0:0:
488,228,247131,1,0,0:0:0:0:
360,112,247270,6,0,L|360:224,1,95
472,112,247549,1,8,0:0:0:0:
304,112,247689,1,0,0:0:0:0:
112,113,247828,2,0,L|112:208,1,95,0|8,0:0|0:0,0:0:0:0:
192,112,248107,1,8,0:0:0:0:
32,112,248247,1,0,0:0:0:0:
392,304,248386,6,0,L|448:288,2,47.5,4|0|0,0:0|0:0|0:0,0:0:0:0:
112,208,248666,2,0,L|48:192,2,47.5,8|0|0,0:0|0:0|0:0,0:0:0:0:
392,112,248945,2,0,L|448:92,2,47.5,4|0|0,0:0|0:0|0:0,0:0:0:0:
112,32,249224,2,0,L|48:16,2,47.5,8|0|0,0:0|0:0|0:0,0:0:0:0:
408,116,249503,5,8,0:0:0:0:
256,112,249642,1,0,0:0:0:0:
368,192,249782,1,8,0:0:0:0:
216,192,249921,1,0,0:0:0:0:
328,272,250061,1,8,0:0:0:0:
176,272,250200,1,0,0:0:0:0:
440,328,250340,2,0,L|392:236,1,95,8|0,0:0|0:0,0:0:0:0:
132,304,250619,6,0,L|76:288,2,47.5,4|0|0,0:0|0:0|0:0,0:0:0:0:
396,208,250899,2,0,L|444:192,2,47.5,8|0|0,0:0|0:0|0:0,0:0:0:0:
132,116,251178,2,0,L|76:96,2,47.5,4|0|0,0:0|0:0|0:0,0:0:0:0:
396,16,251457,2,0,L|444:0,2,47.5,8|0|0,0:0|0:0|0:0,0:0:0:0:
104,116,251735,5,8,0:0:0:0:
256,112,251874,1,0,0:0:0:0:
144,192,252014,1,8,0:0:0:0:
296,192,252153,1,0,0:0:0:0:
184,272,252293,1,8,0:0:0:0:
336,272,252432,1,0,0:0:0:0:
72,328,252572,2,0,L|120:236,1,95,8|0,0:0|0:0,0:0:0:0:
348,252,252852,5,4,0:0:0:0:
384,252,252921,1,0,0:0:0:0:
420,252,252991,1,0,0:0:0:0:
164,200,253131,5,4,0:0:0:0:
128,200,253200,1,0,0:0:0:0:
92,200,253270,1,0,0:0:0:0:
348,92,253410,5,4,0:0:0:0:
384,92,253479,1,0,0:0:0:0:
420,92,253549,1,0,0:0:0:0:
168,32,253689,5,4,0:0:0:0:
132,32,253758,1,0,0:0:0:0:
96,32,253828,1,0,0:0:0:0:
456,136,253968,6,0,L|456:236,1,95,8|0,0:0|0:0,0:0:0:0:
256,136,254247,2,0,L|288:232,1,95,8|0,0:0|0:0,0:0:0:0:
56,136,254526,2,0,L|56:236,1,95,8|0,0:0|0:0,0:0:0:0:
256,231,254805,2,0,L|228:136,1,95,4|0,0:0|0:0,0:0:0:0:
445,69,255084,6,0,L|507:61,2,47.5,4|0|0,0:0|0:0|0:0,0:0:0:0:
228,128,255363,2,0,L|166:120,2,47.5,8|0|0,0:0|0:0|0:0,0:0:0:0:
368,196,255642,1,4,0:0:0:0:
365,219,255712,1,0,0:0:0:0:
364,243,255782,1,0,0:0:0:0:
92,152,255921,1,8,0:0:0:0:
90,128,255991,1,0,0:0:0:0:
88,104,256061,1,0,0:0:0:0:
312,256,256200,6,2,L|360:256,1,47.5,2|10,0:0|0:0,0:0:0:0:
144,256,256340,2,2,L|96:256,1,47.5,2|10,0:0|0:0,0:0:0:0:
312,304,256479,2,2,L|360:304,1,47.5,2|10,0:0|0:0,0:0:0:0:
144,304,256619,2,2,L|96:304,1,47.5,2|10,0:0|0:0,0:0:0:0:
312,352,256759,2,2,L|360:352,1,47.5,2|10,0:0|0:0,0:0:0:0:
144,352,256898,2,2,L|96:352,1,47.5,2|10,0:0|0:0,0:0:0:0:
432,256,257038,5,0,0:0:0:0:
488,208,257107,1,0,0:0:0:0:
488,112,257177,1,0,0:0:0:0:
432,64,257247,1,0,0:0:0:0:
208,144,257317,5,4,0:0:0:0:
160,128,257386,1,0,0:0:0:0:
128,96,257456,1,0,0:0:0:0:
112,64,257526,1,0,0:0:0:0:
304,144,257596,5,4,0:0:0:0:
352,128,257665,1,0,0:0:0:0:
384,96,257735,1,0,0:0:0:0:
400,64,257805,1,0,0:0:0:0:
192,192,257875,5,4,0:0:0:0:
144,176,257944,1,0,0:0:0:0:
112,144,258014,1,0,0:0:0:0:
96,112,258084,1,0,0:0:0:0:
320,192,258154,5,4,0:0:0:0:
368,176,258223,1,0,0:0:0:0:
400,144,258293,1,0,0:0:0:0:
416,112,258363,1,0,0:0:0:0:
212,376,258433,5,2,0:0:0:0:
184,352,258526,1,2,0:0:0:0:
104,336,258619,1,2,0:0:0:0:
76,312,258712,1,2,0:0:0:0:
16,288,258782,2,0,L|0:192,1,95
224,232,258991,1,8,0:0:0:0:
248,160,259084,1,2,0:0:0:0:
496,160,259177,1,2,0:0:0:0:
472,232,259270,1,8,0:0:0:0:
304,160,259363,1,2,0:0:0:0:
280,232,259456,1,8,0:0:0:0:
96,64,259549,6,0,L|252:118,1,165.300001387253,4|8,0:0|0:0,0:0:0:0:
440,32,259968,1,0,0:0:0:0:
240,176,260107,2,0,L|160:144,2,82.6500006936264,0|0|8,0:0|0:0|0:0,0:0:0:0:
492,312,260526,6,0,B|416:336|416:336|344:288,1,165.300001387253,4|0,0:0|0:0,0:0:0:0:
224,184,260945,2,0,L|312:184,1,82.6500006936264,8|0,0:0|0:0,0:0:0:0:
168,224,261224,2,0,L|168:136,1,82.6500006936264
16,96,261503,1,8,0:0:0:0:
344,272,261642,6,0,B|280:320|280:320|200:288,1,165.300001387253,4|0,0:0|0:0,0:0:0:0:
72,208,262061,2,0,L|-16:208,2,82.6500006936264,8|0|0,0:0|0:0|0:0,0:0:0:0:
328,136,262479,1,8,0:0:0:0:
240,136,262619,1,0,0:0:0:0:
32,32,262759,6,0,B|112:48|112:48|192:8,1,165.300001387253,4|0,0:0|0:0,0:0:0:0:
288,104,263177,2,0,L|192:104,1,82.6500006936264,8|0,0:0|0:0,0:0:0:0:
408,72,263456,2,0,L|440:152,1,82.6500006936264
328,191,263735,2,0,L|312:272,1,82.6500006936264,8|0,0:0|0:0,0:0:0:0:
24,312,264014,6,0,B|92:368|92:368|168:348,1,165.300001387253,4|8,0:0|0:0,0:0:0:0:
288,336,264433,1,0,0:0:0:0:
416,320,264572,2,0,L|504:320,2,82.6500006936264,0|0|8,0:0|0:0|0:0,0:0:0:0:
216,176,264991,6,0,L|400:176,1,165.300001387253,4|0,0:0|0:0,0:0:0:0:
504,112,265410,2,0,L|424:40,2,82.6500006936264,8|0|0,0:0|0:0|0:0,0:0:0:0:
368,192,265828,1,0,0:0:0:0:
496,192,265968,1,8,0:0:0:0:
300,72,266107,6,0,B|240:24|240:24|152:48,1,165.300001387253,4|0,0:0|0:0,0:0:0:0:
40,144,266526,2,0,L|8:240,1,82.6500006936264,8|0,0:0|0:0,0:0:0:0:
232,264,266805,2,0,L|192:160,1,82.6500006936264
80,360,267084,1,8,0:0:0:0:
336,360,267224,6,0,L|504:360,1,165.300001387253,4|0,0:0|0:0,0:0:0:0:
416,272,267642,1,0,0:0:0:0:
320,272,267782,1,8,0:0:0:0:
89,189,267921,1,8,0:0:0:0:
185,189,268061,1,0,0:0:0:0:
504,120,268200,1,0,0:0:0:0:
408,120,268340,1,8,0:0:0:0:
184,32,268479,6,0,L|16:32,1,165.300001387253,4|0,0:0|0:0,0:0:0:0:
152,32,268898,2,0,B|208:104|208:104|152:192,1,165.300001387253,2|0,0:0|0:0,0:0:0:0:
48,200,269317,2,0,L|48:112,1,82.6500006936264,8|0,0:0|0:0,0:0:0:0:
384,328,269596,6,0,B|312:360|312:360|232:328,1,165.300001387253,2|0,0:0|0:0,0:0:0:0:
112,288,270014,2,0,L|112:104,1,165.300001387253,2|0,0:0|0:0,0:0:0:0:
424,168,270433,2,0,L|424:280,1,82.6500006936264,8|0,0:0|0:0,0:0:0:0:
120,32,270712,2,0,B|160:96|160:96|176:192,1,165.300001387253,2|0,0:0|0:0,0:0:0:0:
328,192,271131,2,0,B|336:112|336:112|304:32,1,165.300001387253,2|0,0:0|0:0,0:0:0:0:
216,192,271549,2,0,L|304:192,1,82.6500006936264,8|0,0:0|0:0,0:0:0:0:
80,240,271828,6,0,L|224:320,1,165.300001387253,2|0,0:0|0:0,0:0:0:0:
384,208,272247,2,0,L|216:208,1,165.300001387253,2|2,0:0|0:0,0:0:0:0:
64,160,272666,2,0,L|64:248,1,82.6500006936264,8|0,0:0|0:0,0:0:0:0:
264,112,272945,6,0,B|200:72|200:72|116:108,1,165.300001387253,2|0,0:0|0:0,0:0:0:0:
272,184,273363,2,0,L|272:352,1,165.300001387253,2|0,0:0|0:0,0:0:0:0:
8,352,273782,1,0,0:0:0:0:
104,352,273921,1,8,0:0:0:0:
336,248,274061,6,0,B|256:272|256:272|176:248,1,165.300001387253,2|0,0:0|0:0,0:0:0:0:
328,152,274479,2,0,L|388:88,2,82.6500006936264,2|0|0,0:0|0:0|0:0,0:0:0:0:
120,184,274898,1,0,0:0:0:0:
8,184,275038,1,8,0:0:0:0:
256,120,275177,6,0,B|336:144|336:144|416:120,1,165.300001387253,2|0,0:0|0:0,0:0:0:0:
264,328,275596,2,0,B|280:248|280:248|343:191,1,165.300001387253,2|0,0:0|0:0,0:0:0:0:
192,304,276014,2,0,L|108:260,1,82.6500006936264,8|0,0:0|0:0,0:0:0:0:
320,304,276293,6,0,L|404:260,1,82.6500006936264,8|0,0:0|0:0,0:0:0:0:
160,240,276572,2,0,L|76:196,1,82.6500006936264,8|0,0:0|0:0,0:0:0:0:
352,240,276852,2,0,L|436:196,1,82.6500006936264,8|0,0:0|0:0,0:0:0:0:
112,72,277131,1,8,0:0:0:0:
208,72,277270,1,8,0:0:0:0:
416,280,277410,6,0,B|343:312|343:312|264:280,1,165.300001387253,6|0,0:0|0:0,0:0:0:0:
55,291,277828,2,0,L|136:304,2,82.6500006936264,2|0|0,0:0|0:0|0:0,0:0:0:0:
400,112,278247,1,8,0:0:0:0:
480,64,278526,6,0,L|312:64,1,165.300001387253,2|0,0:0|0:0,0:0:0:0:
168,104,278945,2,0,L|85:104,2,82.6500006936264,2|0|0,0:0|0:0|0:0,0:0:0:0:
496,200,279363,1,8,0:0:0:0:
367,200,279642,6,0,L|432:352,1,165.300001387253,2|0,0:0|0:0,0:0:0:0:
320,120,280061,2,0,L|408:120,2,82.6500006936264,2|0|0,0:0|0:0|0:0,0:0:0:0:
24,200,280479,1,8,0:0:0:0:
145,200,280759,6,0,L|80:352,1,165.300001387253,2|0,0:0|0:0,0:0:0:0:
208,136,281177,2,0,L|291:136,2,82.6500006936264,2|0|2,0:0|0:0|0:0,0:0:0:0:
422,272,281596,1,8,0:0:0:0:
376,272,281875,6,0,L|294:272,2,82.6500006936264,2|0|0,0:0|0:0|0:0,0:0:0:0:
456,208,282293,2,0,B|496:280|496:280|456:352,1,165.300001387253,2|0,0:0|0:0,0:0:0:0:
240,192,282712,1,8,0:0:0:0:
144,296,282991,6,0,L|32:128,2,165.300001387253
368,104,283828,1,8,0:0:0:0:
176,96,284107,6,0,L|89:88,1,82.6500006936264,6|2,0:0|0:0,0:0:0:0:
308,96,284386,2,0,L|392:88,1,82.6500006936264,2|2,0:0|0:0,0:0:0:0:
144,208,284666,2,0,L|57:200,1,82.6500006936264,6|2,0:0|0:0,0:0:0:0:
360,216,284945,2,0,L|448:208,1,82.6500006936264,2|2,0:0|0:0,0:0:0:0:
112,96,285224,6,0,L|194:103,1,82.6500006936264,6|2,0:0|0:0,0:0:0:0:
400,96,285503,2,0,L|318:104,1,82.6500006936264,2|2,0:0|0:0,0:0:0:0:
57,200,285783,2,0,L|139:207,1,82.6500006936264,6|2,0:0|0:0,0:0:0:0:
504,200,286062,2,0,L|421:207,1,82.6500006936264,2|2,0:0|0:0,0:0:0:0:
48,192,286340,5,6,0:0:0:0:
320,152,286480,1,8,0:0:0:0:
352,192,286549,1,0,0:0:0:0:
376,240,286619,1,8,0:0:0:0:
432,192,286759,1,8,0:0:0:0:
96,152,286898,2,0,B|88:112|88:112|96:68,1,82.6500006936264,2|2,0:0|0:0,0:0:0:0:
448,72,287178,2,0,B|455:112|455:112|446:153,1,82.6500006936264,8|2,0:0|0:0,0:0:0:0:
208,344,287457,5,4,0:0:0:0:
96,248,287596,1,0,0:0:0:0:
320,136,287736,1,4,0:0:0:0:
176,112,288014,6,0,L|216:184,1,82.6500006936264
368,136,288293,2,0,L|305:190,1,82.6500006936264
64,192,288572,5,2,0:0:0:0:
256,96,297503,6,0,L|32:96,1,213.750008153916,2|0,0:0|0:0,0:0:0:0:
152,96,298061,2,0,B|248:160|248:160|328:88,1,213.750008153916
480,288,298619,6,0,B|336:288|336:288|408:288,1,213.750008153916,2|0,0:0|0:0,0:0:0:0:
288,288,299177,2,0,L|232:208,1,71.2500027179719
128,288,299456,2,0,L|72:208,1,71.2500027179719
352,240,299735,6,0,B|412:176|392:112|340:76|284:88,1,213.750008153916,2|0,0:0|0:0,0:0:0:0:
200,40,300293,2,0,L|352:40,1,142.500005435944
456,120,300712,2,0,L|408:176,1,71.2500027179719
264,128,300991,2,0,L|320:184,1,71.2500027179719
111,250,301270,2,0,L|184:128,1,142.500005435944
92,320,301828,6,0,B|180:288,1,71.2500027179719,2|0,0:0|0:0,0:0:0:0:
280,280,302107,2,0,B|352:224,1,71.2500027179719,2|0,0:0|0:0,0:0:0:0:
216,192,302386,1,0,0:0:0:0:
128,192,302526,2,0,B|48:192,2,71.2500027179719
360,84,302945,6,0,L|216:84,1,142.500005435944,2|0,0:0|0:0,0:0:0:0:
360,48,303363,2,0,L|289:48,1,71.2500027179719
416,168,303642,2,0,L|504:168,2,71.2500027179719
512,96,304061,1,2,0:0:0:0:
288,192,304200,6,0,L|200:192,1,71.2500027179719,2|0,0:0|0:0,0:0:0:0:
96,192,304479,2,0,L|192:192,1,71.2500027179719,2|0,0:0|0:0,0:0:0:0:
328,192,304759,2,0,L|240:192,1,71.2500027179719,2|0,0:0|0:0,0:0:0:0:
40,192,305038,2,0,L|136:192,1,71.2500027179719,2|0,0:0|0:0,0:0:0:0:
360,192,305317,1,4,0:0:0:0:
136,80,305875,6,0,B|104:80|104:80|64:112,1,82.6500006936264
376,80,306154,2,0,B|408:80|408:80|448:112,1,82.6500006936264
232,128,306433,6,4,L|232:328,1,190,4|8,0:0|0:0,0:0:0:0:
352,368,306852,1,0,0:0:0:0:
208,272,306991,2,0,L|304:272,1,95
104,320,307270,2,0,L|120:224,1,95,8|0,0:0|0:0,0:0:0:0:
424,136,307549,6,0,B|328:136|328:136|256:72,1,190,0|8,0:0|0:0,0:0:0:0:
104,32,307968,1,0,0:0:0:0:
408,120,308107,2,0,L|408:232,1,95
96,224,308386,2,0,L|96:112,1,95,8|0,0:0|0:0,0:0:0:0:
444,136,308666,6,0,B|416:240|416:240|344:280,1,190,0|8,0:0|0:0,0:0:0:0:
224,200,309084,1,0,0:0:0:0:
432,56,309224,2,0,L|332:56,2,95
80,112,309642,6,0,L|175:112,1,95,4|0,0:0|0:0,0:0:0:0:
376,64,309921,1,8,0:0:0:0:
208,64,310061,1,0,0:0:0:0:
416,200,310200,2,0,B|496:136|496:136|496:48,1,190,4|0,0:0|0:0,0:0:0:0:
20,188,310619,1,8,0:0:0:0:
256,288,310759,6,0,L|376:288,2,95,4|0|0,0:0|0:0|0:0,0:0:0:0:
464,112,311177,2,0,L|432:208,1,95,8|0,0:0|0:0,0:0:0:0:
48,176,311456,2,0,L|144:176,1,95,8|0,0:0|0:0,0:0:0:0:
256,140,311735,1,8,0:0:0:0:
456,288,311875,6,0,L|360:288,2,95,4|0|0,0:0|0:0|0:0,0:0:0:0:
356,184,312293,1,8,0:0:0:0:
156,184,312433,1,0,0:0:0:0:
248,184,312572,1,8,0:0:0:0:
168,184,312712,1,0,0:0:0:0:
48,228,312852,1,8,0:0:0:0:
336,288,312991,6,0,B|404:288|404:288|488:200,1,190,4|0,0:0|0:0,0:0:0:0:
336,112,313410,2,0,L|228:112,2,95,8|0|0,0:0|0:0|0:0,0:0:0:0:
240,32,313828,1,8,0:0:0:0:
384,32,313968,1,0,0:0:0:0:
48,193,314107,6,0,B|136:241|136:241|224:209,1,190,4|0,0:0|0:0,0:0:0:0:
352,216,314526,2,0,L|256:216,1,95,8|0,0:0|0:0,0:0:0:0:
48,288,314805,2,0,L|49:190,1,95,8|0,0:0|0:0,0:0:0:0:
192,56,315084,1,0,0:0:0:0:
448,120,315224,6,0,L|344:296,1,190,4|0,0:0|0:0,0:0:0:0:
224,260,315642,2,0,L|224:152,1,95,8|0,0:0|0:0,0:0:0:0:
480,192,315921,1,0,0:0:0:0:
392,192,316061,1,0,0:0:0:0:
32,192,316200,1,8,0:0:0:0:
120,192,316340,1,0,0:0:0:0:
360,32,316479,6,0,B|272:88|272:88|188:56,1,190,4|8,0:0|0:0,0:0:0:0:
104,44,316898,1,0,0:0:0:0:
352,136,317038,2,0,L|392:240,1,95
160,136,317317,2,0,L|160:231,1,95,8|0,0:0|0:0,0:0:0:0:
436,192,317596,5,4,0:0:0:0:
336,192,317735,1,0,0:0:0:0:
76,192,317875,1,8,0:0:0:0:
176,192,318014,1,0,0:0:0:0:
416,256,318154,2,0,L|504:320,2,95,0|0|8,0:0|0:0|0:0,0:0:0:0:
216,192,318572,6,0,L|112:192,1,95,4|0,0:0|0:0,0:0:0:0:
0,144,318852,1,8,0:0:0:0:
72,144,318991,1,0,0:0:0:0:
280,192,319131,2,0,L|376:192,1,95,4|0,0:0|0:0,0:0:0:0:
496,144,319410,1,8,0:0:0:0:
432,144,319549,1,0,0:0:0:0:
64,288,319689,6,0,B|16:208|16:208|16:112,1,190,4|0,0:0|0:0,0:0:0:0:
128,224,320107,2,0,L|128:120,1,95,8|0,0:0|0:0,0:0:0:0:
368,144,320386,2,0,L|368:240,1,95,8|0,0:0|0:0,0:0:0:0:
136,40,320666,1,8,0:0:0:0:
392,48,320805,1,4,0:0:0:0:
256,192,320945,12,4,322061,0:0:0:0:
240,120,322340,6,0,L|324:120,1,82.6500006936264,8|0,0:0|0:0,0:0:0:0:
448,72,322619,2,0,L|376:144,2,82.6500006936264,0|0|8,0:0|0:0|0:0,0:0:0:0:
16,224,323038,6,0,B|96:256|96:256|168:212,1,165.300001387253,4|0,0:0|0:0,0:0:0:0:
300,248,323456,2,0,L|384:248,2,82.6500006936264,8|0|0,0:0|0:0|0:0,0:0:0:0:
144,344,323875,1,0,0:0:0:0:
224,344,324014,1,8,0:0:0:0:
440,344,324154,6,0,B|488:296|488:296|488:192,1,165.300001387253,4|0,0:0|0:0,0:0:0:0:
386,225,324572,2,0,L|336:160,2,82.6500006936264,8|0|0,0:0|0:0|0:0,0:0:0:0:
152,72,324991,1,8,0:0:0:0:
64,72,325131,1,0,0:0:0:0:
296,160,325270,6,0,B|376:160|376:160|432:96,1,165.300001387253,4|0,0:0|0:0,0:0:0:0:
272,40,325689,2,0,L|248:120,1,82.6500006936264,8|0,0:0|0:0,0:0:0:0:
432,192,325968,1,0,0:0:0:0:
496,128,326107,1,0,0:0:0:0:
296,320,326247,2,0,L|400:320,1,82.6500006936264,8|0,0:0|0:0,0:0:0:0:
176,192,326526,6,0,L|88:192,1,82.6500006936264,4|0,0:0|0:0,0:0:0:0:
352,192,326805,1,8,0:0:0:0:
432,192,326945,1,0,0:0:0:0:
188,64,327084,2,0,L|104:64,2,82.6500006936264,0|0|8,0:0|0:0|0:0,0:0:0:0:
432,152,327503,6,0,B|480:76|480:76|456:4,1,165.300001387253,4|0,0:0|0:0,0:0:0:0:
320,64,327921,2,0,L|264:144,1,82.6500006936264,8|0,0:0|0:0,0:0:0:0:
444,273,328200,2,0,L|360:272,2,82.6500006936264,0|0|8,0:0|0:0|0:0,0:0:0:0:
204,136,328619,6,0,B|120:144|120:144|84:216,1,165.300001387253,4|0,0:0|0:0,0:0:0:0:
208,312,329038,2,0,L|264:248,1,82.6500006936264,8|0,0:0|0:0,0:0:0:0:
156,28,329317,1,0,0:0:0:0:
248,144,329456,1,0,0:0:0:0:
32,144,329596,1,8,0:0:0:0:
256,240,329735,6,0,B|304:168|304:168|256:104,1,165.300001387253,4|0,0:0|0:0,0:0:0:0:
136,240,330154,2,0,L|48:240,1,82.6500006936264
384,240,330433,2,0,L|472:240,1,82.6500006936264
256,184,330712,2,0,L|256:16,1,165.300001387253
