osu file format v14

[General]
AudioFilename: audio.mp3
AudioLeadIn: 0
PreviewTime: 176572
Countdown: 1
SampleSet: Soft
StackLeniency: 0.2
Mode: 0
LetterboxInBreaks: 0
WidescreenStoryboard: 0

[Editor]
Bookmarks: 6224,137468
DistanceSpacing: 1
BeatDivisor: 4
GridSize: 4
TimelineZoom: 2.2

[Metadata]
Title:I swear
TitleUnicode:I swear
Artist:sweet ARMS
ArtistUnicode:sweet ARMS
Creator:Tamaki Kotatsu
Version:Watashitachi no Kizuna
Source:デート・ア・ライブⅢ
Tags:date a live 3 opening op Iori Nomizu 野水伊織 Misuzu Togashi 富樫美鈴 Kaori Sadohara 佐土原かおり Misato 味里
BeatmapID:2100067
BeatmapSetID:1003418

[Difficulty]
HPDrainRate:6
CircleSize:4
OverallDifficulty:9
ApproachRate:9.2
SliderMultiplier:1.4
SliderTickRate:1

[Events]
//Background and Video events
0,0,"date a live.jpg",0,0
//Break Periods
//Storyboard Layer 0 (Background)
//Storyboard Layer 1 (Fail)
//Storyboard Layer 2 (Pass)
//Storyboard Layer 3 (Foreground)
//Storyboard Layer 4 (Overlay)
//Storyboard Sound Samples

[TimingPoints]
867,357.142857142857,3,2,1,45,1,0
13724,357.142857142857,4,2,1,45,1,0
14438,-83.3333333333333,4,2,1,65,0,0
15152,342.857142857143,4,2,1,65,1,0
15152,-83.3333333333333,4,2,1,70,0,0
15494,355.029585798817,4,2,1,70,1,0
15494,-83.3333333333333,4,2,1,70,0,0
16559,352.941176470588,4,2,1,70,1,0
16559,-83.3333333333333,4,2,1,70,0,0
17970,361.44578313253,4,2,1,70,1,0
17970,-83.3333333333333,4,2,1,70,0,0
19415,355.029585798817,4,2,1,70,1,0
19415,-83.3333333333333,4,2,1,70,0,0
20835,359.281437125748,4,2,1,70,1,0
22272,357.142857142857,4,2,1,70,1,0
23700,352.941176470588,4,2,1,70,1,0
25111,359.281437125748,4,2,1,70,1,0
25111,-83.3333333333333,4,2,1,70,0,0
25829,-83.3333333333333,4,2,1,45,0,0
26548,357.142857142857,4,2,1,50,1,0
26548,-100,4,2,1,50,0,0
29226,379.746835443038,4,2,1,50,1,0
29415,357.142857142857,4,2,1,50,1,0
34950,379.746835443038,4,2,1,50,1,0
35139,357.142857142857,4,2,1,50,1,0
37996,-100,4,2,1,55,0,0
63353,-500,4,2,1,65,0,0
63710,-71.4285714285714,4,2,1,65,0,1
69067,376.766091051805,4,2,1,65,1,1
69067,-71.4285714285714,4,2,1,65,0,1
69443,356.612184249629,4,2,1,65,1,1
69443,-71.4285714285714,4,2,1,65,0,1
75148,357.142857142857,4,2,1,65,1,1
75148,-71.4285714285714,4,2,1,65,0,1
86040,346.820809248555,4,2,1,65,1,1
86560,357.142857142857,4,2,1,65,1,0
86560,-62.5,4,2,1,65,0,1
89417,352.941176470588,4,2,1,65,1,0
89417,-62.5,4,2,1,65,0,1
90475,365.853658536585,4,2,1,65,1,1
90657,-62.5,4,2,1,65,0,1
90840,357.142857142857,4,2,1,65,1,1
91197,-62.5,4,2,1,65,0,1
95125,359.928014397121,4,2,1,55,1,0
95125,-62.5,4,2,1,55,0,0
96384,-500,4,2,1,55,0,0
98004,357.142857142857,4,2,1,60,1,0
99069,375,4,2,1,60,1,0
99444,357.142857142857,3,2,1,55,1,0
104979,338.983050847458,3,2,1,55,1,0
105148,357.142857142857,4,2,1,55,1,0
105148,-100,4,2,1,45,0,0
115326,-250,4,2,1,45,0,0
116576,-83.3333333333333,4,2,1,55,0,0
122290,359.281437125748,4,2,1,55,1,0
122290,-83.3333333333333,4,2,1,55,0,0
124804,353.982300884956,4,2,1,55,1,0
125157,357.142857142857,4,2,1,55,1,0
125157,-83.3333333333333,4,2,1,55,0,0
126585,354.819633353046,4,2,1,55,1,0
126585,-83.3333333333333,4,2,1,55,0,0
128004,357.142857142857,4,2,1,50,1,0
139432,-100,4,2,1,55,0,0
141932,-500,4,2,1,65,0,1
143718,-71.4285714285714,4,2,1,65,0,1
157825,337.078651685393,4,2,1,65,1,1
157825,-71.4285714285714,4,2,1,65,0,1
157993,357.142857142857,4,2,1,65,1,1
158707,-71.4285714285714,4,2,1,65,0,1
174957,-454.545454545455,4,2,1,65,0,1
175135,359.281437125748,4,2,1,65,1,0
176572,-166.666666666667,4,2,1,45,0,0
178009,357.142857142857,4,2,1,45,1,0
178109,-250,4,2,1,45,0,0
197651,-100,4,2,1,45,0,0
199437,350.877192982456,4,2,1,45,1,0
199437,-100,4,2,1,65,0,0
200840,361.44578313253,4,2,1,65,1,0
200840,-100,4,2,1,65,0,0
202285,359.281437125748,4,2,1,65,1,0
202285,-100,4,2,1,65,0,0
203722,348.837209302326,4,2,1,65,1,0
205117,363.636363636364,4,2,1,65,1,0
205117,-100,4,2,1,65,0,0
206562,357.142857142857,4,2,1,65,1,0
207990,361.44578313253,4,2,1,65,1,0
209435,350.877192982456,4,2,1,65,1,0
210838,365.853658536585,4,2,1,65,1,0
210838,-83.3333333333333,4,2,1,65,0,0
212301,352.941176470588,4,2,1,65,1,0
212301,-83.3333333333333,4,2,1,65,0,0
213712,357.142857142857,4,2,1,65,1,0
213712,-83.3333333333333,4,2,1,65,0,0
215140,355.029585798817,4,2,1,65,1,0
215140,-83.3333333333333,4,2,1,65,0,0
216560,357.142857142857,4,2,1,65,1,0
217095,-83.3333333333333,4,2,1,65,0,0
219417,359.604435121367,4,2,1,65,1,0
220855,352.941176470588,4,2,1,65,1,0
220855,-83.3333333333333,4,2,1,65,0,0
221907,379.746835443038,4,2,1,65,1,0
221913,-83.3333333333333,4,2,1,65,0,0
222007,-83.3333333333333,4,2,1,65,0,0
222286,357.142857142857,4,2,1,65,1,0
222286,-83.3333333333333,4,2,1,65,0,0
245143,359.820089955022,4,2,1,65,1,0
245143,-500,4,2,1,65,0,0
246582,357.142857142857,4,2,1,65,1,0
248010,-125,4,2,1,40,0,0
259082,342.857142857143,4,2,1,40,1,0
259424,357.142857142857,4,2,1,55,1,0
259424,-83.3333333333333,4,2,1,55,0,0
269434,357.142857142857,4,2,1,55,1,0
270505,-500,4,2,1,55,0,0
270845,355.029585798817,4,2,1,70,1,1
270845,-62.5,4,2,1,70,0,1
271555,359.281437125748,4,2,1,70,1,1
272273,359.281437125748,4,2,1,70,1,1
272273,-62.5,4,2,1,70,0,1
276225,351.906158357771,4,2,1,70,1,1
276576,357.142857142857,4,2,1,70,1,1
276933,-62.5,4,2,1,70,0,1
277111,-62.5,4,2,1,70,0,1
281933,348.837209302326,4,2,1,70,1,1
282281,357.142857142857,4,2,1,70,1,1
290852,-62.5,4,2,1,55,0,0
292102,-500,4,2,1,55,0,0
295138,-100,4,2,1,55,0,0
300852,357.142857142857,3,2,1,55,1,0

[Colours]
Combo1 : 255,224,189
Combo2 : 0,128,255
Combo3 : 132,0,0
Combo4 : 251,251,0

[HitObjects]
146,26,867,5,2,0:0:0:0:
66,244,1045,1,2,0:0:0:0:
70,68,1224,1,2,0:0:0:0:
142,202,1402,1,2,0:0:0:0:
144,114,1581,1,2,0:0:0:0:
68,156,1759,1,2,0:0:0:0:
218,160,1938,5,2,0:0:0:0:
218,160,2116,1,2,0:0:0:0:
294,118,2295,1,2,0:0:0:0:
294,118,2474,1,2,0:0:0:0:
368,162,2652,1,2,0:0:0:0:
368,162,2831,1,2,0:0:0:0:
296,30,3009,5,2,0:0:0:0:
216,246,3188,1,2,0:0:0:0:
368,162,3366,1,2,2:0:0:0:
218,160,3545,1,2,0:0:0:0:
292,204,3724,1,2,0:0:0:0:
294,118,3903,1,2,0:0:0:0:
366,248,4081,5,2,0:0:0:0:
366,248,4259,1,2,0:0:0:0:
290,290,4438,1,2,0:0:0:0:
290,290,4616,1,2,0:0:0:0:
216,246,4795,1,2,0:0:0:0:
216,246,4974,1,2,0:0:0:0:
220,74,5152,5,6,0:0:0:0:
442,206,5331,1,2,0:0:0:0:
290,290,5509,1,2,0:0:0:0:
438,378,5688,1,2,0:0:0:0:
366,334,5866,1,2,0:0:0:0:
440,293,6045,1,2,0:0:0:0:
368,162,6224,5,2,0:0:0:0:
368,162,6402,1,2,0:0:0:0:
442,121,6581,1,2,0:0:0:0:
442,121,6759,1,2,0:0:0:0:
442,36,6938,1,2,0:0:0:0:
442,36,7116,1,2,0:0:0:0:
294,118,7295,5,2,0:0:0:0:
440,293,7474,1,2,0:0:0:0:
442,121,7652,1,2,0:0:0:0:
366,248,7831,1,2,0:0:0:0:
368,162,8009,1,2,0:0:0:0:
442,206,8188,1,2,0:0:0:0:
140,288,8366,5,2,0:0:0:0:
438,378,8545,1,2,0:0:0:0:
370,76,8724,5,2,0:0:0:0:
288,376,8902,1,2,0:0:0:0:
144,114,9081,5,2,0:0:0:0:
215,332,9259,1,2,0:0:0:0:
292,204,9438,5,6,0:0:0:0:
66,244,9616,1,2,0:0:0:0:
216,246,9795,1,2,0:0:0:0:
68,156,9974,1,2,0:0:0:0:
142,202,10152,1,2,0:0:0:0:
144,114,10331,1,2,0:0:0:0:
140,288,10509,5,2,0:0:0:0:
140,288,10688,1,2,0:0:0:0:
215,332,10866,1,2,0:0:0:0:
215,332,11045,1,2,0:0:0:0:
290,290,11224,1,2,0:0:0:0:
290,290,11402,1,2,0:0:0:0:
218,160,11581,5,2,0:0:0:0:
138,373,11759,1,2,0:0:0:0:
66,244,11938,1,2,0:0:0:0:
216,246,12116,1,2,0:0:0:0:
140,288,12295,1,2,0:0:0:0:
142,202,12474,1,2,0:0:0:0:
64,330,12652,5,2,0:0:0:0:
64,330,12831,1,2,0:0:0:0:
138,373,13009,1,2,0:0:0:0:
138,373,13188,1,2,0:0:0:0:
215,332,13366,1,2,0:0:0:0:
215,332,13545,1,2,0:0:0:0:
440,207,13724,5,2,0:0:0:0:
413,229,13813,1,2,0:0:0:0:
380,240,13902,1,2,0:0:0:0:
347,230,13991,1,2,0:0:0:0:
322,206,14081,1,2,0:0:0:0:
296,183,14170,1,2,0:0:0:0:
264,168,14259,1,2,0:0:0:0:
230,167,14348,1,2,0:0:0:0:
197,180,14438,6,0,L|167:184,1,20.9999993591309,2|0,3:2|0:0,0:0:0:0:
218,144,14527,2,0,L|192:128,1,20.9999993591309,2|0,3:2|0:0,0:0:0:0:
257,131,14616,2,0,L|248:102,1,20.9999993591309,2|0,3:2|0:0,0:0:0:0:
295,146,14706,2,0,L|307:118,1,20.9999993591309,2|0,3:2|0:0,0:0:0:0:
315,183,14795,2,0,L|342:169,1,20.9999993591309,2|0,3:2|0:0,0:0:0:0:
307,223,14884,2,0,L|336:229,1,20.9999993591309,2|0,3:2|0:0,0:0:0:0:
275,249,14974,2,0,L|293:273,1,20.9999993591309,2|0,3:2|0:0,0:0:0:0:
233,248,15063,2,0,L|232:278,1,20.9999993591309,2|0,3:2|0:0,0:0:0:0:
203,220,15152,6,0,L|119:226,1,83.9999974365235,6|0,3:2|0:0,0:0:0:0:
334,154,15494,2,0,L|417:160,1,83.9999974365235,0|0,3:0|0:0,0:0:0:0:
203,88,15849,2,0,L|119:94,1,83.9999974365235,0|0,3:0|0:0,0:0:0:0:
334,22,16204,2,0,L|417:28,1,83.9999974365235,0|0,3:0|0:0,0:0:0:0:
471,163,16559,6,0,B|428:196|428:196|311:167,1,167.999994873047,12|0,0:0|3:0,0:0:0:0:
208,115,17088,1,0,3:0:0:0:
307,148,17264,2,0,P|270:137|207:131,1,83.9999974365235,0|0,3:0|3:0,0:0:0:0:
268,237,17617,1,0,3:0:0:0:
268,237,17970,6,0,P|257:282|250:338,1,83.9999974365235,6|0,3:2|0:0,0:0:0:0:
142,145,18331,2,0,P|153:190|160:246,1,83.9999974365235,0|0,3:0|0:0,0:0:0:0:
288,44,18692,2,0,P|277:84|271:126,1,83.9999974365235,0|0,3:0|0:0,0:0:0:0:
128,0,19054,1,0,3:0:0:0:
43,178,19235,1,0,3:0:0:0:
43,178,19325,1,0,3:0:0:0:
43,178,19415,6,0,P|87:173|134:181,1,83.9999974365235,14|0,0:0|0:0,0:0:0:0:
201,354,19770,1,0,3:0:0:0:
231,232,19947,1,0,3:0:0:0:
368,323,20125,1,4,3:0:0:0:
347,149,20302,1,0,3:0:0:0:
329,137,20480,2,0,P|285:132|238:140,1,83.9999974365235,8|0,0:0|3:0,0:0:0:0:
162,315,20835,5,14,0:0:0:0:
109,239,21014,1,0,3:0:0:0:
71,323,21194,1,0,3:0:0:0:
147,157,21373,5,12,0:0:0:0:
199,232,21553,1,0,3:0:0:0:
237,149,21733,1,0,3:0:0:0:
342,298,21912,5,8,0:0:0:0:
289,223,22092,1,0,3:0:0:0:
251,306,22272,5,14,0:0:0:0:
147,157,22450,1,0,3:0:0:0:
275,66,22629,1,0,3:0:0:0:
162,315,22807,5,8,0:0:0:0:
237,149,22986,1,0,3:0:0:0:
94,82,23164,1,2,3:2:0:0:
289,223,23343,5,10,0:0:0:0:
109,240,23522,1,2,0:0:0:0:
185,73,23700,5,14,0:0:0:0:
162,315,23876,1,0,3:0:0:0:
237,149,24052,1,0,3:0:0:0:
56,166,24229,5,8,0:0:0:0:
328,140,24405,1,0,3:0:0:0:
109,240,24582,1,0,3:0:0:0:
342,297,24758,5,8,0:0:0:0:
185,73,24935,1,2,3:2:0:0:
64,332,25111,5,14,0:0:0:0:
121,229,25290,1,0,3:0:0:0:
68,139,25470,2,0,L|78:40,1,83.9999974365235,0|0,0:3|3:0,0:0:0:0:
180,133,25829,2,0,B|216:150|251:133|251:133|322:98|373:141|373:141|350:132|313:140,1,251.999992309571,2|0,0:0|0:0,0:0:0:0:
291,226,26548,6,0,P|228:248|153:222,1,140,6|0,3:2|3:0,0:0:0:0:
120,156,27083,2,0,L|124:295,1,140,2|0,0:0|0:0,0:0:0:0:
212,358,27619,2,0,B|257:376|257:376|345:335,2,140,2|0|0,3:2|3:0|3:0,0:0:0:0:
266,257,28511,5,0,3:0:0:0:
266,257,28600,1,0,3:0:0:0:
266,257,28690,2,0,L|280:177,1,70,2|2,3:2|0:0,0:0:0:0:
184,155,29048,2,0,L|170:75,1,70,2|2,3:2|0:0,0:0:0:0:
259,31,29415,2,0,P|314:39|373:42,1,105,6|0,3:2|0:0,0:0:0:0:
375,54,29772,1,2,3:2:0:0:
281,151,29950,1,2,0:0:0:0:
467,133,30129,6,0,L|396:143,1,70,0|0,3:0|0:0,0:0:0:0:
363,262,30486,1,0,0:0:0:0:
267,167,30665,1,0,0:0:0:0:
266,165,30754,1,0,0:0:0:0:
267,167,30843,2,0,L|259:256,1,70,0|0,3:0|0:0,0:0:0:0:
267,33,31200,2,0,P|233:44|175:49,1,70,0|0,3:0|0:0,0:0:0:0:
41,35,31557,5,2,3:2:0:0:
91,153,31736,1,2,0:0:0:0:
38,242,31915,1,2,3:2:0:0:
81,311,32093,1,0,0:0:0:0:
234,293,32272,6,0,L|92:300,1,140,6|0,3:2|3:0,0:0:0:0:
171,366,32807,2,0,P|162:296|167:226,1,140,2|0,0:0|0:0,0:0:0:0:
276,134,33343,2,0,L|287:220,1,70,2|0,3:2|0:0,0:0:0:0:
160,96,33700,2,0,L|171:10,1,70,0|0,3:0|0:0,0:0:0:0:
186,16,33968,1,0,3:0:0:0:
186,17,34057,1,0,3:0:0:0:
80,177,34236,5,2,0:0:0:0:
228,240,34415,2,0,P|196:239|154:245,1,70,2|2,3:2|0:0,0:0:0:0:
5,286,34772,1,2,3:2:0:0:
150,384,34950,1,0,3:0:0:0:
150,384,35044,1,0,3:0:0:0:
150,384,35139,2,0,P|184:384|219:380,1,70,6|0,0:0|0:0,0:0:0:0:
378,335,35496,6,0,L|387:263,1,70,2|0,3:2|0:0,0:0:0:0:
294,128,35853,2,0,L|303:200,1,70,0|0,3:0|0:0,0:0:0:0:
210,335,36210,2,0,L|219:263,1,70,0|0,3:0|0:0,0:0:0:0:
143,128,36567,5,0,3:0:0:0:
106,288,36746,1,2,0:0:0:0:
50,97,36924,1,0,3:0:0:0:
91,276,37103,2,0,P|56:266|14:265,1,70,2|0,0:0|3:0,0:0:0:0:
170,359,37460,1,2,0:0:0:0:
182,373,37639,2,0,P|217:383|259:384,1,70,2|2,3:2|0:0,0:0:0:0:
413,327,37996,6,0,P|400:276|365:328,1,140,6|0,0:0|3:0,0:0:0:0:
460,212,38531,2,0,P|398:188|315:216,1,140,2|0,0:0|0:0,0:0:0:0:
294,285,39067,2,0,L|286:136,2,140,2|0|0,3:2|3:0|3:0,0:0:0:0:
198,216,39960,5,2,0:0:0:0:
384,246,40139,1,2,3:2:0:0:
215,205,40317,1,2,0:0:0:0:
336,176,40496,1,2,3:2:0:0:
276,295,40674,1,2,0:0:0:0:
442,314,40853,6,0,P|480:315|520:313,1,70,6|0,0:0|0:0,0:0:0:0:
375,237,41210,1,2,3:2:0:0:
359,224,41389,2,0,P|288:218|211:227,1,140,2|0,0:0|0:0,0:0:0:0:
70,298,41924,1,2,3:2:0:0:
51,285,42103,2,0,P|23:224|49:156,1,140,2|0,0:0|0:0,0:0:0:0:
114,232,42639,1,2,3:2:0:0:
76,80,42817,2,0,L|96:231,1,140,2|0,0:0|0:0,0:0:0:0:
192,283,43353,1,0,3:0:0:0:
302,244,43531,1,2,0:0:0:0:
199,42,43710,6,0,B|186:109|186:109|204:178,1,140,6|0,0:0|3:0,0:0:0:0:
405,108,44246,2,0,B|372:93|338:107|338:107|306:122|268:108,1,140,2|0,0:0|0:0,0:0:0:0:
431,191,44781,2,0,L|459:37,2,140,2|0|0,3:2|3:0|3:0,0:0:0:0:
384,353,45674,1,2,0:0:0:0:
414,179,45853,1,2,3:2:0:0:
482,331,46031,1,2,0:0:0:0:
372,269,46210,1,2,3:2:0:0:
507,183,46388,1,2,0:0:0:0:
325,194,46567,6,0,L|239:176,1,70,6|0,0:0|0:0,0:0:0:0:
82,120,46924,1,2,3:2:0:0:
102,114,47103,2,0,L|188:96,1,70,2|0,0:0|3:0,0:0:0:0:
325,34,47460,1,0,0:0:0:0:
283,142,47638,1,0,3:0:0:0:
171,177,47817,1,0,3:0:0:0:
329,248,47996,6,0,L|286:253,1,35,0|0,3:0|0:0,0:0:0:0:
101,270,48174,2,0,P|137:279|171:300,1,70,8|0,0:0|0:0,0:0:0:0:
272,384,48531,1,0,3:0:0:0:
272,384,48621,1,0,3:0:0:0:
272,384,48710,1,8,3:2:0:0:
344,236,48888,1,2,0:0:0:0:
309,110,49067,1,2,3:2:0:0:
235,51,49246,2,0,P|196:53|148:66,1,70,2|4,0:0|0:0,0:0:0:0:
84,202,49603,5,2,0:0:0:0:
61,77,49781,1,2,0:0:0:0:
256,210,49960,2,0,L|185:201,1,70,2|8,3:2|0:0,0:0:0:0:
164,0,50317,1,2,0:0:0:0:
141,125,50495,1,2,0:0:0:0:
310,59,50674,2,0,L|239:50,1,70,2|4,0:0|3:2,0:0:0:0:
374,193,51031,1,10,0:0:0:0:
249,170,51210,1,2,3:2:0:0:
389,186,51388,2,2,L|404:113,1,70,2|8,0:0|3:2,0:0:0:0:
365,310,51746,5,2,0:0:0:0:
470,220,51924,1,2,0:0:0:0:
495,380,52103,2,0,P|508:352|508:299,1,70,2|0,0:0|3:0,0:0:0:0:
269,338,52460,1,2,0:0:0:0:
383,302,52638,1,2,0:0:0:0:
223,170,52817,2,0,P|210:198|210:251,1,70,2|8,0:0|3:2,0:0:0:0:
351,378,53174,1,2,0:0:0:0:
298,255,53353,1,2,0:0:0:0:
451,199,53531,6,0,L|403:205,1,35,2|0,0:0|0:0,0:0:0:0:
223,225,53710,2,0,P|260:216|297:193,1,70,0|8,3:0|0:0,0:0:0:0:
349,40,54067,1,2,3:2:0:0:
338,165,54246,2,0,L|331:251,1,70,2|8,0:0|3:2,0:0:0:0:
183,303,54603,5,2,0:0:0:0:
315,333,54781,1,2,0:0:0:0:
204,205,54960,2,0,L|211:119,1,70,2|0,0:0|3:0,0:0:0:0:
329,318,55317,1,2,0:0:0:0:
349,193,55495,1,2,0:0:0:0:
479,262,55674,2,0,L|402:266,1,70,2|8,0:0|3:2,0:0:0:0:
162,250,56031,5,2,0:0:0:0:
289,249,56210,1,2,0:0:0:0:
266,73,56388,2,0,L|273:157,1,70,2|0,0:0|3:0,0:0:0:0:
179,235,56746,1,2,0:0:0:0:
313,264,56924,2,0,B|347:245|384:266|384:266|421:288|446:273,1,140,2|0,0:0|0:0,0:0:0:0:
381,125,57460,1,0,0:0:0:0:
512,28,57638,2,0,P|497:64|495:104,1,70,2|0,0:0|0:0,0:0:0:0:
512,269,57996,5,2,3:2:0:0:
355,248,58174,2,0,L|274:238,1,70,2|0,0:0|0:0,0:0:0:0:
127,169,58531,2,0,L|208:159,1,70,2|8,0:0|0:0,0:0:0:0:
355,90,58888,2,0,L|274:80,1,70,2|0,0:0|0:0,0:0:0:0:
127,11,59246,1,2,0:0:0:0:
48,222,59424,5,4,3:2:0:0:
270,250,59603,1,8,0:0:0:0:
112,158,59781,2,0,P|132:238|97:301,1,140,0|2,3:0|3:2,0:0:0:0:
222,283,60317,1,4,3:0:0:0:
280,160,60496,1,4,3:0:0:0:
282,57,60674,1,4,3:0:0:0:
121,0,60853,6,0,L|134:84,1,70,6|0,3:0|0:0,0:0:0:0:
302,101,61210,2,0,L|289:185,1,70,0|0,3:0|0:0,0:0:0:0:
121,202,61567,2,0,L|134:286,1,70,0|0,3:0|0:0,0:0:0:0:
302,303,61924,2,0,L|289:387,1,70,0|2,3:0|0:0,0:0:0:0:
43,253,62281,5,10,0:0:0:0:
375,359,62460,1,8,0:0:0:0:
71,330,62638,5,8,0:0:0:0:
403,224,62817,1,12,0:0:0:0:
220,41,63174,5,0,3:0:0:0:
219,110,63263,1,0,3:0:0:0:
220,181,63353,2,0,L|220:201,1,21,8|0,3:2|3:2,3:2:0:0:
220,274,63710,5,6,0:0:0:0:
127,35,63888,1,2,0:0:0:0:
336,159,64067,1,2,3:2:0:0:
108,45,64246,1,2,0:0:0:0:
335,12,64424,1,6,3:2:0:0:
143,223,64603,1,2,0:0:0:0:
316,26,64781,1,2,3:2:0:0:
38,97,64960,1,2,0:0:0:0:
319,143,65138,6,0,L|221:134,1,97.9999970092774,6|0,3:2|0:0,0:0:0:0:
20,110,65496,1,2,3:2:0:0:
129,314,65674,2,0,L|137:210,1,97.9999970092774,2|0,0:0|3:0,0:0:0:0:
122,0,66031,2,0,L|130:104,2,97.9999970092774,2|10|2,0:0|0:0|0:0,0:0:0:0:
207,144,66567,1,4,3:2:0:0:
207,144,66924,2,0,P|248:124|301:135,1,97.9999970092774,2|0,3:2|0:0,0:0:0:0:
450,205,67281,2,0,B|400:178|353:211|353:211|309:242|265:214,1,195.999994018555,12|0,3:2|3:0,0:0:0:0:
378,13,67817,6,0,P|388:65|379:119,1,97.9999970092774,6|0,0:0|3:0,0:0:0:0:
252,296,68174,1,2,0:0:0:0:
468,125,68353,1,10,3:2:0:0:
233,113,68531,1,2,0:0:0:0:
512,204,68710,2,0,L|411:220,1,97.9999970092774,6|0,3:2|0:0,0:0:0:0:
236,311,69067,1,10,0:0:0:0:
248,104,69255,1,10,0:0:0:0:
296,111,69349,1,8,0:0:0:0:
344,119,69443,5,14,0:0:0:0:
131,183,69621,1,2,0:0:0:0:
260,3,69799,1,2,3:2:0:0:
325,249,69977,1,2,0:0:0:0:
46,85,70156,1,6,3:2:0:0:
244,17,70334,1,2,0:0:0:0:
30,104,70512,1,2,3:2:0:0:
319,77,70691,1,2,0:0:0:0:
230,304,70869,6,0,P|222:254|229:194,1,97.9999970092774,6|0,3:2|0:0,0:0:0:0:
334,66,71226,1,2,3:2:0:0:
512,245,71404,2,0,P|462:237|402:244,1,97.9999970092774,2|0,0:0|3:0,0:0:0:0:
247,311,71760,1,2,0:0:0:0:
430,230,71939,1,2,3:2:0:0:
172,146,72117,1,2,0:0:0:0:
355,75,72295,1,4,3:2:0:0:
355,75,72652,6,6,P|347:123|312:173,1,97.9999970092774,6|2,3:2|0:0,3:2:0:0:
106,236,73009,2,0,P|151:219|212:225,1,97.9999970092774,2|0,3:2|0:0,0:0:0:0:
369,372,73365,2,0,P|331:342|305:286,1,97.9999970092774,2|0,3:2|0:0,0:0:0:0:
235,107,73722,1,6,3:2:0:0:
220,336,73900,1,2,0:0:0:0:
295,25,74078,1,2,3:2:0:0:
395,296,74257,1,2,0:0:0:0:
484,199,74435,5,0,3:0:0:0:
441,174,74524,1,0,3:0:0:0:
395,167,74613,2,0,L|395:127,1,24.4999992523194,8|0,3:2|0:0,0:0:0:0:
346,181,74702,1,8,3:2:0:0:
304,206,74792,2,0,L|323:244,1,24.4999992523194,8|0,3:2|0:0,0:0:0:0:
262,230,74881,1,8,3:2:0:0:
214,242,74970,2,0,L|214:207,1,24.4999992523194,8|0,3:2|0:0,0:0:0:0:
167,232,75059,1,8,3:2:0:0:
124,208,75148,5,6,3:2:0:0:
409,284,75326,1,2,0:0:0:0:
223,103,75505,1,2,3:2:0:0:
261,359,75683,1,2,0:0:0:0:
293,41,75862,1,6,3:2:0:0:
251,343,76040,1,2,0:0:0:0:
143,127,76219,1,2,3:2:0:0:
433,198,76398,1,2,0:0:0:0:
77,211,76576,6,0,P|126:217|181:228,1,97.9999970092774,6|0,3:2|0:0,0:0:0:0:
365,293,76933,1,6,3:2:0:0:
280,32,77112,2,0,P|271:85|259:144,1,97.9999970092774,2|0,3:2|0:0,0:0:0:0:
268,350,77469,2,0,P|259:297|247:238,2,97.9999970092774,0|2|2,3:2|3:2|3:2,0:0:0:0:
371,186,78005,1,6,3:2:0:0:
371,186,78183,1,2,0:0:0:0:
275,260,78362,2,0,P|227:270|179:263,1,97.9999970092774,6|0,3:2|0:0,0:0:0:0:
307,97,78719,2,0,B|262:154|262:154|297:280,1,195.999994018555,2|8,3:2|0:0,0:0:0:0:
390,47,79255,6,0,P|407:94|387:155,1,97.9999970092774,2|4,0:0|3:2,0:0:0:0:
214,268,79612,1,2,3:2:0:0:
465,306,79790,1,2,3:2:0:0:
325,89,79969,1,6,3:2:0:0:
342,358,80148,2,0,L|365:254,1,97.9999970092774,2|0,0:0|3:0,0:0:0:0:
152,341,80505,1,2,3:2:0:0:
216,66,80683,1,0,3:2:0:0:
226,113,80772,1,0,3:2:0:0:
237,161,80861,5,6,3:2:0:0:
30,16,81040,1,2,0:0:0:0:
291,19,81219,1,10,3:2:0:0:
0,113,81398,1,2,0:0:0:0:
317,201,81576,1,6,3:2:0:0:
122,0,81755,1,2,3:2:0:0:
95,278,81933,1,10,0:0:0:0:
137,16,82112,1,2,0:0:0:0:
358,110,82290,6,0,P|308:105|260:125,1,97.9999970092774,6|0,3:2|3:0,0:0:0:0:
109,264,82648,1,10,0:0:0:0:
153,29,82826,1,2,3:2:0:0:
153,29,83183,2,0,P|173:74|165:130,2,97.9999970092774,2|2|2,3:2|3:2|0:0,0:0:0:0:
320,184,83719,1,6,3:2:0:0:
320,184,83898,1,2,3:2:0:0:
35,179,84076,6,0,P|77:190|137:202,1,97.9999970092774,6|0,3:2|0:0,0:0:0:0:
313,60,84433,2,0,P|282:90|242:136,1,97.9999970092774,2|0,3:2|3:2,0:0:0:0:
277,360,84790,2,0,P|265:317|245:260,1,97.9999970092774,10|0,0:0|0:0,0:0:0:0:
127,78,85148,1,6,3:2:0:0:
385,119,85326,1,2,3:2:0:0:
63,149,85505,1,2,3:2:0:0:
336,274,85683,2,0,L|434:311,1,97.9999970092774,6|0,3:2|0:0,0:0:0:0:
273,133,86040,1,2,3:2:0:0:
250,322,86213,1,2,0:0:0:0:
426,220,86386,1,2,3:2:0:0:
212,228,86560,6,0,P|162:202|107:212,1,112,14|0,0:0|0:0,0:0:0:0:
147,0,86917,2,0,P|168:56|152:109,1,112,10|0,0:0|0:0,0:0:0:0:
19,262,87274,2,0,P|-2:206|14:153,1,112,10|0,0:0|0:0,0:0:0:0:
137,353,87631,1,10,0:0:0:0:
161,156,87810,2,0,L|176:41,1,112,10|12,0:0|0:0,0:0:0:0:
356,183,88167,5,2,0:0:0:0:
136,238,88345,2,0,B|23:264,1,112,10|0,0:0|0:0,0:0:0:0:
165,28,88702,1,10,0:0:0:0:
160,254,88881,1,0,0:0:0:0:
27,119,89060,1,8,0:0:0:0:
275,73,89238,1,0,0:0:0:0:
0,211,89417,6,0,L|123:234,1,112,14|0,0:0|0:0,0:0:0:0:
386,144,89769,2,0,L|263:167,1,112,10|0,0:0|0:0,0:0:0:0:
88,17,90122,2,0,B|202:43,1,112,10|0,0:0|0:0,0:0:0:0:
365,2,90475,1,10,0:0:0:0:
311,243,90657,2,0,B|288:329|288:329|293:359,1,112,2|12,0:0|0:0,0:0:0:0:
501,236,91018,1,2,0:0:0:0:
233,173,91197,2,0,B|315:158|315:158|352:165,1,112,10|2,0:0|0:0,0:0:0:0:
311,344,91554,1,10,0:0:0:0:
121,120,91732,1,0,0:0:0:0:
233,379,91911,1,8,0:0:0:0:
359,151,92090,1,0,0:0:0:0:
54,213,92268,6,0,P|111:222|172:252,1,112,14|0,0:0|0:0,0:0:0:0:
442,216,92625,2,0,B|388:220|331:247,1,112,10|0,0:0|0:0,0:0:0:0:
205,50,92982,2,0,P|210:109|229:158,1,112,10|0,0:0|0:0,0:0:0:0:
312,373,93340,1,8,0:0:0:0:
65,273,93518,2,0,B|111:278|111:278|176:254,1,112,2|12,0:0|0:0,0:0:0:0:
404,200,93875,5,2,0:0:0:0:
160,44,94054,2,0,B|134:82|134:82|145:169,1,112,10|0,0:0|0:0,0:0:0:0:
423,86,94411,2,0,B|378:75|378:75|314:110,1,112,10|0,0:0|0:0,0:0:0:0:
239,353,94768,2,0,B|239:236,1,112,10|0,0:0|0:0,0:0:0:0:
241,16,95125,5,12,3:2:0:0:
199,52,95214,1,8,0:0:0:0:
146,67,95304,1,8,0:0:0:0:
91,57,95394,1,8,0:0:0:0:
46,24,95484,1,8,0:0:0:0:
370,132,95664,6,0,P|318:126|247:132,1,112,6|0,0:0|0:0,0:0:0:0:
91,224,96024,2,12,P|143:218|214:224,1,112,6|0,0:0|0:0,0:0:0:0:
392,283,96384,2,0,P|401:318|398:370,1,84,6|0,3:2|0:0,0:0:0:0:
308,323,97644,2,0,L|278:321,1,28,2|6,0:0|0:0,0:0:0:0:
151,314,98182,1,0,0:0:0:0:
270,84,98361,5,8,3:2:0:0:
296,333,98539,1,8,3:2:0:0:
229,9,98718,1,8,3:2:0:0:
165,305,98896,1,8,3:2:0:0:
319,13,99069,1,8,3:2:0:0:
421,362,99256,1,8,3:2:0:0:
499,184,99444,5,6,3:2:0:0:
272,223,99622,1,2,0:0:0:0:
423,226,99801,1,2,0:0:0:0:
350,95,99979,1,2,0:0:0:0:
349,182,100158,1,2,0:0:0:0:
425,140,100336,1,2,0:0:0:0:
196,265,100515,5,6,3:2:0:0:
350,95,100694,1,2,0:0:0:0:
347,268,100872,1,2,0:0:0:0:
274,137,101051,1,2,0:0:0:0:
272,223,101229,1,2,0:0:0:0:
198,178,101408,1,2,0:0:0:0:
270,309,101586,5,6,3:2:0:0:
497,270,101765,1,2,0:0:0:0:
345,354,101944,1,2,0:0:0:0:
495,356,102122,1,2,0:0:0:0:
421,311,102301,1,2,0:0:0:0:
423,226,102479,1,2,0:0:0:0:
270,309,102658,5,2,3:2:0:0:
200,92,102836,1,2,0:0:0:0:
196,265,103015,1,2,0:0:0:0:
274,137,103194,1,2,0:0:0:0:
198,178,103372,1,2,0:0:0:0:
272,223,103551,1,2,0:0:0:0:
202,6,103729,5,10,3:2:0:0:
11,63,103908,1,0,0:0:0:0:
201,98,104086,1,0,3:2:0:0:
184,102,104175,1,0,3:2:0:0:
166,105,104265,2,0,L|92:113,1,70,8|0,0:0|0:0,0:0:0:0:
203,266,104622,1,4,3:0:0:0:
109,348,104801,1,4,3:0:0:0:
2,284,104979,1,4,3:0:0:0:
30,163,105148,6,0,B|51:135|88:132|88:132|123:167|161:152,1,140,6|0,3:2|0:0,0:0:0:0:
205,84,105683,2,0,L|188:240,1,140,2|0,0:0|0:0,0:0:0:0:
128,299,106219,2,0,P|163:315|204:315,1,70,2|0,0:0|3:0,0:0:0:0:
310,197,106576,2,0,B|328:227|308:260|308:260|288:292|303:330,1,140,8|0,0:0|0:0,0:0:0:0:
207,215,107112,1,2,0:0:0:0:
378,299,107290,1,2,0:0:0:0:
310,181,107469,1,2,0:0:0:0:
395,308,107648,1,2,0:0:0:0:
411,183,107826,1,2,0:0:0:0:
309,285,108005,6,0,L|382:299,1,70,2|0,3:2|0:0,0:0:0:0:
484,281,108362,1,2,0:0:0:0:
502,268,108540,2,0,P|508:195|505:122,2,140,2|0|0,0:0|0:0|3:0,0:0:0:0:
388,350,109433,1,8,0:0:0:0:
369,365,109612,2,0,L|294:356,1,70,2|0,0:0|0:0,0:0:0:0:
156,288,109969,2,0,L|231:279,1,70,2|0,0:0|0:0,0:0:0:0:
342,197,110326,1,2,0:0:0:0:
311,79,110505,1,2,0:0:0:0:
238,19,110683,1,2,0:0:0:0:
90,53,110862,6,0,P|116:81|131:197,1,140,2|0,3:2|0:0,0:0:0:0:
69,227,111398,2,0,L|215:209,1,140,2|0,0:0|0:0,0:0:0:0:
260,129,111933,2,0,P|282:154|295:198,1,70,2|0,0:0|3:0,0:0:0:0:
218,327,112290,2,0,B|264:339|264:339|309:327|309:327|359:341,1,140,8|0,0:0|0:0,0:0:0:0:
262,234,112826,1,2,0:0:0:0:
425,366,113005,1,2,0:0:0:0:
376,244,113183,1,2,0:0:0:0:
288,333,113362,1,2,0:0:0:0:
450,286,113540,1,2,0:0:0:0:
281,227,113719,6,0,L|290:153,1,70,2|0,3:2|0:0,0:0:0:0:
168,40,114076,1,2,0:0:0:0:
184,52,114255,2,0,B|165:101|173:154|173:154|176:132|193:112,2,140,2|2|0,0:0|0:0|3:0,0:0:0:0:
179,249,115148,1,8,0:0:0:0:
163,265,115326,2,0,L|125:270,1,28
55,277,115683,1,4,3:0:0:0:
55,277,116040,1,4,3:0:0:0:
139,179,116219,1,4,3:0:0:0:
161,81,116398,1,4,3:0:0:0:
344,323,116576,6,0,B|223:327|223:327|268:310,1,167.999994873047,6|0,3:2|3:0,0:0:0:0:
385,217,117112,2,0,L|395:388,1,167.999994873047,2|0,3:2|0:0,0:0:0:0:
308,209,117648,2,0,B|346:186|383:216|383:216|419:241|465:215,2,167.999994873047,2|0|0,3:2|3:0|3:0,0:0:0:0:
193,350,118540,1,2,0:0:0:0:
172,155,118719,1,2,3:2:0:0:
257,282,118898,1,2,0:0:0:0:
65,224,119076,1,2,3:2:0:0:
182,338,119255,1,2,0:0:0:0:
94,51,119433,6,0,L|77:141,1,83.9999974365235,2|0,3:2|0:0,0:0:0:0:
184,169,119790,1,2,3:2:0:0:
200,181,119969,2,0,L|231:352,1,167.999994873047,2|0,0:0|0:0,0:0:0:0:
377,100,120505,1,2,3:2:0:0:
355,106,120683,2,0,L|306:267,1,167.999994873047,2|0,0:0|0:0,0:0:0:0:
287,46,121219,1,2,3:2:0:0:
308,31,121398,2,0,P|399:27|453:99,2,167.999994873047,2|0|0,0:0|0:0|0:0,0:0:0:0:
185,139,122290,6,0,B|229:162|264:140|264:140|297:117|344:139,1,167.999994873047,2|0,3:2|3:0,0:0:0:0:
402,325,122828,2,0,L|429:155,1,167.999994873047,2|0,0:0|0:0,0:0:0:0:
452,27,123367,2,0,P|426:-7|396:74,2,167.999994873047,2|0|0,3:2|3:0|3:0,0:0:0:0:
303,151,124266,1,2,0:0:0:0:
493,192,124445,2,0,L|408:199,1,83.9999974365235,2|0,3:2|0:0,0:0:0:0:
343,305,124804,1,2,3:2:0:0:
388,108,124980,1,2,0:0:0:0:
192,212,125157,2,0,L|284:227,1,83.9999974365235,2|0,3:2|0:0,0:0:0:0:
461,278,125514,1,0,3:2:0:0:
444,294,125692,2,0,B|384:291|331:317|331:317|365:319|397:336,2,167.999994873047,2|2|2,0:0|0:0|0:0,0:0:0:0:
260,373,126585,5,0,3:0:0:0:
297,181,126762,1,0,3:0:0:0:
297,181,126851,1,0,3:0:0:0:
297,181,126939,1,4,3:2:0:0:
222,40,127117,1,0,3:0:0:0:
102,45,127294,1,0,3:0:0:0:
33,115,127472,1,4,3:0:0:0:
55,184,127649,1,4,3:0:0:0:
82,204,127826,1,4,3:0:0:0:
101,206,128004,6,0,L|177:194,1,70,0|2,3:0|0:0,0:0:0:0:
295,307,128361,1,2,0:0:0:0:
272,176,128539,2,0,L|262:98,1,70,2|8,3:2|0:0,0:0:0:0:
465,173,128896,1,2,0:0:0:0:
351,232,129075,1,2,0:0:0:0:
375,66,129254,2,0,L|365:154,1,70,2|0,0:0|3:0,0:0:0:0:
333,329,129611,1,2,0:0:0:0:
442,261,129789,1,2,3:2:0:0:
511,374,129968,2,0,P|474:369|427:386,1,70,2|8,0:0|0:0,0:0:0:0:
347,233,130325,5,2,0:0:0:0:
286,118,130504,1,2,0:0:0:0:
172,211,130682,2,0,P|207:211|244:226,1,70,2|0,0:0|3:0,0:0:0:0:
278,365,131039,1,2,0:0:0:0:
330,239,131218,1,2,0:0:0:0:
126,317,131396,2,0,P|161:317|198:302,1,70,2|8,0:0|0:0,0:0:0:0:
228,114,131754,1,2,0:0:0:0:
251,239,131932,1,2,0:0:0:0:
366,151,132111,6,0,L|325:157,1,35,2|0,0:0|0:0,0:0:0:0:
139,192,132289,1,0,3:0:0:0:
190,11,132468,1,10,0:0:0:0:
242,128,132646,1,2,3:2:0:0:
69,108,132825,2,0,L|-5:101,1,70,2|8,0:0|0:0,0:0:0:0:
99,299,133182,5,2,0:0:0:0:
131,174,133361,1,2,0:0:0:0:
268,311,133539,2,0,P|239:327|198:330,1,70,2|0,0:0|3:0,0:0:0:0:
123,158,133896,1,2,0:0:0:0:
212,250,134075,1,2,0:0:0:0:
34,357,134254,2,0,P|21:322|16:281,1,70,2|8,0:0|0:0,0:0:0:0:
59,98,134611,5,2,0:0:0:0:
77,237,134789,1,2,0:0:0:0:
231,263,134968,2,0,L|156:278,1,70,2|0,0:0|3:0,0:0:0:0:
177,90,135325,1,2,0:0:0:0:
44,113,135504,1,2,3:2:0:0:
236,158,135682,2,0,L|230:205,1,35
219,314,135861,2,0,L|142:301,1,70,8|0,0:0|0:0,0:0:0:0:
7,268,136218,2,0,L|84:255,1,70,2|0,0:0|0:0,0:0:0:0:
268,227,136575,5,2,3:2:0:0:
59,149,136754,2,0,L|128:156,1,70,2|0,0:0|0:0,0:0:0:0:
197,0,137111,2,0,L|204:69,1,70,2|8,3:2|0:0,0:0:0:0:
293,149,137468,2,0,L|285:218,1,70,2|0,0:0|0:0,0:0:0:0:
197,298,137825,1,2,0:0:0:0:
383,358,138004,5,0,3:2:0:0:
486,152,138182,1,8,0:0:0:0:
465,329,138361,2,0,B|448:298|448:298|407:278,1,70,4|4,3:0|3:0,0:0:0:0:
231,355,138718,1,8,0:0:0:0:
204,197,138896,1,4,3:0:0:0:
296,106,139075,2,0,L|371:95,1,70
499,278,139432,6,0,L|416:263,1,70,2|0,3:2|0:0,0:0:0:0:
371,132,139789,2,0,L|288:147,1,70,0|0,3:0|0:0,0:0:0:0:
243,278,140146,2,0,L|160:263,1,70,0|0,3:0|0:0,0:0:0:0:
115,132,140504,2,0,L|32:147,1,70,0|0,3:0|0:0,0:0:0:0:
195,352,140861,5,10,0:0:0:0:
270,57,141039,1,8,0:0:0:0:
255,295,141218,5,8,0:0:0:0:
181,0,141396,1,12,0:0:0:0:
62,187,141754,5,0,3:0:0:0:
131,187,141843,1,0,3:0:0:0:
201,188,141932,2,0,L|224:188,1,21,4|0,3:2|0:0,0:0:0:0:
298,187,142289,5,6,3:2:0:0:
133,80,142468,1,2,0:0:0:0:
319,183,142646,1,2,3:2:0:0:
360,0,142825,1,2,0:0:0:0:
203,118,143004,1,6,3:2:0:0:
422,167,143182,1,2,0:0:0:0:
234,28,143361,1,2,3:2:0:0:
261,254,143539,1,2,0:0:0:0:
502,89,143718,6,0,L|396:79,1,97.9999970092774,6|0,3:2|0:0,0:0:0:0:
276,269,144075,1,2,3:2:0:0:
255,36,144254,2,0,L|265:146,1,97.9999970092774,2|0,0:0|3:2,0:0:0:0:
126,307,144611,2,0,B|113:268|113:268|136:197,2,97.9999970092774,2|10|2,0:0|0:0|0:0,0:0:0:0:
36,138,145146,1,4,3:2:0:0:
36,138,145504,2,0,L|132:122,1,97.9999970092774,2|0,3:2|0:0,0:0:0:0:
338,63,145861,2,0,L|144:30,1,195.999994018555,0|0,3:2|0:0,0:0:0:0:
240,226,146396,6,0,P|223:182|226:128,1,97.9999970092774,2|4,0:0|3:2,0:0:0:0:
106,308,146754,1,2,0:0:0:0:
309,164,146932,1,2,3:2:0:0:
127,39,147111,1,2,0:0:0:0:
325,148,147289,2,0,P|322:99|324:50,1,97.9999970092774,6|0,3:2|0:0,0:0:0:0:
242,319,147646,1,2,3:2:0:0:
415,214,147825,1,0,3:2:0:0:
418,165,147914,1,0,3:2:0:0:
414,117,148003,5,6,3:2:0:0:
351,17,148182,1,2,0:0:0:0:
219,202,148361,1,2,3:2:0:0:
508,181,148539,1,2,0:0:0:0:
247,79,148718,1,6,3:2:0:0:
363,296,148896,1,2,0:0:0:0:
471,79,149075,1,2,3:2:0:0:
213,220,149254,1,2,0:0:0:0:
493,194,149432,6,0,L|387:185,1,97.9999970092774,6|0,3:2|0:0,0:0:0:0:
111,162,149789,1,2,3:2:0:0:
403,78,149968,2,0,L|297:87,1,97.9999970092774,2|0,0:0|3:2,0:0:0:0:
281,294,150325,2,0,P|275:246|292:194,2,97.9999970092774,2|10|2,0:0|0:0|0:0,0:0:0:0:
225,129,150861,1,4,3:2:0:0:
225,129,151218,6,0,L|117:121,1,97.9999970092774,2|0,3:2|0:0,0:0:0:0:
417,113,151575,2,0,L|471:31,1,97.9999970092774,2|0,3:2|0:0,0:0:0:0:
334,287,151932,2,0,L|381:384,1,97.9999970092774,2|0,3:2|0:0,0:0:0:0:
194,34,152289,1,6,3:2:0:0:
230,322,152468,1,2,3:2:0:0:
265,0,152646,1,10,0:0:0:0:
45,196,152825,1,2,3:2:0:0:
367,147,153004,5,4,3:2:0:0:
341,106,153093,1,0,3:2:0:0:
296,88,153182,2,0,L|302:54,1,24.4999992523194,2|0,3:2|0:0,0:0:0:0:
250,101,153271,1,0,3:2:0:0:
220,139,153361,2,0,L|187:128,1,24.4999992523194,2|0,3:2|0:0,0:0:0:0:
220,187,153450,1,0,3:2:0:0:
248,226,153539,2,0,L|232:253,1,24.4999992523194,2|0,3:2|0:0,0:0:0:0:
294,240,153628,1,0,3:2:0:0:
339,224,153718,5,6,3:2:0:0:
181,21,153896,1,2,0:0:0:0:
427,87,154075,1,2,3:2:0:0:
165,37,154254,1,2,0:0:0:0:
271,313,154432,1,6,3:2:0:0:
380,0,154611,1,2,0:0:0:0:
116,139,154789,1,2,3:2:0:0:
375,157,154968,1,2,0:0:0:0:
45,221,155146,6,0,L|145:234,1,97.9999970092774,6|0,3:2|0:0,0:0:0:0:
3,6,155504,1,0,3:2:0:0:
300,121,155682,2,0,L|200:134,1,97.9999970092774,2|0,0:0|0:0,0:0:0:0:
255,338,156039,6,0,P|274:290|263:227,2,97.9999970092774,2|10|2,3:2|0:0|3:2,0:0:0:0:
386,160,156575,1,4,3:2:0:0:
386,160,156754,1,0,3:2:0:0:
129,129,156932,2,0,L|24:116,1,97.9999970092774,2|0,3:2|0:0,0:0:0:0:
306,36,157289,2,0,L|411:23,1,97.9999970092774,0|0,3:2|3:2,0:0:0:0:
268,219,157646,1,0,3:2:0:0:
264,267,157735,1,0,3:2:0:0:
261,316,157825,6,0,L|155:331,1,97.9999970092774,2|4,3:2|0:0,0:0:0:0:
421,302,158171,1,2,3:2:0:0:
277,87,158350,1,2,3:2:0:0:
334,384,158528,1,2,3:2:0:0:
427,148,158707,2,0,P|441:101|465:49,1,97.9999970092774,6|0,0:0|3:2,0:0:0:0:
253,208,159064,2,0,P|267:255|291:307,1,97.9999970092774,2|0,0:0|0:0,0:0:0:0:
53,144,159421,5,6,3:2:0:0:
344,167,159600,1,2,3:2:0:0:
131,212,159778,1,2,3:2:0:0:
241,3,159957,1,2,0:0:0:0:
198,297,160135,1,6,3:2:0:0:
73,43,160314,1,2,3:2:0:0:
394,97,160493,1,2,0:0:0:0:
39,157,160671,1,2,0:0:0:0:
339,203,160850,6,0,L|441:224,1,97.9999970092774,6|0,3:2|3:0,0:0:0:0:
252,33,161207,1,2,0:0:0:0:
124,266,161385,2,0,L|22:287,1,97.9999970092774,2|0,3:2|0:0,0:0:0:0:
113,66,161743,1,2,3:2:0:0:
251,325,161921,2,0,L|353:346,1,97.9999970092774,10|0,0:0|0:0,0:0:0:0:
384,78,162278,1,0,3:0:0:0:
384,78,162457,1,0,3:0:0:0:
141,252,162635,6,0,B|147:200|147:200|129:159,1,97.9999970092774,6|0,3:2|0:0,0:0:0:0:
317,30,162993,2,0,B|351:61|351:61|406:64,1,97.9999970092774,2|0,3:2|3:2,0:0:0:0:
421,293,163350,2,0,B|371:310|371:310|348:353,1,97.9999970092774,10|0,0:0|0:0,0:0:0:0:
60,219,163707,1,6,3:2:0:0:
256,115,163885,1,2,3:2:0:0:
18,301,164064,1,2,0:0:0:0:
332,357,164243,1,2,3:2:0:0:
164,159,164421,2,0,P|162:115|166:56,1,97.9999970092774,0|0,0:0|3:0,0:0:0:0:
230,309,164778,1,0,0:0:0:0:
250,12,164957,1,0,3:2:0:0:
148,175,165135,5,14,0:0:0:0:
465,281,165314,1,0,3:0:0:0:
99,264,165493,5,10,0:0:0:0:
419,161,165672,1,0,3:0:0:0:
157,352,165850,5,10,0:0:0:0:
219,47,166028,1,0,3:0:0:0:
253,384,166207,5,10,0:0:0:0:
142,97,166385,1,2,3:2:0:0:
348,357,166564,6,0,L|367:253,1,97.9999970092774,10|0,0:0|3:0,0:0:0:0:
251,56,166921,2,0,L|270:160,1,97.9999970092774,10|0,0:0|3:0,0:0:0:0:
154,357,167278,2,0,L|173:253,1,97.9999970092774,8|0,0:0|3:0,0:0:0:0:
57,56,167635,2,0,L|76:160,1,97.9999970092774,8|0,0:0|3:0,0:0:0:0:
350,247,167993,5,14,0:0:0:0:
61,295,168171,1,0,3:0:0:0:
421,317,168350,5,10,0:0:0:0:
121,208,168528,1,0,3:0:0:0:
443,227,168707,5,10,0:0:0:0:
143,362,168885,1,0,3:0:0:0:
512,286,169064,5,10,0:0:0:0:
203,135,169243,1,2,3:2:0:0:
362,384,169421,6,0,L|244:367,1,97.9999970092774,10|2,0:0|3:2,0:0:0:0:
65,271,169778,2,0,L|183:254,1,97.9999970092774,10|2,0:0|3:2,0:0:0:0:
362,158,170135,2,0,L|244:141,1,97.9999970092774,8|0,0:0|3:0,0:0:0:0:
65,45,170493,2,0,L|183:28,1,97.9999970092774,8|0,0:0|3:0,0:0:0:0:
323,286,170850,5,14,0:0:0:0:
236,0,171028,1,0,3:0:0:0:
237,320,171207,5,10,0:0:0:0:
324,34,171385,1,0,3:0:0:0:
302,373,171564,5,10,0:0:0:0:
215,87,171742,1,0,3:0:0:0:
142,336,171921,5,10,0:0:0:0:
425,270,172100,1,2,3:2:0:0:
96,261,172278,6,0,P|50:252|-1:247,1,97.9999970092774,10|2,0:0|3:2,0:0:0:0:
226,186,172635,2,0,P|276:177|323:172,1,97.9999970092774,10|0,0:0|3:0,0:0:0:0:
96,111,172993,2,0,P|48:102|-1:97,1,97.9999970092774,10|0,0:0|3:0,0:0:0:0:
226,36,173350,2,0,P|277:26|323:22,1,97.9999970092774,10|0,0:0|3:0,0:0:0:0:
235,340,173707,5,4,3:2:0:0:
228,291,173796,1,0,3:0:0:0:
221,242,173885,1,0,3:0:0:0:
215,194,173974,1,0,3:0:0:0:
208,145,174064,5,0,3:2:0:0:
341,9,174243,2,0,P|349:60|353:110,1,97.9999970092774,6|0,3:2|0:0,0:0:0:0:
512,213,174600,2,0,P|502:267|500:314,1,97.9999970092774,4|0,3:2|0:0,0:0:0:0:
314,336,174957,2,0,B|269:328|220:340|220:340|244:323,1,123.200003759766,6|0,3:2|0:0,0:0:0:0:
316,261,176572,5,2,0:0:0:0:
303,244,178009,5,2,0:0:0:0:
290,227,179437,5,2,0:0:0:0:
278,210,180866,5,2,0:0:0:0:
265,193,181759,5,2,0:0:0:0:
323,146,181937,1,2,0:0:0:0:
253,120,182116,1,2,0:0:0:0:
265,193,182294,5,2,0:0:0:0:
254,178,183723,5,2,0:0:0:0:
244,161,185151,5,2,0:0:0:0:
244,161,185866,1,2,0:0:0:0:
244,161,186580,1,2,0:0:0:0:
244,161,187294,1,2,0:0:0:0:
244,161,188009,6,0,L|178:155,1,56,2|0,0:0|0:0,0:0:0:0:
119,83,188544,2,0,L|185:77,1,56,2|0,0:0|0:0,0:0:0:0:
244,5,189080,1,2,0:0:0:0:
244,5,189259,1,2,0:0:0:0:
244,5,189437,2,0,L|178:-1,1,56,2|2,0:0|0:0,0:0:0:0:
317,78,189973,1,2,0:0:0:0:
317,78,190151,2,0,P|364:71|405:70,1,84,2|0,0:0|0:0,0:0:0:0:
466,144,190866,6,0,P|439:152|408:157,1,56,2|0,0:0|0:0,0:0:0:0:
345,237,191401,2,0,P|318:229|287:224,1,56,2|0,0:0|0:0,0:0:0:0:
224,144,191937,1,2,0:0:0:0:
224,144,192116,1,2,0:0:0:0:
224,144,192294,2,0,P|197:152|166:157,1,56,2|0,0:0|0:0,0:0:0:0:
76,131,192830,1,2,0:0:0:0:
76,131,193009,1,2,0:0:0:0:
12,274,193366,6,0,L|46:280,1,28,2|2,0:0|0:0,0:0:0:0:
116,208,193723,2,0,L|150:202,1,28,2|2,0:0|0:0,0:0:0:0:
220,274,194080,2,0,L|254:280,1,28,2|2,0:0|0:0,0:0:0:0:
339,147,194616,6,0,L|342:180,1,28,2|2,0:0|0:0,0:0:0:0:
383,276,194973,2,0,P|403:258|421:229,1,56,2|2,0:0|0:0,0:0:0:0:
431,135,195509,1,2,0:0:0:0:
431,135,195687,2,0,L|425:103,1,28,2|2,0:0|0:0,0:0:0:0:
512,269,196223,6,0,L|475:274,1,28,2|0,0:0|0:0,0:0:0:0:
386,295,196580,1,2,0:0:0:0:
386,295,196759,1,2,0:0:0:0:
464,357,196937,1,2,0:0:0:0:
464,357,197116,2,0,L|427:362,1,28,2|0,0:0|0:0,0:0:0:0:
314,373,197473,5,2,0:0:0:0:
296,305,197652,1,2,0:0:0:0:
301,236,197831,1,2,0:0:0:0:
402,280,198187,5,2,0:0:0:0:
420,212,198366,1,2,0:0:0:0:
415,143,198545,1,2,0:0:0:0:
378,82,198723,5,2,0:0:0:0:
317,152,198901,1,2,0:0:0:0:
256,82,199080,1,2,0:0:0:0:
195,152,199259,1,2,0:0:0:0:
134,82,199437,6,0,B|103:90|78:122|78:122|55:88|22:76,1,140,6|0,3:2|3:0,0:0:0:0:
7,291,199963,2,0,P|-15:225|0:157,1,140,2|0,0:0|0:0,0:0:0:0:
85,232,200489,1,2,3:2:0:0:
78,122,200665,1,2,0:0:0:0:
168,177,200840,2,0,B|205:195|237:177|237:177|267:158|304:177,1,140,6|0,3:2|3:0,0:0:0:0:
286,271,201382,1,2,0:0:0:0:
382,258,201562,2,0,P|417:201|388:127,1,140,2|0,3:2|3:0,0:0:0:0:
316,80,202105,1,0,0:0:0:0:
212,148,202285,6,0,P|200:212|194:287,1,140,6|0,3:2|3:0,0:0:0:0:
310,291,202823,2,0,B|263:269|263:269|177:298,1,140,2|0,0:0|0:0,0:0:0:0:
286,369,203362,1,0,3:2:0:0:
327,216,203542,1,2,0:0:0:0:
192,64,203722,5,6,3:2:0:0:
328,113,203896,2,0,L|254:126,1,70,4|4,3:0|3:0,0:0:0:0:
140,160,204245,1,4,3:0:0:0:
241,210,204419,1,0,3:0:0:0:
158,261,204594,1,0,3:0:0:0:
158,261,204768,1,0,3:0:0:0:
158,261,205117,6,0,P|161:190|179:118,1,140,6|0,3:2|3:0,0:0:0:0:
53,36,205662,2,0,P|56:107|74:179,1,140,2|0,0:0|0:0,0:0:0:0:
146,277,206207,1,2,3:2:0:0:
23,292,206389,1,2,0:0:0:0:
172,288,206562,6,0,L|314:274,1,140,6|0,3:2|3:0,0:0:0:0:
176,179,207097,1,2,0:0:0:0:
283,112,207276,2,0,L|357:120,1,70,2|0,3:2|0:0,0:0:0:0:
484,203,207633,2,0,L|410:211,1,70,2|0,3:2|0:0,0:0:0:0:
275,332,207990,6,0,P|203:255|270:207,1,210,6|0,3:2|0:0,0:0:0:0:
419,309,208712,2,0,B|372:295|325:326|353:337|308:366|247:346,1,175,2|0,3:2|0:0,0:0:0:0:
148,220,209435,2,0,P|162:290|161:364,1,140,6|0,3:2|3:0,0:0:0:0:
321,273,209961,1,4,3:0:0:0:
346,142,210136,1,0,3:0:0:0:
330,38,210312,1,0,3:0:0:0:
259,5,210487,2,0,L|186:12,1,70,4|0,3:0|0:0,0:0:0:0:
29,33,210838,6,0,B|63:78|63:78|42:201,1,167.999994873047,6|0,3:2|3:0,0:0:0:0:
175,339,211386,2,0,P|175:244|169:159,1,167.999994873047,2|0,0:0|0:0,0:0:0:0:
28,267,211935,1,10,0:0:0:0:
194,346,212118,1,0,0:0:0:0:
318,179,212301,2,0,B|197:203|197:203|148:185,1,167.999994873047,2|0,3:2|3:0,0:0:0:0:
238,13,212830,1,2,0:0:0:0:
56,67,213006,2,0,P|11:133|61:202,1,167.999994873047,2|0,3:2|3:0,0:0:0:0:
211,310,213536,1,0,0:0:0:0:
299,199,213712,6,0,B|266:236|292:280|292:280|313:317|283:362,1,167.999994873047,6|0,3:2|3:0,0:0:0:0:
442,220,214247,2,0,L|265:206,1,167.999994873047,2|0,0:0|0:0,0:0:0:0:
84,192,214783,1,10,0:0:0:0:
163,338,214962,1,2,0:0:0:0:
195,154,215140,2,0,P|189:240|180:332,1,167.999994873047,2|0,3:2|3:0,0:0:0:0:
67,211,215672,1,2,0:0:0:0:
283,302,215850,2,0,P|240:299|196:315,1,83.9999974365235,2|0,3:2|0:0,0:0:0:0:
495,367,216205,5,6,3:2:0:0:
333,220,216382,1,2,0:0:0:0:
385,363,216560,1,2,3:2:0:0:
454,191,216738,1,2,0:0:0:0:
367,384,216917,1,2,3:2:0:0:
249,275,217095,2,0,P|201:268|153:278,1,83.9999974365235,2|0,0:0|3:0,0:0:0:0:
0,321,217452,5,6,0:0:0:0:
118,162,217631,1,2,3:2:0:0:
156,293,217810,2,0,P|114:298|60:293,1,83.9999974365235,2|0,0:0|3:0,0:0:0:0:
100,145,218167,1,2,0:0:0:0:
251,272,218345,1,2,3:2:0:0:
118,162,218524,2,0,P|158:148|210:146,1,83.9999974365235,2|0,0:0|3:0,0:0:0:0:
393,180,218881,1,6,0:0:0:0:
264,294,219060,2,0,P|305:306|353:310,1,83.9999974365235,2|2,3:2|0:0,0:0:0:0:
443,92,219417,5,4,3:2:0:0:
281,66,219596,1,0,0:0:0:0:
393,180,219776,1,0,0:0:0:0:
200,195,219956,1,0,0:0:0:0:
311,301,220136,1,0,0:0:0:0:
84,335,220316,1,0,0:0:0:0:
269,381,220495,1,0,0:0:0:0:
199,283,220675,1,0,0:0:0:0:
409,278,220855,6,0,L|322:286,1,83.9999974365235,8|0,0:0|0:0,0:0:0:0:
350,88,221207,1,0,3:0:0:0:
429,194,221384,2,0,L|524:206,1,83.9999974365235,8|0,0:0|0:0,0:0:0:0:
417,17,221737,1,0,3:0:0:0:
318,185,221907,6,0,L|233:176,1,70,0|0,3:0|0:0,0:0:0:0:
146,36,222286,2,0,P|127:110|123:214,1,167.999994873047,6|0,3:2|0:0,0:0:0:0:
256,325,222821,1,0,3:0:0:0:
256,325,222911,1,0,3:0:0:0:
256,325,223000,2,0,P|211:323|164:343,1,83.9999974365235,4|0,3:2|0:0,0:0:0:0:
31,183,223357,2,0,P|70:176|121:194,1,83.9999974365235
338,171,223714,6,0,B|309:156|309:156|253:163,2,83.9999974365235,0|8|0,3:0|0:0|3:0,0:0:0:0:
180,25,224250,1,0,3:0:0:0:
180,25,224339,1,0,3:0:0:0:
180,25,224428,2,0,P|184:68|166:121,1,83.9999974365235,2|0,3:2|0:0,0:0:0:0:
43,254,224786,2,0,P|40:211|56:163,1,83.9999974365235
170,343,225143,6,0,B|124:318|85:344|85:344|50:362|4:345,1,167.999994873047,0|0,3:0|0:0,0:0:0:0:
141,213,225678,1,0,3:0:0:0:
141,213,225768,1,0,3:0:0:0:
141,213,225857,2,0,L|156:119,1,83.9999974365235,4|0,3:2|0:0,0:0:0:0:
253,264,226214,2,0,L|267:357,1,83.9999974365235
342,170,226571,6,0,B|310:128|310:128|337:11,1,167.999994873047,0|0,3:0|0:0,0:0:0:0:
490,97,227107,1,0,3:0:0:0:
490,97,227196,1,0,3:0:0:0:
490,97,227286,2,0,L|394:106,1,83.9999974365235,4|0,3:2|0:0,0:0:0:0:
244,175,227643,2,0,L|338:186,1,83.9999974365235,0|0,0:0|3:0,0:0:0:0:
468,291,228000,6,0,P|411:244|474:204,1,167.999994873047,0|0,3:0|0:0,0:0:0:0:
360,361,228536,1,0,3:0:0:0:
360,361,228625,1,0,3:0:0:0:
360,361,228714,2,0,P|317:362|274:348,1,83.9999974365235,4|0,3:2|0:0,0:0:0:0:
191,213,229071,2,0,P|144:211|109:225,1,83.9999974365235
85,384,229428,6,0,P|90:308|83:209,1,167.999994873047,0|0,3:0|0:0,0:0:0:0:
0,64,229964,1,0,3:0:0:0:
0,64,230053,1,0,3:0:0:0:
0,64,230143,2,0,P|8:143|3:237,1,167.999994873047,4|0,3:2|0:0,0:0:0:0:
125,87,230678,1,0,3:0:0:0:
218,200,230857,6,0,P|211:276|236:370,1,167.999994873047,0|0,3:0|0:0,0:0:0:0:
348,154,231393,1,0,3:0:0:0:
348,154,231482,1,0,3:0:0:0:
348,154,231571,2,0,P|351:228|332:327,1,167.999994873047,4|0,3:2|3:0,0:0:0:0:
459,132,232107,5,0,3:0:0:0:
512,325,232286,2,0,B|460:305|425:328|425:328|388:353|343:332,1,167.999994873047
146,267,232821,1,0,3:0:0:0:
146,267,232911,1,0,3:0:0:0:
146,267,233000,1,8,0:0:0:0:
276,212,233178,1,4,3:0:0:0:
319,306,233357,1,4,3:0:0:0:
319,306,233714,6,0,B|363:306|396:286|396:286|444:314|492:307,1,167.999994873047,0|0,3:0|0:0,0:0:0:0:
438,136,234250,1,0,3:0:0:0:
438,136,234339,1,0,3:0:0:0:
438,136,234428,2,0,P|452:178|450:229,1,83.9999974365235,4|0,3:2|0:0,0:0:0:0:
307,322,234786,2,0,P|293:277|291:239,1,83.9999974365235
116,157,235143,6,0,B|156:166|156:166|204:138,2,83.9999974365235,0|8|0,3:0|0:0|3:0,0:0:0:0:
88,30,235678,1,0,3:0:0:0:
88,30,235768,1,0,3:0:0:0:
88,30,235857,2,0,L|-1:22,1,83.9999974365235,4|0,3:2|0:0,0:0:0:0:
180,158,236214,2,0,L|263:150,1,83.9999974365235
68,309,236571,6,0,P|59:231|74:132,1,167.999994873047,0|0,3:0|0:0,0:0:0:0:
165,331,237107,1,0,3:0:0:0:
165,331,237196,1,0,3:0:0:0:
165,331,237286,2,0,L|179:236,1,83.9999974365235,4|0,3:2|0:0,0:0:0:0:
241,116,237643,2,0,L|228:23,1,83.9999974365235
44,21,238000,5,0,3:0:0:0:
165,174,238178,2,0,P|250:200|336:164,1,167.999994873047,8|0,0:0|0:0,0:0:0:0:
224,229,238714,1,0,3:0:0:0:
278,60,238893,1,0,0:0:0:0:
341,187,239071,1,0,3:0:0:0:
341,187,239428,6,0,B|377:162|424:169|424:169|456:204|519:176,1,167.999994873047,4|0,3:2|0:0,0:0:0:0:
236,147,239964,1,0,3:0:0:0:
247,4,240143,2,0,L|256:174,1,167.999994873047,0|0,3:0|0:0,0:0:0:0:
81,256,240678,1,0,3:0:0:0:
81,256,240768,1,0,3:0:0:0:
81,256,240857,6,0,P|160:226|235:257,1,167.999994873047,4|0,3:2|0:0,0:0:0:0:
345,378,241393,1,0,3:0:0:0:
384,213,241571,2,0,L|414:42,1,167.999994873047,0|0,3:0|0:0,0:0:0:0:
480,244,242107,1,0,3:0:0:0:
480,244,242196,1,0,3:0:0:0:
480,244,242286,2,0,P|397:240|342:318,1,167.999994873047,4|0,3:2|0:0,0:0:0:0:
308,141,242821,1,0,3:0:0:0:
200,257,243000,2,0,P|196:221|196:173,1,83.9999974365235,0|0,3:0|0:0,0:0:0:0:
298,41,243357,2,0,P|296:86|292:121,1,83.9999974365235,0|0,0:0|3:0,0:0:0:0:
156,36,243714,1,0,0:0:0:0:
6,75,243893,6,0,L|188:60,1,167.999994873047,0|0,3:0|3:0,0:0:0:0:
94,247,244428,1,8,0:0:0:0:
193,81,244607,1,4,3:0:0:0:
26,159,244786,1,4,3:0:0:0:
221,162,244964,1,4,3:0:0:0:
113,228,245143,6,0,L|108:302,1,70,4|0,3:2|0:0,0:0:0:0:
219,353,246222,2,0,L|204:355,1,14
246,210,246582,1,0,3:0:0:0:
37,117,246760,1,0,3:0:0:0:
69,103,246849,1,0,3:0:0:0:
103,102,246938,1,0,3:0:0:0:
135,117,247027,1,0,3:0:0:0:
167,132,247117,1,4,3:0:0:0:
201,129,247206,1,4,3:0:0:0:
233,114,247296,1,4,3:0:0:0:
234,131,247386,1,4,3:0:0:0:
235,149,247475,1,4,3:0:0:0:
236,166,247564,1,4,3:0:0:0:
237,184,247654,5,4,3:2:0:0:
237,184,248010,2,0,P|278:65|298:192,1,336,2|0,0:0|0:0,0:0:0:0:
251,269,249260,2,0,B|203:275|169:245|169:245|143:268|148:336|148:336|110:241|57:171|57:171|74:215|70:254,1,448,2|0,0:0|0:0,0:0:0:0:
2,341,250867,2,0,B|66:291|127:345|127:345|187:398|257:357,1,280,2|0,0:0|0:0,0:0:0:0:
396,279,251939,2,0,B|389:221|335:198|335:198|339:134|305:68|305:68|314:163|257:185|257:185|195:210|199:294,1,504,2|0,0:0|0:0,0:0:0:0:
274,351,253724,2,0,B|256:357|216:333|216:333|176:303|118:319|118:319|172:297|231:297|264:252|280:180|263:94|210:57|123:48|53:61|-2:110|-22:233|41:302|121:278,1,840,2|0,0:0|0:0,0:0:0:0:
315,275,256582,2,0,B|345:258|419:266|419:266|372:259|320:227|320:227|270:197|217:218|217:218|247:178|317:168|317:168|400:155|423:37|364:-33|247:-48|219:46,1,784,2|0,0:0|0:0,0:0:0:0:
224,32,259424,6,0,B|278:108|230:142|230:142|176:174|162:262|162:262|170:194|161:122|161:122|116:108|81:45|81:45|112:76|143:78,1,587.999982055665,6|0,3:2|0:0,0:0:0:0:
341,111,260852,2,0,B|380:110|399:64|399:64|443:99|497:84|497:84|497:131|520:175|520:175|546:215|503:248|503:248|470:269|460:308|460:308|470:242|451:198|451:198|450:228|429:243,1,587.999982055665,6|0,3:2|0:0,0:0:0:0:
331,282,262281,2,0,B|291:306|247:278|247:278|200:250|150:308|150:308|123:285|79:294|79:294|38:307|15:340|15:340|52:280|99:257|99:257|149:231|139:147,1,587.999982055665,6|0,3:2|0:0,0:0:0:0:
115,29,263709,2,0,B|152:48|189:52|189:52|229:29|282:25|282:25|313:43|372:42,1,251.999992309571,6|0,3:2|0:0,0:0:0:0:
434,147,264424,2,0,B|397:166|360:170|360:170|320:147|267:143|267:143|236:161|177:160,1,251.999992309571,6|0,3:2|0:0,0:0:0:0:
12,270,265138,2,0,B|53:256|67:192|67:192|138:107|40:35|40:35|-33:144|73:197|73:197|136:212|148:267,1,587.999982055665,6|0,3:2|0:0,0:0:0:0:
113,384,266566,2,0,B|144:340|234:329|234:329|293:367|347:351|347:351|293:368|234:320|234:320|234:241|294:221|294:221|343:202|349:154,1,587.999982055665,6|0,3:2|0:0,0:0:0:0:
179,156,267995,2,0,P|274:18|440:278,1,587.999982055665,6|0,3:2|0:0,0:0:0:0:
347,160,269434,5,12,0:0:0:0:
285,313,269612,1,0,3:0:0:0:
272,345,269701,1,0,3:0:0:0:
260,378,269790,1,0,3:0:0:0:
325,58,269969,5,0,3:0:0:0:
332,92,270058,1,0,3:0:0:0:
339,126,270147,1,0,3:0:0:0:
347,160,270236,1,0,3:0:0:0:
354,194,270326,1,0,3:0:0:0:
362,228,270415,1,0,3:0:0:0:
369,263,270505,2,0,L|374:286,1,21,4|0,3:2|0:0,0:0:0:0:
389,352,270845,5,2,3:2:0:0:
220,152,271022,1,2,0:0:0:0:
455,185,271200,1,2,3:2:0:0:
135,209,271377,1,2,0:0:0:0:
351,12,271555,1,6,3:2:0:0:
405,263,271734,1,2,0:0:0:0:
137,119,271914,1,2,3:2:0:0:
468,173,272093,1,2,0:0:0:0:
229,358,272273,6,0,P|226:300|228:245,1,112,6|0,3:2|0:0,0:0:0:0:
305,44,272632,1,2,3:2:0:0:
486,187,272811,2,2,P|430:189|374:188,1,112,2|2,3:2|3:2,3:2:0:0:
77,154,273171,2,0,L|190:140,2,112,2|10|2,3:2|0:0|3:2,0:0:0:0:
249,256,273710,1,0,3:0:0:0:
249,256,273889,1,0,3:0:0:0:
315,112,274069,6,6,P|315:57|307:0,1,112,0|0,0:0|0:0,3:2:0:0:
447,245,274428,2,0,P|447:190|455:133,1,112,2|0,2:0|3:0,0:0:0:0:
328,348,274787,1,4,3:2:0:0:
131,279,274967,6,0,L|8:268,1,112,2|4,3:2|3:2,0:0:0:0:
210,77,275326,1,2,3:0:0:0:
192,361,275506,1,2,0:0:0:0:
226,62,275686,1,2,3:0:0:0:
312,338,275865,2,0,L|435:327,1,112,2|0,0:0|3:0,0:0:0:0:
210,77,276225,1,2,3:2:0:0:
299,353,276400,1,2,0:0:0:0:
512,119,276576,5,6,3:2:0:0:
144,142,276754,1,2,3:2:0:0:
411,311,276933,2,0,L|420:196,1,112,0|2,3:2|0:0,0:0:0:0:
283,370,277290,1,2,3:2:0:0:
131,127,277468,1,2,3:2:0:0:
402,211,277647,1,6,0:0:0:0:
46,192,277826,1,2,0:0:0:0:
255,71,278004,6,0,P|267:129|251:193,1,112,6|0,3:2|0:0,0:0:0:0:
106,355,278361,1,2,3:2:0:0:
47,66,278540,2,0,L|60:193,1,112,2|0,3:2|0:0,0:0:0:0:
197,0,278897,1,2,3:2:0:0:
335,243,279076,1,10,0:0:0:0:
178,127,279254,1,2,0:0:0:0:
414,16,279433,1,4,3:2:0:0:
414,16,279611,1,0,0:0:0:0:
512,290,279790,6,0,P|466:317|409:311,1,112,6|0,3:2|0:0,0:0:0:0:
327,135,280147,2,0,P|281:108|224:114,1,112,2|0,3:2|3:0,0:0:0:0:
102,276,280504,2,0,P|56:303|-1:297,1,112,2|0,3:2|3:0,0:0:0:0:
125,33,280861,1,6,3:2:0:0:
194,222,281040,1,0,3:0:0:0:
211,275,281129,1,0,3:0:0:0:
229,328,281218,1,0,3:0:0:0:
496,218,281397,2,0,B|444:189|391:219|391:219|339:247|281:218,1,224,0|0,3:0|0:0,0:0:0:0:
475,329,281933,1,0,3:0:0:0:
323,121,282107,1,0,0:0:0:0:
129,362,282281,5,14,0:0:0:0:
241,65,282459,1,0,3:0:0:0:
236,384,282638,5,10,0:0:0:0:
124,87,282816,1,0,3:0:0:0:
304,318,282995,5,10,0:0:0:0:
330,1,283173,1,0,3:0:0:0:
103,283,283352,5,10,0:0:0:0:
425,345,283531,1,2,3:2:0:0:
141,376,283709,5,10,0:0:0:0:
492,290,283888,1,0,3:0:0:0:
169,214,284066,5,10,0:0:0:0:
508,370,284245,1,8,3:0:0:0:
327,83,284423,5,8,0:0:0:0:
231,353,284602,1,0,3:0:0:0:
232,34,284781,5,8,0:0:0:0:
339,343,284960,1,0,3:0:0:0:
309,2,285138,5,14,0:0:0:0:
4,87,285316,1,0,3:0:0:0:
342,92,285495,5,10,0:0:0:0:
19,98,285673,1,0,3:0:0:0:
383,172,285852,5,10,0:0:0:0:
37,110,286031,1,0,3:0:0:0:
131,353,286209,5,10,0:0:0:0:
249,26,286388,1,2,3:2:0:0:
283,384,286566,5,8,0:0:0:0:
262,40,286745,1,2,3:2:0:0:
213,344,286923,5,10,0:0:0:0:
277,56,287102,1,2,3:2:0:0:
369,380,287281,5,8,0:0:0:0:
293,73,287459,1,0,3:0:0:0:
211,363,287638,5,8,0:0:0:0:
307,91,287816,1,0,3:0:0:0:
54,123,287995,5,14,0:0:0:0:
405,187,288173,1,0,3:0:0:0:
123,287,288352,5,10,0:0:0:0:
466,243,288530,1,0,3:0:0:0:
38,216,288709,5,10,0:0:0:0:
375,267,288887,1,0,3:0:0:0:
148,133,289066,5,10,0:0:0:0:
364,370,289245,1,2,3:2:0:0:
289,124,289423,5,10,0:0:0:0:
73,361,289602,1,2,3:2:0:0:
211,33,289781,5,10,0:0:0:0:
278,344,289959,1,0,3:0:0:0:
287,37,290138,5,10,0:0:0:0:
186,371,290316,1,0,3:0:0:0:
132,27,290495,5,10,0:0:0:0:
290,358,290673,1,0,3:0:0:0:
15,189,290852,5,0,3:0:0:0:
70,186,290941,1,0,3:0:0:0:
117,157,291030,1,0,3:0:0:0:
164,127,291119,1,0,3:0:0:0:
219,119,291209,5,0,3:2:0:0:
301,377,291388,2,0,P|301:321|283:268,1,112,6|0,3:2|0:0,0:0:0:0:
447,316,291745,2,0,P|446:260|464:207,1,112,6|0,3:2|0:0,0:0:0:0:
365,70,292102,2,0,B|330:58|330:58|281:76,1,84,6|0,3:2|0:0,0:0:0:0:
192,110,293352,2,0,L|210:114,1,14
278,376,293709,5,8,3:2:0:0:
331,147,293888,1,8,3:2:0:0:
172,358,294066,1,8,3:2:0:0:
117,80,294245,1,8,3:2:0:0:
294,384,294423,1,8,3:2:0:0:
411,85,294602,1,8,3:2:0:0:
159,375,294781,1,8,3:2:0:0:
35,16,294959,1,8,3:2:0:0:
314,161,295138,6,0,L|238:171,1,70,4|0,3:2|0:0,0:0:0:0:
48,193,295495,1,0,0:0:0:0:
174,362,295673,2,0,L|173:327,1,35,0|0,3:0|0:0,0:0:0:0:
346,142,295852,2,0,L|180:163,1,140,8|0,0:0|0:0,0:0:0:0:
364,38,296388,1,0,0:0:0:0:
425,231,296566,6,0,L|383:240,1,35,0|0,3:0|0:0,0:0:0:0:
236,278,296745,1,8,3:0:0:0:
300,186,296923,1,0,0:0:0:0:
300,186,297281,1,8,0:0:0:0:
292,354,297459,1,0,0:0:0:0:
365,133,297638,1,0,0:0:0:0:
473,331,297816,1,0,0:0:0:0:
236,255,297995,6,0,P|308:275|375:253,1,140,4|0,3:2|0:0,0:0:0:0:
455,85,298531,2,0,L|460:140,1,35,0|0,3:0|0:0,0:0:0:0:
486,348,298709,2,0,P|414:328|347:350,1,140,8|0,0:0|0:0,0:0:0:0:
295,122,299245,1,0,0:0:0:0:
248,273,299423,2,0,P|236:313|232:357,1,70,0|8,3:0|0:0,0:0:0:0:
123,179,299781,2,0,P|132:217|137:262,1,70
281,138,300138,1,8,0:0:0:0:
122,86,300316,1,0,3:0:0:0:
246,53,300495,1,4,3:0:0:0:
174,20,300673,1,4,3:0:0:0:
213,194,300852,5,6,0:0:0:0:
367,24,301030,1,2,0:0:0:0:
290,153,301209,1,2,0:0:0:0:
140,63,301387,1,2,0:0:0:0:
216,21,301566,1,2,0:0:0:0:
214,107,301744,1,2,0:0:0:0:
366,112,301923,5,2,0:0:0:0:
138,148,302102,1,2,0:0:0:0:
290,66,302280,1,2,0:0:0:0:
212,193,302459,1,2,0:0:0:0:
286,238,302637,1,2,0:0:0:0:
290,153,302816,1,0,3:0:0:0:
290,153,302905,1,0,3:0:0:0:
290,153,302994,5,6,3:2:0:0:
59,362,303173,1,2,3:2:0:0:
62,102,303352,1,2,3:2:0:0:
283,324,303530,1,2,3:2:0:0:
61,189,303709,1,2,3:2:0:0:
208,366,303887,1,2,3:2:0:0:
212,193,304066,5,2,3:2:0:0:
357,369,304244,1,2,3:2:0:0:
292,67,304423,1,2,3:2:0:0:
134,321,304602,1,2,3:2:0:0:
66,18,304780,1,2,3:0:0:0:
440,157,304959,5,6,0:0:0:0:
