osu file format v14

[General]
AudioFilename: audio.mp3
AudioLeadIn: 0
PreviewTime: -1
Countdown: 1
SampleSet: Soft
StackLeniency: 0.7
Mode: 0
LetterboxInBreaks: 0
WidescreenStoryboard: 1

[Editor]
Bookmarks: 6693,7764,8836,14538,19525,30792,36685,73113,94542
DistanceSpacing: 3.3
BeatDivisor: 4
GridSize: 8
TimelineZoom: 1.8

[Metadata]
Title:I swear (TV Size)
TitleUnicode:I swear (TV Size)
Artist:sweet ARMS
ArtistUnicode:sweet ARMS
Creator:Blitzifyyy
Version:Mokobe's Tragic Love Insane
Source:デート・ア・ライブⅢ
Tags:date a live 3 III opening op Iori Nomizu 野水伊織 Misuzu Togashi 富樫美鈴 Kaori Sadohara 佐土原かおり Misato 味里 japanese anime jpop j-pop j pop mocaotic
BeatmapID:1988556
BeatmapSetID:948732

[Difficulty]
HPDrainRate:4.6
CircleSize:3.8
OverallDifficulty:7.4
ApproachRate:8.7
SliderMultiplier:2.6
SliderTickRate:1

[Events]
//Background and Video events
Video,0,"op.avi"
0,0,"692699.jpg",0,0
//Break Periods
//Storyboard Layer 0 (Background)
//Storyboard Layer 1 (Fail)
//Storyboard Layer 2 (Pass)
//Storyboard Layer 3 (Foreground)
//Storyboard Sound Samples

[TimingPoints]
265,357.142857142857,3,2,1,50,1,0
265,-133.333333333333,3,2,1,50,0,0
8836,-117.647058823529,3,2,1,50,0,0
13122,354.191263282172,4,2,1,55,1,0
13122,-250,4,2,1,55,0,0
13476,-117.647058823529,4,2,1,55,0,0
14184,-166.666666666667,4,2,1,55,0,0
14538,-100,4,2,1,55,0,0
15954,357.142857142857,4,2,1,55,1,0
18632,-166.666666666667,4,2,1,55,0,0
19525,-125,4,2,1,55,0,0
20239,-100,4,2,1,60,0,0
25061,405.405405405405,4,2,1,60,1,0
25264,352.941176470588,4,2,1,50,1,0
25264,-83.3333333333333,4,2,1,50,0,0
25881,-200,4,2,1,5,0,0
25971,357.142857142857,4,2,1,45,1,0
25971,-133.333333333333,4,2,1,45,0,0
26328,-117.647058823529,4,2,1,45,0,0
26685,-105.263157894737,4,2,1,45,0,0
29363,-400.000000000003,4,2,1,45,0,0
31685,-105.263157894737,4,2,1,45,0,0
35078,-454.545454545455,4,2,1,45,0,0
37399,-133.333333333333,4,2,1,50,0,0
43649,-105.263157894737,4,2,1,50,0,0
44006,-133.333333333333,4,2,1,50,0,0
44185,-200,4,2,1,50,0,0
46506,-333.333333333333,4,2,1,50,0,0
48828,-133.333333333333,4,2,1,55,0,0
60256,-166.666666666667,4,2,1,60,0,0
61685,-100,4,2,1,65,0,0
62578,-100,4,2,1,50,0,0
62756,-66.6666666666667,4,2,1,60,0,0
63113,-86.9565217391304,4,3,1,90,0,1
85970,-86.9565217391304,4,2,1,60,0,0
95792,-256.410256410256,4,2,1,60,0,0
98828,-200,4,2,1,20,0,0

[HitObjects]
43,58,265,5,0,0:0:0:0:
213,77,443,1,8,0:0:0:0:
13,130,622,5,0,0:0:0:0:
149,114,800,1,8,0:0:0:0:
76,180,979,5,0,0:0:0:0:
184,192,1157,1,8,0:0:0:0:
290,208,1336,2,0,B|272:196|272:196|184:208,1,97.50000371933,0|8,0:0|0:0,0:0:0:0:
68,303,1693,2,0,B|85:291|85:291|174:303,1,97.50000371933,0|8,0:0|0:0,0:0:0:0:
266,333,2050,2,0,L|144:316,1,97.50000371933
1,226,2407,5,0,0:0:0:0:
171,245,2585,1,8,0:0:0:0:
65,189,2764,5,0,0:0:0:0:
201,173,2942,1,8,0:0:0:0:
30,111,3121,5,0,0:0:0:0:
138,123,3300,1,8,0:0:0:0:
236,139,3479,2,0,B|252:167|252:167|331:181,1,97.50000371933,0|8,0:0|0:0,0:0:0:0:
462,218,3836,2,0,B|446:246|446:246|381:257,1,97.50000371933,0|8,0:0|0:0,0:0:0:0:
274,278,4193,2,0,L|417:280,1,97.50000371933
418,162,4550,5,0,0:0:0:0:
380,268,4729,1,8,0:0:0:0:
294,95,4907,5,0,0:0:0:0:
332,201,5086,1,8,0:0:0:0:
234,34,5264,5,0,0:0:0:0:
196,140,5443,1,8,0:0:0:0:
161,240,5622,2,0,B|182:266|182:266|251:267,1,97.50000371933,0|8,0:0|0:0,0:0:0:0:
264,368,5979,2,0,B|243:342|243:342|174:341,1,97.50000371933,0|8,0:0|0:0,0:0:0:0:
96,339,6336,2,0,B|73:292|73:292|87:216,1,97.50000371933
213,207,6693,5,0,0:0:0:0:
135,184,6872,1,8,0:0:0:0:
81,247,7050,1,2,0:0:0:0:
271,257,7229,5,0,0:0:0:0:
294,179,7408,1,2,0:0:0:0:
231,125,7586,1,0,0:0:0:0:
83,116,7764,5,0,0:0:0:0:
197,46,7943,1,0,0:0:0:0:
103,256,8122,5,2,0:0:0:0:
177,137,8300,1,8,0:0:0:0:
189,353,8479,5,2,0:0:0:0:
109,225,8658,1,0,0:0:0:0:
189,353,8836,6,0,B|221:329|221:329|329:349,1,110.50000210762,0|8,0:0|0:0,0:0:0:0:
450,289,9193,2,0,B|418:265|418:265|310:285,1,110.50000210762,0|8,0:0|0:0,0:0:0:0:
383,139,9550,2,0,P|410:199|388:253,1,110.50000210762,0|8,0:0|0:0,0:0:0:0:
260,242,9907,5,0,0:0:0:0:
398,239,10086,1,8,0:0:0:0:
158,179,10264,5,0,0:0:0:0:
323,182,10443,1,8,0:0:0:0:
48,117,10622,5,0,0:0:0:0:
246,120,10801,1,8,0:0:0:0:
37,99,10979,6,0,B|69:76|69:76|171:82,1,110.50000210762,0|8,0:0|0:0,0:0:0:0:
273,217,11336,2,0,B|241:194|241:194|139:200,1,110.50000210762,0|8,0:0|0:0,0:0:0:0:
35,204,11693,2,0,P|23:134|48:83,1,110.50000210762,0|8,0:0|0:0,0:0:0:0:
214,83,12050,5,0,0:0:0:0:
36,98,12229,1,8,0:0:0:0:
323,63,12407,5,0,0:0:0:0:
99,45,12586,1,8,0:0:0:0:
250,239,12764,5,0,0:0:0:0:
232,31,12943,1,8,0:0:0:0:
65,171,13122,5,8,0:0:0:0:
90,168,13210,1,8,0:0:0:0:
116,165,13299,1,2,0:0:0:0:
142,162,13387,1,8,0:0:0:0:
171,157,13476,2,0,L|262:144,1,55.2500010538101,0|8,0:0|0:0,0:0:0:0:
282,300,13653,2,8,L|191:287,1,55.2500010538101
293,208,13830,2,8,L|384:195,1,55.2500010538101
417,343,14007,2,8,L|326:330,1,55.2500010538101
320,330,14184,5,8,0:0:0:0:
281,322,14273,1,8,0:0:0:0:
243,315,14361,1,2,0:0:0:0:
204,309,14449,1,8,0:0:0:0:
166,302,14538,6,0,P|125:224|247:136,1,260,4|0,0:0|0:0,0:0:0:0:
153,20,15247,2,4,B|123:67|123:67|229:245,1,260,4|0,0:0|0:0,0:0:0:0:
30,217,15954,2,12,B|166:225|102:98|271:111,1,260,12|8,0:0|0:0,0:0:0:0:
331,108,16489,1,0,0:0:0:0:
387,160,16668,2,0,P|488:168|534:143,1,130
441,313,17025,2,0,B|416:262|416:262|443:154,1,130
452,115,17382,6,12,B|383:97|383:97|300:345|300:345|233:320|233:320|301:107|301:107|232:88|232:88|172:254,1,845,12|8,0:0|0:0,0:0:0:0:
152,267,18632,1,0,0:0:0:0:
116,250,18721,1,0,0:0:0:0:
81,233,18811,2,4,B|107:163|107:163|105:150|105:150|113:146|113:146|138:87|138:87|214:56|214:56|187:112,1,272.999991668701,4|0,0:0|0:0,0:0:0:0:
204,164,19525,2,4,B|281:138|281:138|333:153|333:153|409:125,1,208,4|0,0:0|0:0,0:0:0:0:
343,57,20239,5,0,0:0:0:0:
252,27,20418,1,0,0:0:0:0:
269,223,20596,1,8,0:0:0:0:
195,160,20775,1,0,0:0:0:0:
286,130,20954,1,0,0:0:0:0:
269,326,21132,5,8,0:0:0:0:
210,261,21311,1,0,0:0:0:0:
119,291,21490,1,0,0:0:0:0:
136,95,21668,6,0,B|117:129|117:129|120:249,1,130
30,312,22025,2,0,B|64:293|64:293|184:296,1,130,0|8,0:0|0:0,0:0:0:0:
327,234,22382,2,0,B|293:215|293:215|173:218,1,130,0|8,0:0|0:0,0:0:0:0:
7,188,22739,1,0,0:0:0:0:
108,166,22918,1,0,0:0:0:0:
200,211,23096,6,0,B|215:247|215:247|213:361,1,130
337,294,23453,2,0,P|238:280|204:294,1,130,8|0,0:0|0:0,0:0:0:0:
308,129,23811,2,0,L|297:269,1,130,0|8,0:0|0:0,0:0:0:0:
100,299,24168,1,0,0:0:0:0:
161,199,24346,1,0,0:0:0:0:
161,199,24436,1,0,0:0:0:0:
161,199,24525,2,0,P|240:184|301:223,1,130
429,123,24882,2,0,P|350:108|289:147,1,130
345,193,25264,6,0,B|384:213|422:218|422:218|339:209|280:237|280:237|223:231|185:189|185:189|138:227|49:217|49:217|123:234|147:268,1,545.999983337403,4|0,0:0|0:0,0:0:0:0:
171,293,25969,6,0,P|226:302|257:295,1,65
322,255,26328,2,0,P|240:279|196:267,1,110.50000210762
128,226,26685,2,0,P|196:252|252:240,1,123.499996702194
103,151,27042,2,0,B|45:179|45:179|41:393,1,246.999993404389,8|0,0:0|0:0,0:0:0:0:
150,297,27935,1,0,0:0:0:0:
225,342,28113,2,0,L|376:341,1,123.499996702194
476,256,28471,2,0,L|325:255,1,123.499996702194
311,108,28828,6,0,B|312:202|312:202|347:237|347:237|349:377,1,246.999993404389
264,342,29363,2,0,B|109:345|207:231|44:240,1,260,8|0,0:0|0:0,0:0:0:0:
36,152,30971,1,0,0:0:0:0:
104,82,31149,1,0,0:0:0:0:
44,239,31328,1,0,0:0:0:0:
104,82,31506,1,0,0:0:0:0:
36,152,31685,6,0,B|244:192|244:192|268:226,1,246.999993404389,8|0,0:0|0:0,0:0:0:0:
189,86,32220,2,0,P|117:155|192:268,1,246.999993404389,8|0,0:0|0:0,0:0:0:0:
346,269,32756,2,8,B|412:278|445:215|445:215|227:157|309:383|123:335,1,493.999986808777,8|0,0:0|0:0,0:0:0:0:
18,274,33649,1,0,0:0:0:0:
47,158,33828,1,0,0:0:0:0:
135,337,34006,1,0,0:0:0:0:
106,221,34185,1,0,0:0:0:0:
253,353,34363,1,0,0:0:0:0:
196,253,34542,6,0,B|325:192|316:328|451:243,1,246.999993404389,8|0,0:0|0:0,0:0:0:0:
377,359,35078,2,8,B|374:204|488:302|481:136,1,257.400007855225,8|0,0:0|0:0,0:0:0:0:
46,60,37399,6,0,P|115:62|142:69,1,97.50000371933
216,97,37756,1,8,0:0:0:0:
288,138,37935,1,0,0:0:0:0:
360,153,38113,6,0,P|291:155|264:162,1,97.50000371933
195,198,38470,1,8,0:0:0:0:
118,174,38649,1,0,0:0:0:0:
56,222,38828,2,0,L|31:358,2,97.50000371933,0|0|8,0:0|0:0|0:0,0:0:0:0:
121,157,39363,1,0,0:0:0:0:
213,160,39542,1,0,0:0:0:0:
56,222,39720,1,0,0:0:0:0:
134,144,39899,1,8,0:0:0:0:
244,147,40078,1,0,0:0:0:0:
316,82,40256,6,0,B|362:45|362:45|528:46,1,195.00000743866,0|8,0:0|0:0,0:0:0:0:
506,122,40792,2,0,B|385:121|385:121|326:172,1,195.00000743866
275,236,41328,1,8,0:0:0:0:
335,285,41506,2,0,L|128:251,1,195.00000743866
125,173,42042,1,8,0:0:0:0:
164,100,42220,2,0,P|201:194|102:254,1,195.00000743866
53,287,42756,2,0,P|126:280|159:293,1,97.50000371933
228,313,43113,6,0,P|298:357|255:296,1,195.00000743866,8|0,0:0|0:0,0:0:0:0:
299,227,43649,2,0,B|336:242|361:273|361:273|361:228|412:224|412:224|365:199|351:142,1,246.999993404389,2|0,0:0|0:0,0:0:0:0:
430,93,44185,2,0,P|500:137|457:76,1,195.00000743866,8|0,0:0|0:0,0:0:0:0:
134,56,45078,5,0,0:0:0:0:
226,88,45256,2,0,L|311:85,1,65
384,181,45613,2,0,L|299:178,1,65
111,246,45970,2,0,L|258:251,1,130
109,94,46506,6,0,P|46:132|118:245,1,233.999992858887,8|0,0:0|0:0,0:0:0:0:
250,177,47935,1,8,0:0:0:0:
250,177,48024,1,8,0:0:0:0:
250,177,48113,1,8,0:0:0:0:
379,270,48292,1,0,0:0:0:0:
342,179,48470,1,0,0:0:0:0:
243,309,48649,1,0,0:0:0:0:
74,327,48828,6,0,B|115:293|115:293|267:297,1,195.00000743866,8|0,0:0|0:0,0:0:0:0:
297,217,49363,1,0,0:0:0:0:
297,217,49542,2,0,P|284:276|222:301,1,97.50000371933,8|0,0:0|0:0,0:0:0:0:
223,142,49899,2,0,B|248:121|248:121|351:105,1,97.50000371933
419,100,50256,1,0,0:0:0:0:
419,100,50435,1,8,0:0:0:0:
493,149,50613,1,0,0:0:0:0:
460,237,50792,1,0,0:0:0:0:
368,201,50970,5,8,0:0:0:0:
493,149,51149,1,0,0:0:0:0:
503,291,51328,1,8,0:0:0:0:
303,325,51506,6,8,B|360:284|360:284|503:284,1,195.00000743866,8|0,0:0|0:0,0:0:0:0:
401,247,52042,1,0,0:0:0:0:
312,222,52220,2,0,B|232:278|232:278|115:233,1,195.00000743866,8|0,0:0|0:0,0:0:0:0:
74,188,52756,1,0,0:0:0:0:
96,115,52935,2,0,L|302:99,1,195.00000743866,8|0,0:0|0:0,0:0:0:0:
408,88,53470,2,0,P|435:134|418:194,1,97.50000371933
327,226,53828,2,0,P|300:272|317:332,1,97.50000371933
494,313,54185,6,0,B|438:290|438:290|290:316,1,195.00000743866,8|0,0:0|0:0,0:0:0:0:
191,274,54720,1,0,0:0:0:0:
191,274,54899,2,0,B|247:251|247:251|395:277,1,195.00000743866,8|0,0:0|0:0,0:0:0:0:
452,222,55435,1,0,0:0:0:0:
452,222,55613,2,0,P|387:190|279:264,1,195.00000743866,8|0,0:0|0:0,0:0:0:0:
231,318,56149,1,0,0:0:0:0:
150,295,56328,2,0,P|80:299|47:348,1,97.50000371933
49,181,56863,5,2,0:0:0:0:
170,152,57042,1,2,0:0:0:0:
365,203,57220,2,0,B|317:181|317:181|154:181,2,195.00000743866
424,254,58292,2,0,B|439:294|439:294|437:78|437:78|285:110|285:110|361:141,1,487.50001859665,0|4,0:0|0:0,0:0:0:0:
252,41,59542,2,0,P|210:121|278:187,1,195.00000743866,0|4,0:0|0:0,0:0:0:0:
350,226,60256,2,0,B|282:183|282:183|32:207|32:207|187:216|187:216,1,467.999985717774
174,302,61506,5,8,0:0:0:0:
370,236,61685,1,8,0:0:0:0:
65,260,61863,5,8,0:0:0:0:
283,304,62042,1,8,0:0:0:0:
219,110,62220,1,6,0:0:0:0:
103,91,63113,5,8,0:0:0:0:
275,98,63292,1,0,0:0:0:0:
45,155,63470,5,0,0:0:0:0:
217,148,63649,1,0,0:0:0:0:
61,313,63828,6,0,B|48:277|48:277|63:124,1,149.500002851486,8|0,0:0|0:0,0:0:0:0:
211,148,64185,2,0,B|224:184|224:184|209:337,1,149.500002851486
67,266,64542,2,8,B|262:250|131:379|387:343,1,299.000005702973
419,299,65078,1,2,0:0:0:0:
320,134,65256,2,0,P|289:203|324:287,1,149.500002851486
451,209,65613,2,0,P|482:140|447:56,1,149.500002851486
174,118,66328,6,8,B|225:82|225:82|477:71,1,299.000005702973,8|12,0:0|0:0,0:0:0:0:
503,186,67042,2,0,L|319:188,1,149.500002851486
164,148,67399,5,8,0:0:0:0:
349,150,67578,1,0,0:0:0:0:
88,183,67756,5,0,0:0:0:0:
273,181,67935,1,0,0:0:0:0:
136,296,68113,5,8,0:0:0:0:
165,122,68292,1,0,0:0:0:0:
183,308,68470,5,8,0:0:0:0:
118,101,68649,1,0,0:0:0:0:
280,122,68828,6,0,B|248:85|248:85|92:104,1,149.500002851486
62,232,69185,2,0,B|94:195|94:195|250:214,1,149.500002851486
374,215,69542,1,8,0:0:0:0:
285,125,69720,1,0,0:0:0:0:
193,207,69899,1,0,0:0:0:0:
283,301,70078,1,0,0:0:0:0:
283,301,70256,6,8,B|102:277|224:430|-46:375,1,299.000005702973
26,297,70792,1,4,0:0:0:0:
58,216,71149,1,0,0:0:0:0:
58,216,71328,6,0,B|89:191|89:191|241:180,1,149.500002851486
384,134,71685,6,0,B|353:109|353:109|201:98,1,149.500002851486,8|0,0:0|0:0,0:0:0:0:
198,183,72042,2,0,L|213:353,1,149.500002851486
289,380,72399,2,0,L|304:210,1,149.500002851486
345,162,72756,2,0,B|399:152|399:152|443:168|443:168|527:156,1,149.500002851486
148,69,73113,5,8,0:0:0:0:
198,262,73292,1,0,0:0:0:0:
277,7,73470,5,0,0:0:0:0:
227,200,73649,1,0,0:0:0:0:
391,108,73828,1,8,0:0:0:0:
391,108,73917,1,0,0:0:0:0:
391,108,74006,2,0,B|377:104|377:104|272:121,1,74.7500014257431
227,200,74185,2,0,B|240:196|240:196|346:213,1,74.7500014257431,8|0,0:0|0:0,0:0:0:0:
391,289,74363,2,0,B|377:285|377:285|272:302,1,74.7500014257431
169,237,74542,5,0,0:0:0:0:
100,311,74720,1,0,0:0:0:0:
36,190,74899,5,8,0:0:0:0:
118,278,75077,1,0,0:0:0:0:
194,116,75256,5,0,0:0:0:0:
91,211,75434,1,0,0:0:0:0:
36,39,75613,5,8,0:0:0:0:
159,153,75791,1,0,0:0:0:0:
358,166,75970,6,0,B|315:143|315:143|45:174,1,299.000005702973
21,256,76506,1,0,0:0:0:0:
116,274,76685,2,0,L|310:254,1,149.500002851486
473,338,77042,2,0,L|279:318,1,149.500002851486
264,258,77399,2,0,P|232:183|290:78,1,149.500002851486
392,114,77756,2,8,B|214:160|284:19|80:85,1,299.000005702973,8|4,0:0|0:0,0:0:0:0:
61,160,78649,6,0,B|66:366|66:366|82:267,1,299.000005702973
301,170,79185,5,0,0:0:0:0:
143,83,79363,1,0,0:0:0:0:
71,207,79542,5,8,0:0:0:0:
229,120,79720,1,0,0:0:0:0:
31,101,79899,5,0,0:0:0:0:
179,231,80078,1,8,0:0:0:0:
334,273,80256,6,0,B|294:235|294:235|158:245,1,149.500002851486
24,204,80613,2,0,B|64:166|64:166|200:176,1,149.500002851486
219,67,80970,2,0,P|156:102|162:178,1,149.500002851486
227,228,81328,2,0,B|192:201|192:201|55:211,1,149.500002851486
37,288,81685,2,8,B|225:267|83:383|356:361,1,299.000005702973,8|4,0:0|0:0,0:0:0:0:
401,325,82220,1,0,0:0:0:0:
230,158,82578,5,0,0:0:0:0:
108,166,82756,1,0,0:0:0:0:
323,196,82935,1,0,0:0:0:0:
425,108,83470,2,0,B|474:120|474:120|400:390,1,299.000005702973
333,349,84185,2,0,B|284:337|284:337|318:206,1,149.500002851486
170,261,84542,2,0,B|213:229|213:229|348:245,1,149.500002851486
321,51,84899,5,0,0:0:0:0:
122,107,85078,1,0,0:0:0:0:
312,273,85256,1,8,0:0:0:0:
344,64,85435,5,0,0:0:0:0:
138,85,85614,1,0,0:0:0:0:
297,281,85792,1,0,0:0:0:0:
25,212,85970,6,0,L|222:200,1,149.500002851486,8|0,0:0|0:0,0:0:0:0:
446,290,86328,6,0,L|249:278,1,149.500002851486,2|0,0:0|0:0,0:0:0:0:
221,115,86685,5,0,0:0:0:0:
296,280,86863,1,0,0:0:0:0:
396,115,87042,5,0,0:0:0:0:
197,205,87220,1,0,0:0:0:0:
393,315,87399,5,8,0:0:0:0:
285,77,87577,1,0,0:0:0:0:
131,212,87756,6,0,B|172:177|172:177|316:183,1,149.500002851486,2|0,0:0|0:0,0:0:0:0:
376,297,88113,2,0,B|335:262|335:262|239:265,1,149.500002851486
133,377,88470,6,0,B|174:342|174:342|318:348,1,149.500002851486
406,239,88828,5,8,0:0:0:0:
269,345,89006,1,0,0:0:0:0:
300,138,89185,5,2,0:0:0:0:
427,302,89363,1,0,0:0:0:0:
468,39,89542,5,0,0:0:0:0:
315,235,89720,1,0,0:0:0:0:
177,227,89899,6,0,B|207:198|207:198|347:202,1,149.500002851486
222,44,90256,2,0,P|191:120|219:175,1,149.500002851486,8|0,0:0|0:0,0:0:0:0:
35,99,90613,2,0,L|204:85,1,149.500002851486,2|0,0:0|0:0,0:0:0:0:
215,191,90970,2,0,L|46:177,1,149.500002851486,8|0,0:0|0:0,0:0:0:0:
36,274,91328,2,0,L|205:260,1,149.500002851486,2|0,0:0|0:0,0:0:0:0:
373,163,91685,5,8,0:0:0:0:
246,330,91863,1,0,0:0:0:0:
308,119,92042,5,2,0:0:0:0:
318,349,92220,1,0,0:0:0:0:
229,122,92399,5,0,0:0:0:0:
400,308,92577,1,0,0:0:0:0:
160,183,92756,5,0,0:0:0:0:
435,218,92934,1,0,0:0:0:0:
134,272,93113,6,0,B|188:256|188:256|321:261,1,149.500002851486,8|0,0:0|0:0,0:0:0:0:
206,103,93470,2,0,P|176:169|230:256,1,149.500002851486,2|0,0:0|0:0,0:0:0:0:
366,49,93828,5,0,0:0:0:0:
206,103,94006,1,0,0:0:0:0:
347,205,94185,1,0,0:0:0:0:
113,245,94542,5,2,0:0:0:0:
113,245,94631,1,2,0:0:0:0:
113,245,94720,1,2,0:0:0:0:
302,139,94899,1,0,0:0:0:0:
259,328,95078,1,0,0:0:0:0:
151,93,95435,1,8,0:0:0:0:
249,177,95792,6,4,B|330:173|330:173|223:309|223:309|131:111|131:111|406:96|406:96|274:88,1,861.900028933412
