osu file format v14

[General]
AudioFilename: audio.mp3
AudioLeadIn: 0
PreviewTime: 86661
Countdown: 1
SampleSet: Soft
StackLeniency: 0.7
Mode: 0
LetterboxInBreaks: 0
WidescreenStoryboard: 0

[Editor]
Bookmarks: 1472,2008,3079,4151,5222,6294,7365,8436,9508,10579,11651,12722,14151,14508,14865,92186
DistanceSpacing: 0.3
BeatDivisor: 4
GridSize: 8
TimelineZoom: 2.2

[Metadata]
Title:I swear
TitleUnicode:I swear
Artist:sweet ARMS
ArtistUnicode:sweet ARMS
Creator:Breezy033
Version:Hidzuke
Source:デート・ア・ライブⅢ
Tags:Date a live Season 3 Airing Anime op opening 3
BeatmapID:1897736
BeatmapSetID:909430

[Difficulty]
HPDrainRate:4
CircleSize:4.2
OverallDifficulty:8
ApproachRate:9.7
SliderMultiplier:1.8
SliderTickRate:1

[Events]
//Background and Video events
0,0,"306799.jpg",0,0
//Break Periods
//Storyboard Layer 0 (Background)
//Storyboard Layer 1 (Fail)
//Storyboard Layer 2 (Pass)
//Storyboard Layer 3 (Foreground)
//Storyboard Sound Samples

[TimingPoints]
947,357.142857142857,4,2,1,45,1,0
947,-90.9090909090909,4,2,1,45,0,0
2018,-111.111111111111,4,2,1,45,0,0
3089,-76.9230769230769,4,2,1,45,0,0
4161,-90.9090909090909,4,2,1,45,0,0
5232,-71.4285714285714,4,2,1,45,0,0
6304,-76.9230769230769,4,2,1,45,0,0
7375,-66.6666666666667,4,2,1,45,0,0
8446,-62.5,4,2,1,45,0,0
10589,-76.9230769230769,4,2,1,45,0,0
11661,-66.6666666666667,4,2,1,45,0,0
12732,-71.4285714285714,4,2,1,45,0,0
15232,-100,4,2,1,45,0,0
60946,-76.9230769230769,4,2,1,45,0,0
63804,-100,4,2,1,65,0,1
74875,-100,4,2,1,65,0,0
75232,-100,4,2,1,65,0,1
86304,-100,4,2,1,65,0,0
86661,-100,4,2,1,80,0,1
95232,-100,4,2,1,80,0,0

[Colours]
Combo1 : 255,128,0
Combo2 : 255,0,0
Combo3 : 128,0,128
Combo4 : 128,255,128

[HitObjects]
144,355,947,6,0,L|124:296,1,45,6|0,0:0|0:0,0:0:0:0:
213,238,1125,2,0,L|202:293,1,49.5000015106202,2|0,0:0|0:0,0:0:0:0:
109,247,1304,2,0,L|91:189,1,49.5000015106202,2|0,0:0|0:0,0:0:0:0:
235,123,1482,2,0,L|223:178,1,49.5000015106202,2|0,0:0|0:0,0:0:0:0:
77,134,1661,2,0,L|59:75,1,49.5000015106202,2|0,0:0|0:0,0:0:0:0:
261,10,1839,2,0,L|248:66,1,49.5000015106202,2|0,0:0|0:0,0:0:0:0:
159,60,2018,6,0,L|186:131,1,40.4999987640381,6|0,0:0|0:0,0:0:0:0:
340,120,2196,2,0,L|354:80,1,40.4999987640381,2|0,0:0|0:0,0:0:0:0:
199,162,2375,2,0,L|226:234,1,40.4999987640381,2|0,0:0|0:0,0:0:0:0:
307,225,2554,2,0,L|321:187,1,40.4999987640381,2|0,0:0|0:0,0:0:0:0:
240,269,2732,2,0,L|267:341,1,40.4999987640381,2|0,0:0|0:0,0:0:0:0:
322,351,2911,2,0,L|336:313,1,40.4999987640381,2|0,0:0|0:0,0:0:0:0:
46,133,3089,6,0,L|126:102,1,58.4999973220826,6|0,0:0|0:0,0:0:0:0:
197,189,3268,2,0,L|117:158,1,58.4999973220826,2|0,0:0|0:0,0:0:0:0:
166,93,3446,2,0,L|246:62,1,58.4999973220826,2|0,0:0|0:0,0:0:0:0:
318,233,3625,2,0,L|238:202,1,58.4999973220826,2|0,0:0|0:0,0:0:0:0:
288,55,3804,2,0,L|368:24,1,58.4999973220826,2|0,0:0|0:0,0:0:0:0:
439,273,3982,2,0,L|359:242,1,58.4999973220826,2|0,0:0|0:0,0:0:0:0:
372,136,4161,6,0,L|317:152,1,49.5000015106202,6|0,0:0|0:0,0:0:0:0:
274,333,4339,2,0,L|329:349,1,49.5000015106202,2|0,0:0|0:0,0:0:0:0:
257,168,4518,2,0,L|202:184,1,49.5000015106202,2|0,0:0|0:0,0:0:0:0:
157,304,4696,2,0,L|212:320,1,49.5000015106202,2|0,0:0|0:0,0:0:0:0:
143,198,4875,2,0,L|88:214,1,49.5000015106202,2|0,0:0|0:0,0:0:0:0:
41,274,5054,2,0,L|96:290,1,49.5000015106202,2|0,0:0|0:0,0:0:0:0:
371,362,5232,6,0,B|382:323|382:323|400:298,1,62.9999980773926,6|0,0:0|0:0,0:0:0:0:
286,252,5411,2,0,B|299:270|299:270|310:309,1,62.9999980773926,2|0,0:0|0:0,0:0:0:0:
403,235,5589,2,0,B|414:196|414:196|432:171,1,62.9999980773926,2|0,0:0|0:0,0:0:0:0:
246,127,5768,2,0,B|259:145|259:145|270:184,1,62.9999980773926,2|0,0:0|0:0,0:0:0:0:
419,107,5946,2,0,B|430:68|430:68|448:43,1,62.9999980773926,2|0,0:0|0:0,0:0:0:0:
215,0,6125,2,0,B|228:18|228:18|239:57,1,62.9999980773926,2|0,0:0|0:0,0:0:0:0:
159,203,6304,6,0,B|130:173|130:173|108:163,1,58.4999973220826,6|0,0:0|0:0,0:0:0:0:
306,9,6483,2,0,B|302:31|302:31|314:82,1,58.4999973220826,2|0,0:0|0:0,0:0:0:0:
261,293,6661,2,0,B|232:263|232:263|210:252,1,58.4999973220826,2|0,0:0|0:0,0:0:0:0:
354,127,6840,2,0,B|350:149|350:149|358:187,1,58.4999973220826,2|0,0:0|0:0,0:0:0:0:
360,384,7018,2,0,B|331:354|331:354|309:343,1,58.4999973220826,2|0,0:0|0:0,0:0:0:0:
405,244,7197,2,0,B|401:266|401:266|409:310,1,58.4999973220826,2|0,0:0|0:0,0:0:0:0:
360,101,7375,6,0,B|398:123|398:123|468:138,1,67.5000025749208,6|0,0:0|0:0,0:0:0:0:
346,188,7554,2,0,B|308:210|308:210|238:225,1,67.5000025749208,2|0,0:0|0:0,0:0:0:0:
195,73,7732,2,0,B|233:95|233:95|303:110,1,67.5000025749208,2|0,0:0|0:0,0:0:0:0:
209,209,7911,2,0,B|171:231|171:231|101:246,1,67.5000025749208,2|0,0:0|0:0,0:0:0:0:
61,30,8089,2,0,B|99:52|99:52|169:67,1,67.5000025749208,2|0,0:0|0:0,0:0:0:0:
71,238,8268,2,0,B|33:260|33:260|-37:275,1,67.5000025749208,2|0,0:0|0:0,0:0:0:0:
249,166,8446,6,0,P|242:118|230:85,1,72,6|0,0:0|0:0,0:0:0:0:
354,184,8625,2,0,P|343:218|339:254,1,72
203,55,8804,2,0,P|192:89|188:125,1,72,6|0,0:0|0:0,0:0:0:0:
389,297,8982,2,0,P|382:249|370:216,1,72,2|0,0:0|0:0,0:0:0:0:
159,173,9161,2,0,P|152:125|140:92,1,72,6|0,0:0|0:0,0:0:0:0:
436,187,9339,2,0,P|425:221|421:257,1,72,2|0,0:0|0:0,0:0:0:0:
52,119,9518,6,0,P|62:155|87:199,1,58.4999973220826,4|0,0:0|0:0,0:0:0:0:
235,79,9696,2,0,P|246:52|253:23,1,58.4999973220826,2|0,0:0|0:0,0:0:0:0:
114,233,9875,2,0,P|132:265|168:301,1,58.4999973220826,2|0,0:0|0:0,0:0:0:0:
239,212,10054,2,0,P|243:183|242:153,1,58.4999973220826,2|0,0:0|0:0,0:0:0:0:
193,331,10232,2,0,P|219:357|263:382,1,58.4999973220826,2|0,0:0|0:0,0:0:0:0:
306,325,10411,2,0,P|302:295|294:267,1,58.4999973220826,2|0,0:0|0:0,0:0:0:0:
479,302,10589,6,0,P|467:329|453:354,1,58.4999973220826,6|0,0:0|0:0,0:0:0:0:
387,299,10768,2,0,P|378:270|376:241,1,58.4999973220826,2|0,0:0|0:0,0:0:0:0:
481,169,10946,2,0,P|477:198|469:226,1,58.4999973220826,2|0,0:0|0:0,0:0:0:0:
328,186,11125,2,0,P|320:157|317:128,1,58.4999973220826,2|0,0:0|0:0,0:0:0:0:
475,40,11304,2,0,P|479:68|479:98,1,58.4999973220826,2|0,0:0|0:0,0:0:0:0:
291,65,11482,2,0,P|276:39|266:12,1,58.4999973220826,2|0,0:0|0:0,0:0:0:0:
126,314,11661,6,0,P|158:304|188:289,1,67.5000025749208,6|0,0:0|0:0,0:0:0:0:
117,87,11839,2,0,P|84:76|54:62,1,67.5000025749208,2|0,0:0|0:0,0:0:0:0:
257,270,12018,2,0,P|289:260|319:245,1,67.5000025749208,2|0,0:0|0:0,0:0:0:0:
252,102,12196,2,0,P|219:91|189:77,1,67.5000025749208,2|0,0:0|0:0,0:0:0:0:
368,206,12375,2,0,P|400:196|430:181,1,67.5000025749208,2|0,0:0|0:0,0:0:0:0:
388,110,12554,2,0,P|355:99|325:85,1,67.5000025749208,2|0,0:0|0:0,0:0:0:0:
238,160,12732,6,0,P|207:174|173:183,1,62.9999980773926,6|0,0:0|0:0,0:0:0:0:
184,262,12911,2,0,P|214:277|247:288,1,62.9999980773926,2|0,0:0|0:0,0:0:0:0:
369,113,13090,2,0,P|338:127|303:137,1,62.9999980773926,2|0,0:0|0:0,0:0:0:0:
318,303,13268,2,0,P|348:318|383:328,1,62.9999980773926,2|0,0:0|0:0,0:0:0:0:
504,70,13447,2,0,P|473:84|437:95,1,62.9999980773926,2|0,0:0|0:0,0:0:0:0:
450,340,13625,2,0,P|480:355|514:364,1,62.9999980773926
318,148,13804,5,6,0:0:0:0:
308,177,13893,1,2,0:0:0:0:
298,207,13982,1,2,0:0:0:0:
288,237,14071,1,2,0:0:0:0:
279,267,14161,1,6,0:0:0:0:
270,297,14250,1,2,0:0:0:0:
261,327,14339,1,2,0:0:0:0:
252,357,14429,1,2,0:0:0:0:
209,369,14518,5,6,0:0:0:0:
215,325,14607,1,2,0:0:0:0:
221,281,14696,1,2,0:0:0:0:
228,237,14786,1,2,0:0:0:0:
235,193,14875,1,6,0:0:0:0:
242,149,14964,1,2,0:0:0:0:
249,105,15054,1,2,0:0:0:0:
256,61,15143,1,2,0:0:0:0:
266,18,15232,6,0,P|327:17|391:106,1,180,14|0,0:0|0:0,0:0:0:0:
364,315,15768,5,0,0:0:0:0:
464,209,15946,2,0,L|340:218,1,90
258,315,16304,1,0,0:0:0:0:
195,205,16482,5,2,0:0:0:0:
195,205,16571,1,2,0:0:0:0:
195,205,16661,2,0,L|321:214,1,90,10|0,0:0|0:0,0:0:0:0:
330,132,17018,1,0,0:0:0:0:
380,331,17196,2,0,P|425:270|418:184,1,135,6|0,0:0|0:0,0:0:0:0:
435,139,17554,6,0,L|510:153,2,45
289,284,17911,1,0,0:0:0:0:
206,223,18089,6,0,P|282:185|370:217,2,180,10|0|0,0:0|0:0|0:0,0:0:0:0:
114,69,18982,1,0,0:0:0:0:
37,94,19161,2,0,P|94:148|129:138,1,90
195,119,19429,5,2,0:0:0:0:
195,119,19518,2,0,B|251:139|285:114|286:114|333:90|394:132,1,180,6|0,0:0|0:0,0:0:0:0:
226,215,20054,5,0,0:0:0:0:
401,40,20232,1,0,0:0:0:0:
420,240,20411,1,2,0:0:0:0:
420,240,20589,2,0,B|382:305|382:305|278:337,1,180,10|0,0:0|0:0,0:0:0:0:
88,173,21125,5,2,0:0:0:0:
302,231,21304,1,0,0:0:0:0:
162,298,21482,2,0,P|178:333|192:387,1,90,10|0,0:0|0:0,0:0:0:0:
355,67,21839,5,2,0:0:0:0:
223,121,22018,2,0,P|201:179|197:236,1,90,6|0,0:0|0:0,0:0:0:0:
302,284,22375,6,0,L|353:277,1,45,2|0,0:0|0:0,0:0:0:0:
431,307,22554,2,0,L|332:272,1,90,2|0,0:0|0:0,0:0:0:0:
411,114,22911,6,0,L|376:217,1,90,10|0,0:0|0:0,0:0:0:0:
180,278,23268,1,2,0:0:0:0:
278,116,23446,1,4,0:0:0:0:
94,134,23625,2,0,L|42:103,2,45,10|0|8,0:0|0:0|0:0,0:0:0:0:
72,275,23982,6,0,L|175:255,1,90
333,234,24339,1,10,0:0:0:0:
174,172,24518,1,0,0:0:0:0:
325,336,24696,1,0,0:0:0:0:
422,109,24875,2,0,L|312:136,1,90,10|0,0:0|0:0,0:0:0:0:
244,62,25143,5,0,0:0:0:0:
244,62,25232,2,0,P|214:136|201:237,1,180
102,254,25768,1,0,0:0:0:0:
103,280,25946,2,0,P|154:348|299:259,1,270,2|0,0:0|0:0,0:0:0:0:
431,81,26661,6,0,P|381:64|335:76,1,90,2|0,0:0|0:0,0:0:0:0:
286,165,27018,2,0,P|327:181|371:175,1,90,2|0,0:0|0:0,0:0:0:0:
446,123,27375,1,2,0:0:0:0:
265,268,27554,1,2,0:0:0:0:
265,268,27643,1,2,0:0:0:0:
265,268,27732,2,0,P|355:263|455:285,2,180,2|2|2,0:0|0:0|0:0,0:0:0:0:
112,274,28625,5,0,0:0:0:0:
277,355,28804,1,2,0:0:0:0:
208,195,28982,1,0,0:0:0:0:
140,358,29161,1,2,0:0:0:0:
294,242,29339,1,2,0:0:0:0:
294,242,29429,1,2,0:0:0:0:
294,242,29518,2,0,L|470:285,1,180,10|2,0:0|0:0,0:0:0:0:
314,354,30054,1,0,0:0:0:0:
78,200,30232,6,0,P|111:238|115:283,1,90,2|0,0:0|0:0,0:0:0:0:
212,99,30589,2,0,P|204:142|173:175,1,90,2|0,0:0|0:0,0:0:0:0:
207,263,30857,1,2,0:0:0:0:
207,263,30946,2,0,B|264:262|264:262|301:289|301:289|386:289,1,180,2|2,0:0|0:0,0:0:0:0:
340,192,31482,5,0,0:0:0:0:
237,349,31661,1,2,0:0:0:0:
427,231,31839,1,0,0:0:0:0:
225,194,32018,1,2,0:0:0:0:
384,134,32196,1,0,0:0:0:0:
298,60,32375,2,0,L|300:251,1,180,10|2,0:0|0:0,0:0:0:0:
128,368,32911,5,0,0:0:0:0:
19,316,33089,2,0,L|115:291,1,90,2|0,0:0|0:0,0:0:0:0:
163,189,33446,2,0,P|214:252|204:358,1,180,2|2,0:0|0:0,0:0:0:0:
139,52,34071,5,6,0:0:0:0:
139,52,34161,2,0,P|201:40|246:60,1,90,2|0,0:0|0:0,0:0:0:0:
228,186,34518,1,2,0:0:0:0:
351,58,34696,1,0,0:0:0:0:
249,209,34875,1,2,0:0:0:0:
431,153,35054,1,0,0:0:0:0:
223,347,35232,2,0,L|201:154,1,180,10|0,0:0|0:0,0:0:0:0:
434,201,35768,5,0,0:0:0:0:
356,113,35946,2,0,P|336:182|368:292,2,180,2|2|2,0:0|0:0|0:0,0:0:0:0:
222,77,36839,1,0,0:0:0:0:
256,269,37018,1,2,0:0:0:0:
150,170,37196,2,0,L|115:296,1,90,0|2,0:0|0:0,0:0:0:0:
43,188,37554,1,0,0:0:0:0:
188,307,37732,2,0,L|284:336,1,90,2|0,0:0|0:0,0:0:0:0:
433,112,38089,6,0,B|442:160|442:160|427:199,1,90,10|0,0:0|0:0,0:0:0:0:
355,279,38446,1,2,0:0:0:0:
463,349,38625,2,0,L|544:353,2,45,0|0|2,0:0|0:0|0:0,0:0:0:0:
325,166,38982,5,0,0:0:0:0:
445,137,39161,2,0,P|374:115|279:171,1,180,2|2,0:0|0:0,0:0:0:0:
95,118,39696,1,0,0:0:0:0:
245,266,39875,1,2,0:0:0:0:
57,114,40054,2,0,P|78:165|71:231,1,90,0|2,0:0|0:0,0:0:0:0:
201,78,40411,1,0,0:0:0:0:
18,259,40589,1,2,0:0:0:0:
196,321,40768,5,2,0:0:0:0:
196,321,40857,1,2,0:0:0:0:
196,321,40946,2,0,L|290:312,1,90,10|0,0:0|0:0,0:0:0:0:
327,195,41304,1,2,0:0:0:0:
256,67,41482,2,0,B|216:147|216:147|232:236,1,180,0|2,0:0|0:0,0:0:0:0:
291,330,42018,5,0,0:0:0:0:
168,357,42196,2,0,P|134:282|130:186,1,180,2|2,0:0|0:0,0:0:0:0:
203,72,42732,5,2,0:0:0:0:
78,104,42911,2,0,L|66:152,2,45,0|0|2,0:0|0:0|0:0,0:0:0:0:
275,163,43268,1,0,0:0:0:0:
150,317,43446,1,2,0:0:0:0:
308,163,43625,1,0,0:0:0:0:
294,347,43804,6,0,B|384:339|384:339|462:271,1,180,10|2,0:0|0:0,0:0:0:0:
340,87,44339,5,0,0:0:0:0:
340,87,44429,1,0,0:0:0:0:
340,87,44518,2,0,P|327:146|302:187,1,90,2|0,0:0|0:0,0:0:0:0:
184,243,44875,2,0,P|197:184|222:143,1,90,2|0,0:0|0:0,0:0:0:0:
292,307,45232,5,2,0:0:0:0:
91,167,45411,1,0,0:0:0:0:
334,94,45589,1,2,0:0:0:0:
165,270,45768,5,0,0:0:0:0:
335,210,45946,1,2,0:0:0:0:
167,123,46125,1,0,0:0:0:0:
224,285,46304,1,2,0:0:0:0:
275,104,46482,1,0,0:0:0:0:
366,259,46661,6,0,P|414:172|405:81,1,180,10|2,0:0|0:0,0:0:0:0:
241,166,47196,1,0,0:0:0:0:
143,159,47375,2,0,P|230:207|321:198,1,180,2|2,0:0|0:0,0:0:0:0:
368,272,47911,5,0,0:0:0:0:
245,125,48089,1,2,0:0:0:0:
120,259,48268,2,0,P|166:289|213:291,1,90,10|2,0:0|0:0,0:0:0:0:
303,222,48625,1,2,0:0:0:0:
303,222,48714,1,2,0:0:0:0:
303,222,48804,2,0,P|321:261|321:305,1,90,10|0,0:0|0:0,0:0:0:0:
195,183,49161,5,2,0:0:0:0:
432,288,49339,1,0,0:0:0:0:
353,98,49518,2,0,P|299:85|242:118,1,90,2|0,0:0|0:0,0:0:0:0:
252,118,49875,1,2,0:0:0:0:
135,232,50054,1,0,0:0:0:0:
45,112,50232,2,0,P|99:103|153:141,1,90,10|0,0:0|0:0,0:0:0:0:
217,241,50589,5,2,0:0:0:0:
298,121,50768,1,0,0:0:0:0:
355,323,50946,1,2,0:0:0:0:
322,108,51125,1,0,0:0:0:0:
438,225,51304,1,14,0:0:0:0:
349,87,51482,2,0,P|287:70|227:80,1,90,0|2,0:0|0:0,0:0:0:0:
248,197,51839,5,0,0:0:0:0:
123,54,52018,1,14,0:0:0:0:
88,193,52196,2,0,P|122:235|158:244,1,90,0|2,0:0|0:0,0:0:0:0:
303,142,52554,5,0,0:0:0:0:
184,323,52732,1,6,0:0:0:0:
373,236,52911,2,0,P|335:278|303:287,1,90,0|2,0:0|0:0,0:0:0:0:
451,300,53268,5,0,0:0:0:0:
253,184,53446,1,6,0:0:0:0:
409,110,53625,1,0,0:0:0:0:
261,164,53804,1,2,0:0:0:0:
289,12,53982,1,0,0:0:0:0:
79,81,54161,6,0,L|181:133,1,90,6|0,0:0|0:0,0:0:0:0:
261,186,54518,2,0,L|159:238,1,90,10|0,0:0|0:0,0:0:0:0:
80,278,54875,1,6,0:0:0:0:
177,339,55054,1,0,0:0:0:0:
275,284,55232,2,0,P|319:266|368:285,1,90,2|0,0:0|0:0,0:0:0:0:
411,194,55589,5,6,0:0:0:0:
310,361,55768,1,0,0:0:0:0:
454,305,55946,2,0,P|484:246|482:219,1,90,10|0,0:0|0:0,0:0:0:0:
466,93,56304,5,6,0:0:0:0:
387,188,56482,1,0,0:0:0:0:
324,57,56661,1,2,0:0:0:0:
256,204,56839,1,0,0:0:0:0:
175,125,57018,1,6,0:0:0:0:
332,118,57196,1,0,0:0:0:0:
106,286,57375,6,0,L|140:202,1,90,10|0,0:0|0:0,0:0:0:0:
253,131,57732,2,0,L|297:236,1,90,6|0,0:0|0:0,0:0:0:0:
301,247,58089,1,2,0:0:0:0:
470,203,58268,2,0,P|415:197|368:178,1,90,4|2,0:0|0:0,0:0:0:0:
251,55,58625,2,0,P|306:61|353:80,1,90,0|2,0:0|0:0,0:0:0:0:
234,151,58982,5,4,0:0:0:0:
439,100,59161,1,2,0:0:0:0:
208,260,59339,1,2,0:0:0:0:
208,260,59429,1,2,0:0:0:0:
208,260,59518,2,0,P|251:275|322:278,1,90,2|0,0:0|0:0,0:0:0:0:
401,157,59875,2,0,P|395:201|380:243,1,90,6|0,0:0|0:0,0:0:0:0:
366,267,60143,5,0,0:0:0:0:
366,267,60232,1,2,0:0:0:0:
280,176,60411,1,0,0:0:0:0:
280,176,60589,2,0,L|142:229,1,135,6|0,0:0|0:0,0:0:0:0:
58,257,60946,5,2,0:0:0:0:
162,132,61125,1,0,0:0:0:0:
25,44,61304,2,0,P|27:96|48:159,1,116.999994644165,2|0,0:0|0:0,0:0:0:0:
196,167,61661,5,2,0:0:0:0:
33,292,61839,1,0,0:0:0:0:
207,300,62018,5,2,0:0:0:0:
3,195,62197,1,0,0:0:0:0:
240,245,62375,5,2,0:0:0:0:
418,129,62554,1,0,0:0:0:0:
231,217,62732,1,2,0:0:0:0:
344,22,62911,1,4,0:0:0:0:
438,278,63268,5,2,0:0:0:0:
438,278,63357,1,2,0:0:0:0:
438,278,63446,2,0,P|345:317|266:306,1,175.499991966248,10|0,0:0|0:0,0:0:0:0:
250,290,63804,5,10,0:0:0:0:
89,198,63982,1,0,0:0:0:0:
291,73,64161,1,2,0:0:0:0:
102,221,64339,1,0,0:0:0:0:
385,129,64518,1,10,0:0:0:0:
229,307,64696,1,0,0:0:0:0:
146,78,64875,1,2,0:0:0:0:
303,277,65054,5,2,0:0:0:0:
303,277,65143,1,2,0:0:0:0:
303,277,65232,2,0,P|363:285|431:248,1,135,10|0,0:0|0:0,0:0:0:0:
425,152,65589,1,2,0:0:0:0:
310,99,65768,2,0,P|302:159|335:221,1,90,6|2,0:0|0:0,0:0:0:0:
390,270,66125,1,8,0:0:0:0:
147,304,66304,5,2,0:0:0:0:
170,283,66393,1,2,0:0:0:0:
198,271,66482,2,0,P|249:277|298:321,1,90,10|0,0:0|0:0,0:0:0:0:
289,191,66839,5,2,0:0:0:0:
166,121,67018,2,0,P|204:97|248:94,1,90,6|2,0:0|0:0,0:0:0:0:
273,101,67286,1,2,0:0:0:0:
296,118,67375,1,0,0:0:0:0:
191,243,67554,5,2,0:0:0:0:
423,129,67732,1,4,0:0:0:0:
335,310,67910,1,10,0:0:0:0:
335,310,68000,1,2,0:0:0:0:
335,310,68089,1,2,0:0:0:0:
200,122,68268,5,2,0:0:0:0:
68,323,68446,1,4,0:0:0:0:
348,192,68625,1,2,0:0:0:0:
192,353,68804,1,14,0:0:0:0:
65,121,68982,1,6,0:0:0:0:
336,311,69161,1,0,0:0:0:0:
249,104,69339,1,2,0:0:0:0:
230,78,69429,5,2,0:0:0:0:
203,61,69518,2,0,P|159:49|107:63,1,90,14|0,0:0|0:0,0:0:0:0:
43,218,69875,1,2,0:0:0:0:
308,94,70054,1,0,0:0:0:0:
164,327,70232,1,14,0:0:0:0:
171,124,70411,1,0,0:0:0:0:
355,357,70589,1,2,0:0:0:0:
400,83,70768,1,2,0:0:0:0:
400,83,70857,5,2,0:0:0:0:
400,83,70946,2,0,P|355:63|297:83,1,90,14|0,0:0|0:0,0:0:0:0:
225,200,71304,1,2,0:0:0:0:
89,68,71482,2,0,P|69:107|75:151,1,90,10|2,0:0|0:0,0:0:0:0:
181,288,71839,1,0,0:0:0:0:
360,165,72018,1,2,0:0:0:0:
360,165,72196,2,0,L|386:263,1,90,14|2,0:0|0:0,0:0:0:0:
330,362,72554,1,0,0:0:0:0:
462,327,72732,6,0,B|406:362|370:331|364:330|330:305|267:341,1,180,8|2,0:0|0:0,0:0:0:0:
165,278,73268,1,0,0:0:0:0:
309,195,73446,1,10,0:0:0:0:
195,100,73625,1,2,0:0:0:0:
166,87,73714,1,2,0:0:0:0:
134,81,73804,6,0,P|87:82|39:130,1,90,10|0,0:0|0:0,0:0:0:0:
18,225,74161,1,2,0:0:0:0:
132,291,74339,2,0,P|150:247|127:184,1,90,8|2,0:0|0:0,0:0:0:0:
189,133,74696,5,2,0:0:0:0:
225,134,74786,1,2,0:0:0:0:
256,151,74875,1,2,0:0:0:0:
278,178,74964,1,2,0:0:0:0:
288,212,75054,1,2,0:0:0:0:
287,247,75143,1,2,0:0:0:0:
281,282,75232,6,0,P|294:323|350:343,1,90,14|0,0:0|0:0,0:0:0:0:
437,311,75589,1,2,0:0:0:0:
355,197,75768,2,0,P|407:191|478:218,1,90,0|10,0:0|0:0,0:0:0:0:
430,75,76125,1,2,0:0:0:0:
338,128,76304,1,2,0:0:0:0:
246,37,76482,1,0,0:0:0:0:
246,37,76661,6,0,P|207:94|218:171,1,135,8|2,0:0|0:0,0:0:0:0:
226,180,77018,1,2,0:0:0:0:
93,133,77196,1,6,0:0:0:0:
330,56,77375,1,2,0:0:0:0:
240,266,77554,5,2,0:0:0:0:
267,289,77643,1,2,0:0:0:0:
300,301,77732,2,0,P|367:288|406:245,1,90,10|0,0:0|0:0,0:0:0:0:
422,175,78089,1,6,0:0:0:0:
291,100,78268,2,0,P|304:167|347:206,1,90,2|10,0:0|0:0,0:0:0:0:
428,183,78625,5,0,0:0:0:0:
267,264,78804,1,6,0:0:0:0:
375,100,78982,1,0,0:0:0:0:
170,149,79161,1,10,0:0:0:0:
256,0,79339,1,4,0:0:0:0:
50,194,79518,5,10,0:0:0:0:
299,366,79696,1,0,0:0:0:0:
73,217,79875,1,6,0:0:0:0:
343,213,80054,1,0,0:0:0:0:
34,282,80232,2,0,P|56:325|133:342,1,90,10|0,0:0|0:0,0:0:0:0:
150,234,80589,6,0,P|191:219|234:230,1,90,6|0,0:0|0:0,0:0:0:0:
298,319,80946,5,10,0:0:0:0:
275,123,81125,1,0,0:0:0:0:
163,319,81304,1,6,0:0:0:0:
428,207,81482,1,2,0:0:0:0:
428,207,81571,1,2,0:0:0:0:
428,207,81661,2,0,L|320:192,1,90,10|0,0:0|0:0,0:0:0:0:
287,100,82018,1,2,0:0:0:0:
167,205,82196,1,6,0:0:0:0:
63,153,82375,6,0,P|50:226|90:285,1,135,10|0,0:0|0:0,0:0:0:0:
103,287,82732,1,10,0:0:0:0:
196,220,82911,2,0,L|307:257,1,90,0|2,0:0|0:0,0:0:0:0:
375,185,83268,5,6,0:0:0:0:
204,339,83446,1,2,0:0:0:0:
370,346,83625,2,0,P|416:313|428:263,1,90,8|2,0:0|0:0,0:0:0:0:
379,148,83982,5,2,0:0:0:0:
241,62,84161,2,0,P|268:110|269:163,1,90,10|0,0:0|0:0,0:0:0:0:
304,244,84518,1,6,0:0:0:0:
115,181,84696,1,0,0:0:0:0:
452,153,84875,2,0,L|342:163,1,90,10|0,0:0|0:0,0:0:0:0:
343,175,85143,5,2,0:0:0:0:
343,175,85232,1,10,0:0:0:0:
179,300,85411,1,6,0:0:0:0:
347,328,85589,1,2,0:0:0:0:
247,157,85768,2,0,P|164:118|88:152,1,180,10|2,0:0|0:0,0:0:0:0:
83,175,86215,5,2,0:0:0:0:
83,175,86304,1,10,0:0:0:0:
115,271,86482,5,0,0:0:0:0:
336,76,86661,5,8,0:0:0:0:
198,356,86839,1,2,0:0:0:0:
220,37,87018,5,8,0:0:0:0:
370,367,87196,1,2,0:0:0:0:
392,148,87375,5,8,0:0:0:0:
173,251,87554,1,2,0:0:0:0:
347,57,87732,5,8,0:0:0:0:
211,335,87911,1,2,0:0:0:0:
211,335,88000,1,2,0:0:0:0:
211,335,88089,1,6,0:0:0:0:
340,97,88268,5,2,0:0:0:0:
184,254,88446,1,8,0:0:0:0:
210,70,88625,5,2,0:0:0:0:
316,348,88804,1,8,0:0:0:0:
364,36,88982,5,2,0:0:0:0:
274,359,89161,1,8,0:0:0:0:
103,102,89339,5,2,0:0:0:0:
103,102,89429,1,2,0:0:0:0:
103,102,89518,1,6,0:0:0:0:
203,338,89696,1,2,0:0:0:0:
378,125,89875,5,8,0:0:0:0:
91,197,90054,1,2,0:0:0:0:
426,240,90232,5,8,0:0:0:0:
86,61,90411,1,2,0:0:0:0:
376,105,90589,5,8,0:0:0:0:
127,251,90768,1,2,0:0:0:0:
127,251,90857,1,2,0:0:0:0:
127,251,90946,1,6,0:0:0:0:
385,254,91125,5,2,0:0:0:0:
153,112,91304,1,8,0:0:0:0:
189,337,91482,5,2,0:0:0:0:
273,41,91661,1,8,0:0:0:0:
108,191,91839,5,2,0:0:0:0:
475,264,92018,1,8,0:0:0:0:
333,77,92196,5,2,0:0:0:0:
333,77,92286,1,2,0:0:0:0:
333,77,92375,1,6,0:0:0:0:
170,324,92554,1,2,0:0:0:0:
411,253,92732,5,8,0:0:0:0:
89,206,92911,1,2,0:0:0:0:
307,327,93089,5,8,0:0:0:0:
102,47,93268,1,2,0:0:0:0:
398,175,93446,5,8,0:0:0:0:
145,343,93625,1,2,0:0:0:0:
145,343,93714,1,2,0:0:0:0:
145,343,93804,1,6,0:0:0:0:
395,107,93982,5,2,0:0:0:0:
63,129,94161,1,8,0:0:0:0:
352,181,94339,5,2,0:0:0:0:
165,374,94518,1,8,0:0:0:0:
186,68,94696,5,2,0:0:0:0:
328,310,94875,1,8,0:0:0:0:
423,104,95054,5,2,0:0:0:0:
215,324,95232,1,2,0:0:0:0:
136,64,95411,1,8,0:0:0:0:
439,244,95589,1,2,0:0:0:0:
91,262,95768,1,8,0:0:0:0:
295,91,96125,5,2,0:0:0:0:
185,318,96482,5,6,0:0:0:0:
256,192,96661,12,0,99518,0:0:0:0:
98,132,100589,5,0,0:0:0:0:
249,75,101661,5,0,0:0:0:0:
399,134,102732,5,0,0:0:0:0:
333,311,103804,5,0,0:0:0:0:
279,200,103982,1,0,0:0:0:0:
279,200,104071,1,0,0:0:0:0:
279,200,104161,2,0,L|158:231,1,90
96,193,104518,2,0,P|98:246|138:297,1,90
188,330,104786,1,0,0:0:0:0:
188,330,104875,2,0,L|283:298,1,90
370,205,105232,6,0,L|275:173,1,90
162,119,105589,2,0,L|257:87,1,90
303,17,105946,2,0,L|398:49,1,90
473,81,106303,1,0,0:0:0:0:
473,81,106393,1,0,0:0:0:0:
473,81,106482,2,0,P|484:152|466:193,1,90
