osu file format v14

[General]
AudioFilename: audio.mp3
AudioLeadIn: 0
PreviewTime: 60588
Countdown: 0
SampleSet: Normal
StackLeniency: 0.7
Mode: 0
LetterboxInBreaks: 0
WidescreenStoryboard: 1

[Editor]
DistanceSpacing: 1
BeatDivisor: 4
GridSize: 16
TimelineZoom: 1.7

[Metadata]
Title:Date in Utopia
TitleUnicode:デート・イン・ユートピア
Artist:sweet ARMS
ArtistUnicode:sweet ARMS
Creator:Lasse
Version:Hard
Source:デート・ア・ライブ 凛祢ユートピア
Tags:Date A Live: Rinne Utopia visual novel opening hishiro chizuru amb1d3x japanese rock pop video game anime Compile Heart 野水伊織 Nomizu Iori 富樫美鈴 Togashi Misuzu 佐土原かおり Sadohara Kaori 味里 Misato
BeatmapID:2712016
BeatmapSetID:1304889

[Difficulty]
HPDrainRate:4
CircleSize:3.8
OverallDifficulty:6.8
ApproachRate:8
SliderMultiplier:1.4
SliderTickRate:1

[Events]
//Background and Video events
0,0,"bg1.jpg",0,0
//Break Periods
2,88378,91560
2,191081,195182
//Storyboard Layer 0 (Background)
//Storyboard Layer 1 (Fail)
//Storyboard Layer 2 (Pass)
//Storyboard Layer 3 (Foreground)
//Storyboard Layer 4 (Overlay)
//Storyboard Sound Samples

[TimingPoints]
627,306.122448979592,4,1,1,50,1,0
627,-111.111111111111,4,1,1,50,0,0
7973,-111.111111111111,4,2,1,50,0,0
9657,-111.111111111111,4,1,1,50,0,0
10422,-100,4,1,1,60,0,0
18841,-133.333333333333,4,1,1,60,0,0
18917,-200,4,2,1,40,0,0
20218,-133.333333333333,4,1,1,50,0,0
21137,-111.111111111111,4,1,1,60,0,0
21443,-100,4,1,1,60,0,0
21749,-125,4,2,1,50,0,0
30627,-125,4,2,1,55,0,0
31239,-111.111111111111,4,1,1,60,0,0
41035,-100,4,1,1,65,0,0
48382,-100,4,2,1,60,0,0
50831,-100,4,1,1,60,0,0
51902,-90.9090909090909,4,2,1,55,0,0
52132,-90.9090909090909,4,2,1,30,0,0
52208,-90.9090909090909,4,2,1,55,0,0
53280,-111.111111111111,4,2,1,55,0,0
54351,-99.9999999999999,4,2,1,55,0,0
54581,-99.9999999999999,4,2,1,30,0,0
54657,-99.9999999999999,4,2,1,55,0,0
55729,-99.9999999999999,4,1,1,60,0,0
56800,-90.9090909090909,4,2,1,55,0,0
57030,-90.9090909090909,4,2,1,30,0,0
57106,-90.9090909090909,4,2,1,55,0,0
58178,-100,4,2,1,60,0,0
58637,-100,4,2,1,62,0,0
59096,-100,4,2,1,64,0,0
59402,-100,4,2,1,68,0,0
59479,-100,4,2,1,30,0,0
60014,-100,4,2,1,60,0,0
60167,-100,4,2,1,65,0,0
60320,-100,4,2,1,70,0,0
60473,-100,4,2,1,5,0,0
60627,-90.9090909090909,4,1,2,70,0,0
60780,-90.9090909090909,4,1,1,70,0,0
76545,-133.333333333333,4,1,2,70,0,0
76621,-200,4,2,1,30,0,0
77769,-133.333333333333,4,1,1,60,0,0
82667,-133.333333333333,4,2,1,50,0,0
86953,-100,4,2,1,60,0,0
87718,-133.333333333333,4,2,1,50,0,0
88178,306.122448979592,4,1,2,60,1,0
88178,-166.666666666667,4,1,2,60,0,0
88254,-166.666666666667,4,2,1,30,0,0
90473,-142.857142857143,4,1,2,45,0,0
90550,-142.857142857143,4,2,1,30,0,0
92157,-142.857142857143,4,2,1,40,0,0
92310,-142.857142857143,4,2,1,45,0,0
92616,-142.857142857143,4,2,1,50,0,0
92922,-142.857142857143,4,2,1,55,0,0
93382,-142.857142857143,4,2,1,40,0,0
95524,-142.857142857143,4,1,1,45,0,0
95831,-142.857142857143,4,1,1,50,0,0
96137,-142.857142857143,4,1,1,55,0,0
96443,-142.857142857143,4,1,1,60,0,0
96749,-100,4,1,1,65,0,0
97208,-100,4,1,1,50,0,0
97667,-100,4,1,1,55,0,0
97973,-111.111111111111,4,1,1,60,0,0
107769,-100,4,1,1,65,0,0
115116,-100,4,2,1,60,0,0
117565,-100,4,1,1,60,0,0
118637,-90.9090909090909,4,2,1,55,0,0
118943,-111.111111111111,4,2,1,55,0,0
120014,-111.111111111111,4,2,1,55,0,0
121086,-100,4,2,1,55,0,0
121315,-100,4,2,1,30,0,0
121392,-100,4,2,1,55,0,0
122769,297.029702970297,4,2,1,55,1,0
123511,306.122448979592,4,2,1,55,1,0
123511,-90.9090909090909,4,2,1,55,0,0
123740,-90.9090909090909,4,2,1,30,0,0
123817,-90.9090909090909,4,2,1,55,0,0
124429,298.507462686567,4,2,1,55,1,0
124727,333.333333333333,4,2,1,55,1,0
124893,319.148936170213,4,2,1,60,1,0
124893,-100,4,2,1,60,0,0
125371,312.5,4,2,1,62,1,0
125371,-100,4,2,1,62,0,0
125839,304.568527918782,4,2,1,64,1,0
125839,-100,4,2,1,64,0,0
126143,304.568527918782,4,2,1,68,1,0
126143,-100,4,2,1,68,0,0
126213,-100,4,2,1,30,0,0
126748,-100,4,2,1,60,0,0
126901,-100,4,2,1,65,0,0
127054,-100,4,2,1,70,0,0
127208,-100,4,2,1,5,0,0
127361,306.122448979592,4,1,2,70,1,0
127361,-90.9090909090909,4,1,2,70,0,0
127514,-90.9090909090909,4,1,1,70,0,0
143279,-90.9090909090909,4,1,1,60,0,0
143585,-90.9090909090909,4,1,1,62,0,0
143891,-90.9090909090909,4,1,1,64,0,0
144197,-90.9090909090909,4,1,1,67,0,0
144503,-83.3333333333333,4,1,1,70,0,0
161187,-83.3333333333333,4,1,1,67,0,0
161340,-83.3333333333333,4,1,1,65,0,0
161493,-83.3333333333333,4,1,1,62,0,0
161646,-83.3333333333333,4,1,1,60,0,0
164095,-90.9090909090909,4,1,1,65,0,0
166544,-83.3333333333333,4,1,1,70,0,0
168993,-125,4,1,2,60,0,0
169070,-166.666666666667,4,2,1,60,0,0
169299,-166.666666666667,4,2,1,20,0,0
170371,-133.333333333333,4,2,1,50,0,0
171442,-161.290322580645,4,2,1,54,0,0
181238,-133.333333333333,4,2,1,58,0,0
186136,-117.647058823529,4,2,1,60,0,0
189809,-100,4,1,1,65,0,0
189963,-100,4,1,1,50,0,0
190116,-100,4,1,1,65,0,0
190269,-100,4,1,1,50,0,0
190422,-83.3333333333333,4,1,1,70,0,0
190575,-83.3333333333333,4,1,1,50,0,0
190728,-83.3333333333334,4,1,1,70,0,0
190881,-83.3333333333333,4,1,1,50,0,0
191034,-200,4,2,1,40,0,0
195932,-133.333333333333,4,1,1,50,0,0
197156,-133.333333333333,4,1,1,55,0,0
198381,-133.333333333333,4,1,1,60,0,0
199605,-108.695652173913,4,1,1,65,0,0
200218,-133.333333333333,4,1,1,70,0,0
200830,-90.9090909090909,4,1,1,72,0,0
207182,-90.9090909090909,4,2,1,5,0,0
207258,-90.9090909090909,4,1,1,60,0,0
207335,-90.9090909090909,4,1,1,61,0,0
207412,-90.9090909090909,4,1,1,62,0,0
207488,-90.9090909090909,4,1,1,63,0,0
207565,-90.9090909090909,4,1,1,64,0,0
207641,-90.9090909090909,4,1,1,66,0,0
207718,-90.9090909090909,4,1,1,68,0,0
207794,-90.9090909090909,4,1,1,70,0,0
207871,-90.9090909090909,4,1,1,60,0,0
208177,-83.3333333333333,4,1,2,75,0,0
208483,-83.3333333333333,4,1,1,75,0,0
224095,-133.333333333333,4,1,2,75,0,0
224172,-166.666666666667,4,2,1,30,0,0
225014,-166.666666666667,4,2,1,40,0,0
225320,-90.9090909090909,4,1,1,60,0,0
227769,-90.9090909090909,4,1,1,60,0,0
229605,-90.9090909090909,4,1,1,55,0,0
229912,-90.9090909090909,4,1,1,50,0,0
230218,-83.3333333333333,4,1,1,60,0,0
231136,-76.9230769230769,4,1,1,60,0,0
232054,-83.3333333333333,4,1,1,62,0,0
232361,-83.3333333333333,4,1,1,58,0,0
232667,-71.4285714285714,4,1,1,65,0,0
233738,-208.333333333333,4,1,1,60,0,0
233815,-377.358490566038,4,2,1,10,0,0
237258,-377.358490566038,4,2,99,5,0,0
242463,-377.358490566038,4,2,99,5,0,0

[Colours]
Combo1 : 250,180,240
Combo2 : 120,200,230
Combo3 : 255,230,130
Combo4 : 160,230,150

[HitObjects]
79,160,627,5,4,0:2:0:0:
129,342,1086,1,4,0:2:0:0:
311,292,1545,1,4,0:2:0:0:
261,110,2004,1,4,0:2:0:0:
83,164,2463,1,6,0:2:0:0:
83,164,2769,1,6,0:2:0:0:
196,225,3075,6,0,P|243:222|275:198,1,62.9999980773926,4|0,0:0|0:0,0:0:0:0:
256,215,3305,1,8,0:0:0:0:
256,215,3382,1,8,0:0:0:0:
328,176,3535,2,0,P|315:222|314:322,1,125.999996154785,4|0,0:2|0:0,0:0:0:0:
391,316,3994,2,0,P|404:270|405:170,1,125.999996154785,12|0,0:2|0:0,0:0:0:0:
379,115,4453,1,8,0:0:0:0:
241,196,4759,5,0,0:0:0:0:
241,196,4836,1,0,0:0:0:0:
241,196,4912,2,0,B|210:211|175:200|175:200|158:172|108:155,1,125.999996154785,8|4,0:0|0:3,0:0:0:0:
12,258,5524,6,0,P|12:307|17:332,1,62.9999980773926,8|0,0:0|0:0,0:0:0:0:
104,286,5831,1,8,0:0:0:0:
104,286,5984,2,0,P|104:335|109:360,1,62.9999980773926
195,308,6290,1,8,0:0:0:0:
195,308,6443,2,0,P|195:357|200:382,1,62.9999980773926,8|0,0:0|0:0,0:0:0:0:
290,311,6749,5,4,0:2:0:0:
290,311,6902,2,0,P|290:262|285:237,2,62.9999980773926,0|8|4,0:0|0:0|0:3,0:0:0:0:
340,375,7361,1,8,0:3:0:0:
417,347,7514,1,8,0:3:0:0:
493,375,7667,1,8,0:0:0:0:
256,192,9657,5,8,0:0:0:0:
256,192,9810,1,8,0:0:0:0:
256,192,9963,1,8,0:0:0:0:
256,192,10116,1,8,0:0:0:0:
256,192,10269,1,8,0:0:0:0:
330,139,10422,6,0,P|339:85|331:-9,2,140,6|10|2,0:0|0:0|0:2,0:0:0:0:
256,192,11188,2,0,P|218:180|178:174,1,70,2|8,0:0|0:0,0:0:0:0:
303,272,11494,5,2,0:2:0:0:
303,272,11647,2,0,P|355:287|452:289,1,140,2|8,0:0|0:0,0:0:0:0:
478,213,12106,1,2,0:0:0:0:
478,213,12183,1,0,0:0:0:0:
478,213,12259,2,0,P|501:168|501:142,1,70
414,123,12565,2,0,P|400:58|392:44,1,70,8|0,0:0|0:0,0:0:0:0:
303,3,12871,5,2,0:2:0:0:
303,3,13024,1,0,0:0:0:0:
227,54,13178,2,0,P|158:59|71:24,1,140,10|2,0:0|0:2,0:0:0:0:
164,106,13637,2,0,P|184:140|187:187,1,70,2|8,0:1|0:0,0:0:0:0:
118,250,13943,5,2,0:2:0:0:
118,250,14096,2,0,B|76:219|12:237|12:237|39:282,1,140,2|8,0:0|0:0,0:0:0:0:
107,344,14555,1,2,0:2:0:0:
107,344,14632,1,2,0:2:0:0:
107,344,14708,2,0,P|154:331|180:329,1,70,10|8,0:1|0:1,0:0:0:0:
254,373,15014,1,8,0:1:0:0:
280,285,15167,1,8,0:1:0:0:
369,336,15320,6,0,P|423:347|536:318,2,140,6|10|2,0:0|0:1|0:2,0:0:0:0:
306,268,16086,2,0,P|319:233|328:184,1,70,2|8,0:1|0:0,0:0:0:0:
258,109,16392,5,2,0:2:0:0:
258,109,16545,2,0,P|203:122|116:104,1,140,2|8,0:1|0:0,0:0:0:0:
102,191,17004,1,2,0:0:0:0:
102,191,17081,1,0,0:0:0:0:
102,191,17157,2,0,P|48:202|20:216,1,70
111,279,17463,2,0,P|90:321|77:360,1,70,10|8,0:0|0:0,0:0:0:0:
200,374,17769,6,0,P|267:362|301:363,1,70,6|2,0:0|0:2,0:0:0:0:
367,378,18075,1,10,0:2:0:0:
304,279,18229,1,6,0:0:0:0:
500,181,18535,5,10,0:0:0:0:
500,181,18688,1,10,0:0:0:0:
455,260,18841,2,0,B|216:252|381:128|131:130,1,367.500014019013,6|0,0:1|0:0,2:0:0:0:
132,129,20218,6,0,L|141:70,2,52.5000020027161,8|0|0,1:0|1:0|1:0,0:0:0:0:
177,210,20678,2,0,L|170:262,2,52.5000020027161,8|0|0,1:3|1:0|1:0,0:0:0:0:
263,148,21137,2,0,B|323:128|323:128|401:150,2,125.999996154785,12|4|8,0:2|0:0|0:0,0:0:0:0:
110,266,22055,6,0,L|182:259,1,56,2|0,1:2|0:0,0:0:0:0:
243,255,22361,2,0,L|248:315,1,56,8|0,0:0|0:0,0:0:0:0:
306,362,22667,2,0,P|375:365|426:325,1,112,2|8,1:2|0:0,0:0:0:0:
466,288,23127,2,0,P|452:243|474:163,1,112,2|0,0:2|0:0,0:0:0:0:
411,121,23586,2,0,P|374:128|292:97,2,112,8|0|8,0:0|1:0|0:0,0:0:0:0:
293,16,24504,6,0,L|230:26,1,56,2|0,1:2|2:0,0:0:0:0:
194,90,24810,2,0,L|209:158,1,56,8|0,2:0|2:0,0:0:0:0:
156,205,25116,2,0,P|128:223|48:214,1,112,2|8,1:2|2:0,2:0:0:0:
2,276,25575,2,0,L|17:344,1,56,2|0,0:2|1:2,0:2:0:0:
78,376,25882,2,0,L|144:364,1,56,2|8,0:2|2:2,0:0:0:0:
214,294,26188,6,2,B|197:263|197:263|199:234|199:234|171:176,1,112,6|0,1:2|1:2,0:1:0:0:
260,172,26647,2,0,B|280:214|280:214|278:243|278:243|295:274,1,112,8|0,0:2|1:2,0:2:0:0:
336,341,27106,1,0,1:2:0:0:
405,376,27259,2,0,P|451:377|495:318,2,112,8|0|8,0:2|1:2|0:2,0:2:0:0:
295,274,28178,2,0,L|307:199,1,56,0|0,1:2|1:2,0:0:0:0:
321,142,28484,1,10,0:2:0:0:
181,69,28790,6,0,P|138:72|82:120,1,112,2|8,1:2|0:2,0:0:0:0:
161,250,29402,2,0,P|215:242|256:205,1,112,2|8,0:2|0:2,0:0:0:0:
308,148,29861,1,0,0:2:0:0:
308,148,29938,1,0,0:2:0:0:
308,148,30014,2,0,P|295:112|305:36,1,112,2|8,1:2|0:2,0:0:0:0:
456,6,30627,5,2,1:2:0:0:
456,6,30780,1,0,1:2:0:0:
419,83,30933,1,0,1:2:0:0:
419,83,31086,1,8,1:2:0:0:
484,150,31239,6,0,P|502:200|493:273,2,125.999996154785,6|10|2,0:0|0:0|0:2,0:1:0:0:
419,83,32004,1,0,0:0:0:0:
349,147,32157,2,0,L|344:217,1,62.9999980773926,8|0,0:0|0:0,0:0:0:0:
246,238,32463,6,0,P|236:176|255:116,1,125.999996154785,2|8,0:2|0:0,0:0:0:0:
188,40,32922,1,2,0:2:0:0:
188,40,32999,1,0,0:0:0:0:
188,40,33075,2,0,P|230:30|252:25,1,62.9999980773926,0|0,0:0|0:0,0:1:0:0:
256,116,33382,2,0,P|213:125|192:131,1,62.9999980773926,8|0,0:2|0:0,0:1:0:0:
112,120,33688,6,0,P|109:88|97:59,1,62.9999980773926,2|0,0:0|0:0,0:1:0:0:
46,167,33994,2,0,P|44:211|77:293,1,125.999996154785,10|2,0:0|0:2,0:1:0:0:
128,345,34453,1,0,0:0:0:0:
192,294,34606,1,8,0:2:0:0:
192,294,34759,1,0,0:0:0:0:
268,335,34912,6,0,P|293:277|294:215,1,125.999996154785,2|8,0:2|0:0,0:0:0:0:
241,151,35371,2,0,L|179:160,1,62.9999980773926,2|0,0:2|0:0,0:0:0:0:
271,75,35678,2,0,L|348:64,1,62.9999980773926,2|8,0:2|0:0,0:0:0:0:
429,5,35984,6,0,B|469:19|469:19|466:117,1,125.999996154785,2|0,0:3|0:0,0:0:0:0:
425,173,36443,2,0,P|376:162|292:168,1,125.999996154785,8|2,0:0|0:2,0:0:0:0:
233,212,36902,1,0,0:2:0:0:
286,273,37055,2,0,P|313:282|362:291,1,62.9999980773926,10|0,0:1|0:0,0:0:0:0:
251,350,37361,2,0,P|198:354|120:383,1,125.999996154785,2|10,0:2|0:1,0:0:0:0:
1,264,37973,5,2,0:2:0:0:
66,313,38127,1,0,0:0:0:0:
77,231,38280,1,8,0:2:0:0:
233,181,38586,6,0,L|380:167,2,125.999996154785,2|8|0,0:2|0:0|0:2,0:0:0:0:
155,155,39351,2,0,P|144:120|149:70,1,62.9999980773926,0|8,0:0|0:0,0:0:0:0:
206,40,39657,1,0,0:0:0:0:
206,40,39734,1,0,0:0:0:0:
206,40,39810,2,0,L|353:26,1,125.999996154785,10|8,0:2|0:0,0:0:0:0:
439,13,40269,5,8,0:0:0:0:
439,13,40346,1,8,0:0:0:0:
439,13,40422,2,0,L|449:88,1,62.9999980773926,10|10,0:2|0:2,0:0:0:0:
423,154,40729,1,10,0:2:0:0:
471,220,40882,1,10,0:2:0:0:
419,294,41035,6,0,P|364:278|265:293,2,140,6|10|0,0:0|0:1|0:0,0:0:0:0:
500,248,41800,1,2,0:2:0:0:
500,248,41877,1,2,0:2:0:0:
500,248,41953,2,0,P|508:208|502:159,1,70,8|0,1:0|0:0,2:0:0:0:
422,106,42259,6,0,L|499:92,1,70,2|0,0:0|0:0,0:0:0:0:
443,15,42565,2,0,L|374:27,1,70,8|2,0:0|0:1,0:0:0:0:
329,106,42871,2,0,L|261:120,1,70,0|0,0:2|0:0,0:0:0:0:
183,69,43178,1,8,0:2:0:0:
127,152,43331,6,0,P|120:200|152:291,1,140,6|0,0:1|0:0,0:1:0:0:
225,332,43790,2,0,L|378:291,1,140,10|0,0:1|0:2,0:0:0:0:
458,313,44249,1,2,0:2:0:0:
458,313,44325,1,2,0:2:0:0:
458,313,44402,2,0,P|456:271|435:235,1,70,8|0,0:2|0:0,0:0:0:0:
355,165,44708,5,2,0:0:0:0:
296,234,44861,2,0,P|260:235|213:222,1,70,0|8,0:2|0:0,0:0:0:0:
140,200,45167,1,2,0:1:0:0:
207,139,45320,2,0,P|217:106|214:60,1,70,0|0,0:1|0:0,0:0:0:0:
156,1,45627,1,8,0:0:0:0:
65,32,45780,6,0,P|43:68|51:173,1,140,6|0,0:0|0:0,0:0:0:0:
129,217,46239,2,0,P|197:188|279:196,1,140,10|0,0:0|0:2,0:0:0:0:
334,247,46698,1,2,0:2:0:0:
334,247,46774,1,2,0:2:0:0:
334,247,46851,2,0,L|324:342,1,70,8|0,0:0|0:0,0:0:0:0:
438,384,47157,6,0,L|429:309,1,70,2|0,0:0|0:0,0:0:0:0:
485,242,47463,2,0,L|476:167,1,70,8|2,0:0|0:0,0:0:0:0:
466,82,47769,1,0,0:0:0:0:
466,82,47922,1,0,0:0:0:0:
375,94,48075,1,10,0:0:0:0:
213,39,48382,6,0,P|177:24|65:55,2,140,2|8|2,1:2|0:0|1:2,0:0:0:0:
277,92,49147,1,0,1:0:0:0:
237,166,49300,2,0,P|226:208|229:245,1,70,8|0,0:0|0:0,0:0:0:0:
269,312,49606,1,2,1:2:0:0:
269,312,49759,1,0,1:0:0:0:
211,373,49912,2,0,P|166:361|102:360,1,105,8|8,0:0|2:0,0:0:0:0:
95,371,50218,6,0,P|87:325|93:297,1,70,8|8,2:2|2:3,0:0:0:0:
175,156,50678,1,8,2:3:0:0:
225,229,50831,5,8,0:0:0:0:
225,229,50984,1,8,0:0:0:0:
225,229,51902,6,0,L|394:208,1,154.000004699707,6|8,0:2|0:0,0:0:0:0:
449,254,52361,1,8,0:0:0:0:
501,187,52514,1,8,0:3:0:0:
402,49,52820,5,8,0:3:0:0:
350,116,52973,1,4,0:3:0:0:
350,116,53127,1,4,0:3:0:0:
272,72,53280,6,0,P|210:49|130:61,1,125.999996154785,6|0,1:2|0:0,0:0:0:0:
151,53,53739,1,0,1:0:0:0:
206,129,53892,2,0,P|232:186|220:250,1,125.999996154785,8|0,0:0|0:0,0:0:0:0:
172,323,54351,2,0,L|89:316,1,70,6|0,1:2|0:0,0:0:0:0:
34,256,54657,2,0,L|39:176,1,70,8|0,0:0|1:0,0:0:0:0:
77,104,54963,5,8,0:0:0:0:
139,148,55116,1,8,0:0:0:0:
200,102,55269,1,8,0:3:0:0:
138,58,55422,1,4,0:3:0:0:
293,23,55729,5,8,1:0:0:0:
293,23,55882,1,8,1:0:0:0:
293,23,56800,6,0,P|387:22|440:67,1,154.000004699707,6|8,1:2|0:0,0:0:0:0:
406,159,57259,2,0,P|449:150|490:145,1,77.0000023498536,8|8,0:0|0:0,0:0:0:0:
437,260,57565,2,0,P|473:266|526:280,2,77.0000023498536,8|8|8,0:3|0:3|0:3,0:0:0:0:
305,370,58178,6,2,L|157:356,1,140,6|0,1:2|0:1,0:1:0:0:
101,248,58637,2,2,L|240:261,1,140,6|0,1:2|0:1,0:1:0:0:
323,166,59096,2,2,L|183:152,1,140,6|6,1:2|1:1,0:1:0:0:
15,52,60627,6,0,L|97:42,1,77.0000023498536,14|0,0:0|0:0,0:0:0:0:
57,131,60933,2,0,L|139:121,1,77.0000023498536,10|0,0:0|0:0,0:0:0:0:
238,76,61239,5,2,0:2:0:0:
309,134,61392,2,0,P|338:205|313:293,1,154.000004699707
251,349,61851,2,0,L|88:336,1,154.000004699707,2|8,0:2|0:0,0:0:0:0:
14,376,62310,2,0,P|9:336|17:298,1,77.0000023498536,2|0,0:2|0:0,0:0:0:0:
85,248,62616,1,2,0:2:0:0:
85,248,62693,1,0,0:0:0:0:
85,248,62769,2,0,L|180:237,1,77.0000023498536,8|0,0:0|0:0,0:0:0:0:
205,147,63075,6,0,L|201:62,1,77.0000023498536,2|0,0:0|0:0,0:0:0:0:
286,160,63382,2,0,L|282:75,1,77.0000023498536,10|0,0:0|0:0,0:0:0:0:
346,4,63688,5,2,0:2:0:0:
346,4,63841,1,0,0:2:0:0:
383,88,63994,1,8,0:2:0:0:
470,59,64147,1,0,0:2:0:0:
491,148,64300,2,0,P|491:222|475:308,1,154.000004699707,2|8,0:2|0:0,0:0:0:0:
411,372,64759,2,0,P|404:332|387:290,1,77.0000023498536,2|0,0:2|0:0,0:0:0:0:
318,241,65065,2,0,P|284:232|245:206,1,77.0000023498536,2|8,0:2|0:0,0:0:0:0:
191,137,65371,5,0,0:0:0:0:
191,137,65448,1,0,0:0:0:0:
191,137,65524,2,0,L|182:34,1,77.0000023498536,2|0,0:0|0:0,0:0:0:0:
101,161,65831,2,0,L|95:85,1,77.0000023498536,10|0,0:0|0:0,0:0:0:0:
23,25,66137,5,2,0:2:0:0:
5,115,66290,1,0,0:0:0:0:
26,204,66443,1,8,0:0:0:0:
26,204,66596,1,0,0:0:0:0:
79,279,66749,2,0,P|146:254|247:259,1,154.000004699707,2|8,0:2|0:0,0:0:0:0:
193,345,67208,2,0,P|265:370|341:369,1,154.000004699707,2|0,0:2|0:0,0:0:0:0:
420,321,67667,2,0,L|433:238,1,77.0000023498536,10|0,0:2|0:0,0:0:0:0:
365,168,67973,6,0,P|288:166|216:192,1,154.000004699707,2|10,0:1|0:2,0:0:0:0:
139,245,68433,1,0,0:0:0:0:
65,189,68586,2,0,P|62:147|69:102,1,77.0000023498536,2|0,0:1|0:0,0:0:0:0:
142,60,68892,2,0,P|179:30|217:19,1,77.0000023498536,10|0,0:2|0:0,0:0:0:0:
300,66,69198,6,0,B|327:78|368:76|368:76|394:33|458:25,1,154.000004699707,2|8,0:0|0:0,0:0:0:0:
397,162,69657,1,2,0:1:0:0:
469,218,69810,2,0,P|492:250|506:305,1,77.0000023498536
479,374,70116,1,14,0:2:0:0:
349,288,70422,6,0,L|264:280,1,77.0000023498536,6|0,0:0|0:0,0:0:0:0:
330,366,70729,2,0,L|245:358,1,77.0000023498536,10|0,0:0|0:0,0:0:0:0:
165,304,71035,5,2,0:2:0:0:
165,304,71188,1,0,0:0:0:0:
251,271,71341,1,8,0:0:0:0:
211,187,71494,1,0,0:0:0:0:
125,220,71647,2,0,B|52:245|52:245|-20:182,1,154.000004699707,2|8,0:2|0:0,0:0:0:0:
51,121,72106,2,0,P|53:84|70:39,1,77.0000023498536,2|0,0:2|0:0,0:0:0:0:
156,63,72412,1,2,0:2:0:0:
156,63,72489,1,0,0:0:0:0:
156,63,72565,2,0,P|189:27|225:13,1,77.0000023498536,8|0,0:0|0:0,0:0:0:0:
309,67,72871,6,0,L|411:82,1,77.0000023498536,2|0,0:1|0:0,0:0:0:0:
301,147,73178,2,0,L|403:162,1,77.0000023498536,10|0,0:0|0:0,0:0:0:0:
483,130,73484,5,2,0:2:0:0:
449,216,73637,1,0,0:0:0:0:
484,309,73790,1,8,0:0:0:0:
484,309,73943,1,0,0:0:0:0:
406,359,74096,2,0,P|358:339|243:329,1,154.000004699707,2|8,0:2|0:0,0:0:0:0:
179,381,74555,2,0,P|164:344|171:288,1,77.0000023498536,2|0,0:2|0:0,0:0:0:0:
234,246,74861,2,0,P|234:207|219:172,1,77.0000023498536,2|8,0:2|0:0,0:0:0:0:
132,105,75167,5,0,0:0:0:0:
132,105,75244,1,0,0:0:0:0:
132,105,75320,2,0,L|54:120,1,77.0000023498536,2|0,0:1|0:0,0:0:0:0:
168,23,75627,2,0,L|246:8,1,77.0000023498536,10|0,0:2|0:0,0:0:0:0:
321,67,75933,1,2,0:1:0:0:
321,67,76086,1,0,0:0:0:0:
400,17,76239,1,10,0:2:0:0:
400,17,76392,1,0,0:0:0:0:
471,86,76545,6,0,B|516:170|488:297|394:323|394:323|361:276|364:230|403:183,1,420.000016021729,6|6,1:2|0:1,2:0:0:0:
393,195,78841,5,4,0:2:0:0:
371,340,79147,1,4,0:2:0:0:
256,192,80218,5,4,0:0:0:0:
141,340,81290,5,4,0:2:0:0:
119,195,81596,1,4,0:2:0:0:
0,85,82667,6,0,L|112:65,1,105.000004005432,6|2,1:2|0:3,0:0:0:0:
160,154,83280,2,0,P|149:183|145:214,1,52.5000020027161,8|0,0:0|3:0,0:0:0:0:
202,292,83739,2,0,L|305:310,1,105.000004005432,0|8,1:0|0:0,0:0:0:0:
414,332,84351,2,0,L|408:385,2,52.5000020027161,0|8|0,1:0|0:0|3:0,0:0:0:0:
487,231,84963,5,0,3:0:0:0:
487,231,85040,1,0,3:0:0:0:
487,231,85116,2,0,P|497:179|481:108,1,105.000004005432,0|2,1:0|2:0,0:0:0:0:
420,40,85729,2,0,L|358:31,1,52.5000020027161,8|0,0:0|3:0,0:0:0:0:
309,127,86188,1,0,3:0:0:0:
309,127,86264,1,0,3:0:0:0:
309,127,86341,2,0,L|247:136,1,52.5000020027161,2|8,2:3|0:0,0:0:0:0:
128,92,86800,1,0,1:0:0:0:
76,158,86953,6,0,P|68:202|73:238,1,70,10|10,1:2|1:2,0:0:0:0:
150,288,87259,2,0,P|196:273|229:272,1,70,10|10,1:2|1:2,0:0:0:0:
350,343,87718,5,8,0:0:0:0:
350,343,87795,1,8,0:3:0:0:
350,343,87871,1,4,0:3:0:0:
408,212,88178,5,6,1:2:0:0:
512,270,92310,5,8,0:0:0:0:
512,270,92463,1,8,0:0:0:0:
441,236,92616,1,8,0:3:0:0:
441,236,92769,1,4,0:3:0:0:
387,294,92922,6,0,P|372:332|269:340,1,146.999995513916,6|2,1:2|0:3,0:0:0:0:
270,339,93994,1,2,0:3:0:0:
264,330,94606,1,2,0:3:0:0:
261,320,95218,1,2,0:3:0:0:
325,258,95524,5,0,1:0:0:0:
239,233,95831,5,0,1:0:0:0:
189,146,96137,5,0,1:0:0:0:
234,48,96443,5,0,1:0:0:0:
358,62,96749,6,2,B|425:18|494:64|494:64|462:71|436:103,1,210,6|8,0:0|2:0,2:1:0:0:
441,192,97361,6,0,L|454:233,3,35
452,260,97667,2,0,L|465:301,3,35
452,336,97973,6,0,B|406:329|406:329|381:349|381:349|310:344,2,125.999996154785,6|10|2,0:1|0:0|0:2,0:0:0:0:
512,272,98739,1,0,0:0:0:0:
465,197,98892,2,0,B|459:177|459:177|460:168|460:168|447:129,1,62.9999980773926,8|0,0:0|0:0,0:0:0:0:
355,63,99198,6,0,P|339:101|246:94,1,125.999996154785,2|8,0:2|0:0,0:0:0:0:
186,41,99657,1,2,0:2:0:0:
186,41,99734,1,0,0:0:0:0:
186,41,99810,2,0,L|253:26,1,62.9999980773926
263,110,100116,2,0,L|201:123,1,62.9999980773926,8|0,0:2|0:0,0:0:0:0:
137,202,100422,6,0,P|139:233|151:262,1,62.9999980773926,2|0,0:0|0:0,0:0:0:0:
227,215,100729,2,0,P|262:198|356:200,1,125.999996154785,10|2,0:0|0:2,0:0:0:0:
428,231,101188,1,0,0:0:0:0:
457,319,101341,1,8,0:0:0:0:
457,319,101494,1,0,0:0:0:0:
382,377,101647,6,0,B|340:368|340:368|305:380|305:380|236:367,1,125.999996154785,2|0,0:2|0:0,0:0:0:0:
172,315,102106,2,0,L|176:387,1,62.9999980773926,2|0,0:2|0:0,0:0:0:0:
259,371,102412,2,0,L|255:299,1,62.9999980773926,2|8,0:2|0:2,0:0:0:0:
177,231,102718,6,0,B|147:266|147:266|52:249,1,125.999996154785,2|0,0:3|0:0,0:0:0:0:
116,174,103178,2,0,P|104:130|127:46,1,125.999996154785,8|2,0:0|0:2,0:0:0:0:
189,7,103637,1,0,0:2:0:0:
260,47,103790,2,0,P|269:78|271:121,1,62.9999980773926,10|0,0:1|0:0,0:0:0:0:
294,187,104096,2,0,P|345:214|428:194,1,125.999996154785,2|10,0:2|0:1,0:0:0:0:
512,82,104708,5,2,0:2:0:0:
430,96,104861,1,0,0:0:0:0:
460,19,105014,1,8,0:0:0:0:
296,44,105320,6,0,B|254:35|254:35|227:48|227:48|149:30,2,125.999996154785,2|8|0,0:2|0:0|0:2,0:0:0:0:
347,107,106086,2,0,P|356:137|356:191,1,62.9999980773926,0|8,0:0|0:0,0:0:0:0:
408,245,106392,1,0,0:0:0:0:
408,245,106468,1,0,0:0:0:0:
408,245,106545,2,0,P|394:282|317:343,1,125.999996154785,10|8,0:2|0:0,0:0:0:0:
238,373,107004,5,8,0:0:0:0:
238,373,107081,1,8,0:0:0:0:
238,373,107157,2,0,P|200:365|156:360,1,62.9999980773926,10|10,0:2|0:2,0:0:0:0:
95,379,107463,1,10,0:2:0:0:
75,299,107616,1,10,0:2:0:0:
163,276,107769,6,0,P|178:217|172:128,2,140,6|10|0,0:0|0:1|0:0,0:0:0:0:
82,307,108535,1,2,0:2:0:0:
82,307,108611,1,0,0:0:0:0:
82,307,108688,2,0,P|43:312|9:321,1,70,8|0,0:0|0:0,2:0:0:0:
156,356,108994,6,0,L|232:367,1,70,2|0,0:0|0:0,0:0:0:0:
283,295,109300,2,0,L|352:305,1,70,8|2,0:0|0:0,0:0:0:0:
246,211,109606,2,0,L|176:200,1,70,0|0,0:2|0:0,0:0:0:0:
93,236,109912,1,8,0:2:0:0:
16,161,110065,6,0,P|6:106|69:21,1,140,6|0,0:1|0:0,0:1:0:0:
123,80,110524,2,0,P|205:90|276:39,1,140,10|0,0:1|0:2,0:0:0:0:
343,33,110984,1,2,0:2:0:0:
343,33,111060,1,2,0:2:0:0:
343,33,111137,2,0,P|336:70|335:112,1,70,8|0,0:2|0:0,0:0:0:0:
396,168,111443,5,2,0:0:0:0:
477,208,111596,2,0,P|483:228|484:279,1,70,0|8,0:2|0:0,0:0:0:0:
422,343,111902,1,2,0:1:0:0:
335,312,112055,2,0,P|299:301|264:301,1,70,0|0,0:1|0:0,0:0:0:0:
189,348,112361,1,8,0:0:0:0:
116,273,112514,6,0,P|106:204|135:142,1,140,6|0,0:0|0:0,0:0:0:0:
213,199,112973,2,0,B|279:216|279:216|363:178,1,140,10|0,0:0|0:2,0:0:0:0:
421,135,113433,1,2,0:2:0:0:
421,135,113509,1,0,0:0:0:0:
421,135,113586,2,0,P|421:95|397:44,1,70,8|0,0:2|0:2,0:0:0:0:
321,9,113892,6,0,L|219:20,1,70,2|0,0:0|0:0,0:0:0:0:
214,100,114198,2,0,L|112:111,1,70,8|2,0:0|0:0,0:0:0:0:
71,64,114504,1,0,0:0:0:0:
71,64,114657,1,0,0:0:0:0:
65,154,114810,1,10,0:0:0:0:
243,189,115116,6,0,L|382:173,2,140,2|8|2,1:2|0:0|3:2,0:0:0:0:
159,195,115882,1,0,1:0:0:0:
75,204,116035,2,0,L|83:288,1,70,8|0,0:0|3:0,0:0:0:0:
93,356,116341,1,2,1:2:0:0:
93,356,116494,1,0,1:0:0:0:
174,345,116647,2,0,L|299:331,1,105,8|8,0:0|2:0,0:0:0:0:
303,333,116953,6,0,P|289:280|296:258,1,70,8|8,2:2|2:3,0:0:0:0:
401,293,117259,2,0,P|404:258|390:226,1,70,4|8,0:3|2:3,0:0:0:0:
314,157,117565,5,8,0:0:0:0:
314,157,117718,1,8,0:0:0:0:
314,157,118637,6,0,P|239:172|176:131,1,154.000004699707,6|0,0:2|0:0,0:0:0:0:
176,132,119019,1,8,0:0:0:0:
176,132,119096,1,8,0:0:0:0:
154,225,119249,1,8,0:2:0:0:
314,157,119555,5,8,0:3:0:0:
345,245,119708,1,4,0:3:0:0:
345,245,119861,1,4,0:3:0:0:
431,191,120014,6,0,P|445:135|412:58,1,125.999996154785,6|0,1:2|0:0,0:0:0:0:
423,71,120473,1,0,1:0:0:0:
337,111,120626,2,0,P|282:119|213:81,1,125.999996154785,8|0,0:0|0:0,0:0:0:0:
143,15,121086,2,0,L|228:4,1,70,6|0,1:2|0:0,0:0:0:0:
210,106,121392,2,0,L|125:117,1,70,8|0,0:0|1:0,0:0:0:0:
41,97,121698,5,8,0:0:0:0:
41,97,121774,1,8,0:0:0:0:
41,97,121851,1,8,0:0:0:0:
9,174,122004,1,8,0:0:0:0:
80,217,122157,2,0,L|154:205,1,70,8|0,0:0|1:0,0:0:0:0:
231,122,122463,5,8,1:0:0:0:
231,122,122616,1,8,1:0:0:0:
420,192,123511,6,0,P|463:199|505:314,1,154.000004699707,6|8,1:2|0:0,0:0:0:0:
487,384,123970,1,8,0:0:0:0:
397,361,124123,1,8,0:3:0:0:
402,171,124429,5,8,0:3:0:0:
477,117,124578,1,4,0:3:0:0:
477,117,124727,1,4,0:3:0:0:
381,71,124893,6,2,L|222:55,1,140,6|0,1:2|0:1,0:1:0:0:
156,152,125371,2,2,L|295:166,1,140,6|0,1:2|0:1,0:1:0:0:
361,276,125839,2,2,L|221:261,1,140,6|6,1:2|1:1,0:1:0:0:
0,371,127361,6,0,L|81:358,1,77.0000023498536,14|0,0:0|0:0,0:0:0:0:
17,283,127667,2,0,L|98:270,1,77.0000023498536,10|0,0:0|0:0,0:0:0:0:
214,324,127973,5,2,0:2:0:0:
276,255,128126,2,0,P|289:179|246:103,1,154.000004699707
167,86,128585,2,0,L|324:52,1,154.000004699707,2|8,0:2|0:0,0:0:0:0:
420,73,129044,2,0,P|421:33|406:-2,1,77.0000023498536,2|0,0:2|0:0,0:0:0:0:
325,61,129350,1,2,0:2:0:0:
325,61,129427,1,0,0:0:0:0:
325,61,129503,2,0,P|324:101|339:136,1,77.0000023498536,8|0,0:0|0:0,0:0:0:0:
433,195,129809,5,2,0:0:0:0:
508,277,129963,1,2,0:0:0:0:
508,277,130039,1,0,0:0:0:0:
508,277,130116,2,0,P|510:316|497:351,1,77.0000023498536,8|0,0:0|0:0,0:0:0:0:
387,382,130422,5,2,0:2:0:0:
312,325,130575,2,0,B|258:312|258:312|223:332|223:332|154:317,1,154.000004699707,0|0,0:2|0:2,0:0:0:0:
65,372,131034,2,0,P|51:306|109:231,1,154.000004699707,2|8,0:2|0:0,0:0:0:0:
79,148,131493,2,0,L|2:159,1,77.0000023498536,2|0,0:2|0:0,0:0:0:0:
96,237,131799,2,0,L|172:225,1,77.0000023498536,2|8,0:2|0:0,0:0:0:0:
232,126,132105,5,0,0:0:0:0:
232,126,132182,1,0,0:0:0:0:
232,126,132258,2,0,L|241:23,1,77.0000023498536,2|0,0:0|0:0,0:0:0:0:
318,157,132565,2,0,L|324:81,1,77.0000023498536,10|0,0:0|0:0,0:0:0:0:
402,2,132871,5,2,0:2:0:0:
479,52,133024,1,0,0:0:0:0:
418,122,133177,1,8,0:0:0:0:
418,122,133330,1,0,0:0:0:0:
485,184,133483,2,0,P|501:248|479:332,1,154.000004699707,2|8,0:2|0:0,0:0:0:0:
401,382,133942,2,0,P|345:360|227:363,1,154.000004699707,2|0,0:2|0:0,0:0:0:0:
163,382,134401,2,0,P|164:345|180:300,1,77.0000023498536,10|0,0:2|0:0,0:0:0:0:
252,210,134707,6,0,P|328:210|400:185,1,154.000004699707,2|10,0:1|0:2,0:0:0:0:
467,119,135167,1,0,0:0:0:0:
409,46,135320,2,0,P|372:31|325:27,1,77.0000023498536,2|0,0:1|0:0,0:0:0:0:
251,64,135626,2,0,P|214:49|167:45,1,77.0000023498536,10|0,0:2|0:0,0:0:0:0:
69,93,135932,6,0,P|40:156|37:252,1,154.000004699707,2|8,0:0|0:0,0:0:0:0:
49,330,136391,1,2,0:1:0:0:
133,367,136544,2,0,P|176:356|217:353,1,77.0000023498536
298,374,136850,1,14,0:2:0:0:
476,298,137156,6,0,L|463:189,1,77.0000023498536,6|0,0:0|0:0,0:0:0:0:
391,295,137463,2,0,L|378:186,1,77.0000023498536,10|0,0:0|0:0,0:0:0:0:
280,169,137769,5,2,0:2:0:0:
280,169,137922,1,0,0:0:0:0:
255,258,138075,1,8,0:0:0:0:
164,277,138228,1,0,0:0:0:0:
85,228,138381,2,0,P|72:161|99:62,1,154.000004699707,2|8,0:2|0:0,0:0:0:0:
161,10,138840,2,0,L|177:88,1,77.0000023498536,2|0,0:2|0:0,0:0:0:0:
261,142,139146,1,2,0:2:0:0:
261,142,139223,1,0,0:0:0:0:
261,142,139299,2,0,L|276:66,1,77.0000023498536,8|0,0:0|0:0,0:0:0:0:
373,12,139605,6,0,L|474:-5,1,77.0000023498536,2|0,0:1|0:0,0:0:0:0:
409,90,139912,2,0,L|510:72,1,77.0000023498536,10|0,0:0|0:0,0:0:0:0:
411,178,140218,5,2,0:2:0:0:
475,243,140371,1,0,0:0:0:0:
397,293,140524,1,8,0:0:0:0:
397,293,140677,1,0,0:0:0:0:
333,228,140830,2,0,P|283:203|171:212,1,154.000004699707,2|8,0:2|0:0,0:0:0:0:
125,274,141289,2,0,P|132:312|121:349,1,77.0000023498536,2|0,0:2|0:0,0:0:0:0:
33,279,141595,2,0,P|27:237|44:195,1,77.0000023498536,2|8,0:2|0:0,0:0:0:0:
118,126,141901,5,0,0:0:0:0:
118,126,141978,1,0,0:0:0:0:
118,126,142054,2,0,L|209:113,1,77.0000023498536,2|0,0:1|0:0,0:0:0:0:
213,225,142361,2,0,L|304:238,1,77.0000023498536,10|0,0:2|0:0,0:0:0:0:
378,188,142667,1,2,0:1:0:0:
378,188,142820,1,0,0:0:0:0:
414,286,142973,1,10,0:2:0:0:
414,286,143126,1,0,0:0:0:0:
496,229,143279,6,0,L|499:181,3,38.5000011749268
479,156,143585,2,0,L|482:108,3,38.5000011749268
462,83,143891,2,0,L|402:74,3,38.5000011749268
389,95,144197,2,0,L|329:86,3,38.5000011749268
312,70,144503,6,2,B|275:32|195:47|195:47|214:103,1,167.999994873047,6|8,0:0|0:0,0:0:0:0:
282,161,144963,1,0,0:0:0:0:
282,161,145039,1,0,0:0:0:0:
282,161,145116,2,0,P|297:211|293:250,1,83.9999974365235
239,316,145422,2,0,L|146:328,1,83.9999974365235,8|0,0:0|0:0,0:0:0:0:
67,375,145728,6,2,P|52:331|71:275,1,83.9999974365235,2|0,0:0|0:0,0:1:0:0:
68,276,145957,1,2,0:0:0:0:
80,259,146034,2,0,P|86:217|71:179,1,83.9999974365235,8|2,0:0|0:0,0:0:0:0:
9,111,146340,2,2,B|47:146|47:146|111:147|139:78,1,167.999994873047,2|8,0:0|0:0,0:0:0:0:
223,13,146799,5,2,0:2:0:0:
223,13,146876,1,2,0:2:0:0:
223,13,146952,2,2,B|234:77|296:90|296:90|371:49,1,167.999994873047,4|8,0:2|0:0,0:1:0:0:
433,16,147412,2,2,P|487:42|487:161,1,167.999994873047,2|0,0:2|0:0,0:1:0:0:
500,218,147871,1,8,0:0:0:0:
416,257,148024,5,0,0:0:0:0:
416,257,148100,1,0,0:0:0:0:
416,257,148177,2,0,L|330:240,1,83.9999974365235,2|0,0:0|0:0,0:0:0:0:
240,280,148483,2,0,L|257:194,1,83.9999974365235,10|0,0:0|0:0,0:0:0:0:
219,103,148789,2,0,L|305:120,1,83.9999974365235,2|0,0:0|0:0,0:0:0:0:
369,75,149095,1,10,0:0:0:0:
454,146,149248,5,0,0:0:0:0:
454,146,149325,1,0,0:0:0:0:
454,146,149401,2,0,P|467:212|429:319,1,167.999994873047,6|10,0:0|0:2,0:0:0:0:
369,369,149861,1,0,0:0:0:0:
296,312,150014,2,0,L|286:211,1,83.9999974365235,2|0,0:0|0:0,0:0:0:0:
207,347,150320,2,0,L|197:246,1,83.9999974365235,10|0,0:2|0:0,0:0:0:0:
105,201,150626,6,0,B|60:223|60:223|-10:201|7:128,1,167.999994873047,2|10,0:0|0:2,0:0:0:0:
42,38,151085,1,0,0:0:0:0:
126,93,151238,2,0,B|168:97|168:97|206:82,1,83.9999974365235,2|0,0:0|0:0,0:0:0:0:
284,16,151544,1,10,0:2:0:0:
284,16,151697,1,0,0:0:0:0:
378,70,151850,6,2,P|408:120|397:230,1,167.999994873047,2|10,0:0|0:0,0:0:0:0:
334,303,152309,1,0,0:0:0:0:
334,303,152386,1,0,0:0:0:0:
334,303,152463,2,0,L|228:293,1,83.9999974365235,2|0,0:0|0:0,0:0:0:0:
177,215,152769,2,0,L|283:205,1,83.9999974365235,10|0,0:0|0:0,0:0:0:0:
329,131,153075,5,2,0:0:0:0:
329,131,153228,1,0,0:0:0:0:
289,47,153381,1,10,0:1:0:0:
199,25,153534,2,0,B|135:34|135:34|112:53|112:53|33:67,1,167.999994873047
93,143,153993,2,0,P|77:155|59:234,1,83.9999974365235,12|0,0:2|0:0,0:0:0:0:
114,313,154299,6,0,P|197:274|285:287,1,167.999994873047,6|10,0:0|0:2,0:0:0:0:
342,339,154758,1,0,0:0:0:0:
418,285,154912,2,0,P|424:252|411:198,1,83.9999974365235,2|0,0:0|0:0,0:0:0:0:
362,134,155218,1,10,0:2:0:0:
277,196,155371,5,2,0:0:0:0:
277,196,155447,1,0,0:0:0:0:
277,196,155524,2,0,B|226:228|226:228|108:213,1,167.999994873047,0|10,0:0|0:0,0:0:0:0:
57,282,155983,1,0,0:0:0:0:
8,203,156136,2,0,P|12:141|31:113,1,83.9999974365235,2|0,0:0|0:0,0:0:0:0:
114,111,156442,2,0,P|136:53|163:32,1,83.9999974365235,10|0,0:0|0:0,0:0:0:0:
255,45,156748,6,2,B|289:39|289:39|298:43|298:43|340:37,1,83.9999974365235,2|0,0:1|0:0,0:1:0:0:
357,54,156978,1,2,0:0:0:0:
372,67,157054,2,0,B|406:61|406:61|415:65|415:65|457:59,1,83.9999974365235,8|2,0:0|0:0,0:1:0:0:
512,140,157361,6,2,P|521:166|506:231,1,83.9999974365235,2|0,0:0|0:0,0:1:0:0:
507,241,157590,1,2,0:0:0:0:
494,258,157667,2,0,B|460:252|460:252|451:256|451:256|409:250,1,83.9999974365235,8|2,0:0|0:0,0:1:0:0:
328,300,157973,6,0,B|316:247|316:247|330:200|330:200|307:107,1,167.999994873047,0|8,0:0|0:0,0:0:0:0:
243,68,158432,1,0,0:0:0:0:
243,68,158508,1,0,0:0:0:0:
243,68,158585,2,0,P|188:81|153:80,1,83.9999974365235
314,137,158891,2,0,P|369:150|404:149,1,83.9999974365235,8|0,0:0|0:0,0:0:0:0:
232,194,159197,6,0,B|197:219|197:219|183:280|235:350,1,167.999994873047,6|10,0:1|0:0,0:0:0:0:
308,378,159656,1,0,0:0:0:0:
388,332,159809,2,0,P|405:289|395:231,1,83.9999974365235,2|0,0:0|0:0,0:0:0:0:
340,161,160116,5,10,0:0:0:0:
340,161,160269,1,0,0:0:0:0:
232,194,160422,2,0,B|179:200|179:200|163:133|88:114,1,167.999994873047,2|10,0:0|0:0,0:0:0:0:
2,182,160881,5,2,0:2:0:0:
2,182,160957,1,10,0:2:0:0:
2,182,161034,2,0,L|16:271,1,83.9999974365235,10|8,0:1|0:3,0:0:0:0:
40,368,161340,2,0,P|84:358|135:349,1,83.9999974365235,4|4,0:3|0:3,0:0:0:0:
234,380,161646,5,4,1:2:0:0:
116,216,162105,1,4,1:2:0:0:
280,98,162565,1,4,1:2:0:0:
398,262,163024,1,4,1:2:0:0:
238,384,163483,1,4,1:2:0:0:
238,384,163789,1,4,1:2:0:0:
298,299,164095,6,2,P|310:252|302:206,1,77.0000023498536,6|0,0:2|0:0,0:1:0:0:
307,224,164325,1,0,0:0:0:0:
307,224,164401,1,8,0:0:0:0:
232,168,164554,2,2,P|200:209|95:198,1,154.000004699707,6|0,0:2|0:0,0:1:0:0:
47,143,165014,2,2,L|67:312,1,154.000004699707,12|0,0:2|0:0,0:1:0:0:
129,361,165473,6,0,L|237:344,1,77.0000023498536,8|2,0:0|0:3,0:0:0:0:
311,383,165779,1,0,0:0:0:0:
311,383,165855,1,0,0:0:0:0:
311,383,165932,2,0,L|295:303,1,77.0000023498536,8|8,0:0|0:3,0:0:0:0:
294,219,166238,2,0,L|206:235,1,77.0000023498536,4|4,0:3|0:3,0:0:0:0:
111,207,166544,6,2,P|88:158|134:46,1,167.999994873047,8|8,0:0|0:3,0:1:0:0:
222,63,167003,2,2,P|261:25|382:35,1,167.999994873047,4|0,0:3|0:0,0:1:0:0:
432,106,167463,2,2,P|479:132|508:249,1,167.999994873047,8|0,0:3|0:0,0:1:0:0:
454,318,167922,2,2,L|278:298,1,167.999994873047,4|0,0:3|0:0,0:1:0:0:
211,358,168381,5,14,0:2:0:0:
211,358,168534,1,8,0:3:0:0:
169,270,168687,1,14,0:2:0:0:
169,270,168840,1,4,0:3:0:0:
251,215,168993,6,2,B|331:184|340:82|246:24|166:76|212:101|77:167|12:36|95:-20|147:66,1,448,6|0,0:0|0:0,0:1:0:0:
176,151,170371,5,8,0:0:0:0:
176,151,170447,1,8,0:0:0:0:
176,151,170524,2,0,L|162:215,1,52.5000020027161,8|8,0:0|0:3,0:0:0:0:
51,292,170983,2,0,P|27:285|-13:283,2,52.5000020027161,8|4|4,0:3|0:3|0:3,0:0:0:0:
112,348,171442,6,0,P|174:361|258:297,1,173.599993112793,6|8,1:2|0:2,0:2:0:0:
220,200,172361,2,0,L|167:208,1,43.3999982781983,2|0,0:2|1:2,0:0:0:0:
86,155,172820,1,0,3:2:0:0:
86,155,172896,1,0,3:2:0:0:
86,155,172973,2,0,P|72:118|87:63,2,86.7999965563966,0|8|0,1:2|0:2|3:2,0:2:0:0:
191,219,173891,6,0,P|236:204|293:197,1,86.7999965563966,2|2,1:2|0:3,0:2:0:0:
333,251,174350,2,0,P|326:274|325:303,1,43.3999982781983,2|8,0:2|0:2,0:2:0:0:
406,361,174809,1,0,0:2:0:0:
406,361,174963,2,0,P|449:363|492:343,1,86.7999965563966,0|0,1:2|1:2,0:2:0:0:
487,266,175422,2,0,P|501:224|499:181,2,86.7999965563966,2|8|2,3:2|0:2|3:2,0:0:0:0:
397,212,176340,6,0,P|353:197|306:191,1,86.7999965563966,2|2,1:2|0:3,0:2:0:0:
242,155,176799,1,2,0:2:0:0:
242,155,176952,2,0,P|207:172|142:185,2,86.7999965563966,8|0|0,0:2|0:2|0:2,0:2:0:0:
316,95,177718,5,0,3:2:0:0:
316,95,177794,1,0,3:2:0:0:
316,95,177871,2,0,P|318:63|351:15,1,86.7999965563966,0|8,1:2|0:2,0:2:0:0:
422,45,178330,2,0,P|453:37|508:53,1,86.7999965563966,0|0,1:2|3:2,0:0:0:0:
474,138,178789,6,0,B|496:167|496:167|488:232,1,86.7999965563966,2|0,1:2|0:2,0:2:0:0:
439,279,179248,1,0,3:2:0:0:
439,279,179325,1,0,3:2:0:0:
439,279,179401,2,0,P|407:261|351:258,1,86.7999965563966,8|0,0:2|1:2,0:2:0:0:
286,286,179861,1,0,1:2:0:0:
209,189,180167,5,8,0:2:0:0:
209,189,180320,2,0,P|238:180|260:166,1,43.3999982781983,2|8,1:3|0:2,0:0:0:0:
258,168,180549,1,8,0:2:0:0:
266,161,180626,2,0,P|269:133|266:110,1,43.3999982781983,8|8,0:2|0:3,0:0:0:0:
212,60,180932,2,0,P|192:57|157:56,1,43.3999982781983,4|4,0:3|0:3,0:0:0:0:
90,108,181238,6,0,P|81:147|81:225,1,105.000004005432,6|0,1:2|0:2,0:2:0:0:
102,292,181697,1,0,1:2:0:0:
102,292,181850,2,0,P|160:265|217:273,1,105.000004005432,8|0,0:2|0:2,0:2:0:0:
276,292,182309,2,0,L|290:354,1,52.5000020027161,2|0,1:2|0:2,0:2:0:0:
369,380,182616,1,0,3:2:0:0:
369,380,182692,1,0,3:2:0:0:
369,380,182769,2,0,P|404:365|473:375,2,105.000004005432,0|8|0,1:2|0:2|3:2,0:2:0:0:
276,292,183687,6,0,P|272:235|302:180,1,105.000004005432,2|2,1:2|0:3,0:2:0:0:
361,152,184146,2,0,L|374:220,1,52.5000020027161,2|8,0:2|0:2,0:2:0:0:
452,202,184452,2,0,L|439:134,1,52.5000020027161,2|0,0:2|0:2,0:2:0:0:
394,84,184758,2,0,P|345:108|291:89,1,105.000004005432,0|8,1:2|0:2,0:2:0:0:
211,36,185218,6,0,L|218:95,1,52.5000020027161,2|8,1:3|0:2,0:0:0:0:
216,98,185447,1,8,0:2:0:0:
215,108,185524,2,0,L|208:167,1,52.5000020027161,8|8,0:2|0:2,0:0:0:0:
283,210,185830,2,0,L|355:196,1,52.5000020027161,8|8,0:3|0:3,0:0:0:0:
424,241,186136,6,0,P|442:303|411:359,1,119.000002269745,6|0,1:2|0:2,0:2:0:0:
347,375,186595,1,0,1:2:0:0:
347,375,186748,2,0,L|205:353,1,119.000002269745,10|0,0:2|0:2,0:2:0:0:
145,364,187207,6,0,P|145:338|160:305,1,59.5000011348725,0|0,1:2|0:2,0:2:0:0:
229,265,187514,1,0,3:2:0:0:
229,265,187590,1,0,3:2:0:0:
229,265,187667,2,0,L|292:258,1,59.5000011348725,0|0,1:2|1:2,0:2:0:0:
344,197,187973,2,0,P|344:171|329:138,1,59.5000011348725,8|0,0:2|3:2,0:0:0:0:
231,57,188432,5,10,0:2:0:0:
231,57,188508,1,8,0:0:0:0:
231,57,188585,1,8,1:2:0:0:
164,102,188738,2,0,P|135:114|63:66,1,119.000002269745,8|2,2:2|1:2,0:0:0:0:
6,148,189197,2,0,L|13:215,1,59.5000011348725,8|8,0:0|0:0,0:0:0:0:
95,263,189503,2,0,L|101:203,1,59.5000011348725,0|0,1:3|1:3,0:0:0:0:
184,126,189809,6,0,P|220:135|272:127,1,70,12|0,0:2|2:2,0:2:0:0:
306,26,190116,2,0,P|272:17|237:19,1,70,12|0,0:2|2:2,0:2:0:0:
358,124,190422,6,0,P|350:164|364:203,1,83.9999974365235,12|0,0:2|2:2,0:2:0:0:
469,148,190728,2,0,P|476:107|462:68,1,83.9999974365235,12|0,0:2|2:2,0:2:0:0:
163,63,195932,6,0,P|111:47|53:60,1,105.000004005432,2|8,0:2|2:0,0:0:0:0:
54,181,196544,2,0,P|106:197|164:184,1,105.000004005432,0|8,0:0|2:0,0:0:0:0:
298,115,197156,6,0,P|346:96|413:110,1,105.000004005432,2|8,0:2|2:0,0:0:0:0:
419,246,197769,2,0,P|371:265|304:251,1,105.000004005432,0|8,0:0|2:0,0:0:0:0:
154,188,198381,5,2,1:2:0:0:
140,344,198687,1,8,2:0:0:0:
296,358,198993,1,2,1:2:0:0:
310,202,199299,1,8,2:0:0:0:
148,216,199605,6,0,L|69:230,1,64.3999978381348,10|8,0:2|0:0,0:0:0:0:
12,156,199912,2,0,L|-3:77,1,64.3999978381348,8|8,0:0|0:0,0:0:0:0:
69,21,200218,1,10,0:2:0:0:
69,21,200371,1,8,0:0:0:0:
151,73,200524,1,8,0:0:0:0:
151,73,200677,1,8,0:0:0:0:
250,29,200830,6,0,L|337:14,1,77.0000023498536,6|0,0:0|0:0,0:0:0:0:
277,106,201136,2,0,L|364:91,1,77.0000023498536,10|0,0:0|0:0,0:0:0:0:
451,31,201442,5,2,0:2:0:0:
451,31,201595,1,0,0:0:0:0:
437,122,201748,1,8,0:0:0:0:
483,201,201901,1,0,0:0:0:0:
459,290,202054,2,0,B|387:318|387:318|314:269,1,154.000004699707,2|8,0:2|0:0,0:0:0:0:
226,307,202514,2,0,P|224:345|216:392,1,77.0000023498536,2|0,0:2|0:0,0:0:0:0:
132,286,202820,1,2,0:2:0:0:
132,286,202896,1,0,0:0:0:0:
132,286,202973,2,0,P|134:248|142:201,1,77.0000023498536,8|0,0:0|0:0,0:0:0:0:
232,127,203279,6,0,L|331:115,1,77.0000023498536,2|0,0:1|0:0,0:0:0:0:
265,209,203585,2,0,L|364:197,1,77.0000023498536,10|0,0:0|0:0,0:0:0:0:
443,129,203891,5,2,0:2:0:0:
382,59,204044,1,0,0:0:0:0:
313,121,204197,1,8,0:0:0:0:
313,121,204350,1,0,0:0:0:0:
244,52,204503,2,0,P|196:32|84:40,1,154.000004699707,2|8,0:2|0:0,0:0:0:0:
53,126,204963,2,0,P|28:149|17:196,1,77.0000023498536,2|0,0:2|0:0,0:0:0:0:
52,282,205269,2,0,P|72:320|101:340,1,77.0000023498536,2|8,0:2|0:0,0:0:0:0:
203,384,205575,5,0,0:0:0:0:
203,384,205651,1,0,0:0:0:0:
203,384,205728,2,0,L|209:301,1,77.0000023498536,2|0,0:1|0:0,0:0:0:0:
305,269,206034,2,0,L|299:345,1,77.0000023498536,10|0,0:2|0:0,0:0:0:0:
222,215,206340,1,2,0:1:0:0:
222,215,206493,1,0,0:0:0:0:
306,174,206646,1,10,0:2:0:0:
306,174,206799,1,0,0:0:0:0:
220,118,206952,6,0,P|210:55|283:12,1,154.000004699707,2|8,0:0|3:2,0:0:0:0:
373,63,207412,1,8,3:2:0:0:
373,63,207488,1,8,3:2:0:0:
373,63,207565,2,0,L|379:116,3,38.5000011749268,8|8|8|8,3:2|3:2|3:2|3:2,0:0:0:0:
396,134,207871,2,0,L|402:187,3,38.5000011749268,8|8|8|8,3:3|3:3|3:3|3:3,0:0:0:0:
413,212,208177,6,0,L|318:200,1,83.9999974365235,14|0,0:0|0:0,0:0:0:0:
412,301,208483,2,0,L|317:289,1,83.9999974365235,10|0,0:0|0:0,0:0:0:0:
237,361,208789,5,2,0:2:0:0:
179,285,208942,2,0,B|163:234|163:234|179:189|179:189|153:110,1,167.999994873047
267,162,209401,2,0,P|325:179|398:98,1,167.999994873047,2|8,0:2|0:0,0:0:0:0:
346,21,209861,2,0,P|303:19|263:12,1,83.9999974365235,2|0,0:2|0:0,0:0:0:0:
161,31,210167,1,2,0:2:0:0:
169,38,210243,1,0,0:0:0:0:
169,38,210320,2,0,P|124:31|86:29,1,83.9999974365235,8|0,0:0|0:0,0:0:0:0:
20,119,210626,6,0,L|9:203,1,83.9999974365235,2|0,0:0|0:0,0:0:0:0:
97,166,210932,2,0,L|86:250,1,83.9999974365235,10|0,0:0|0:0,0:0:0:0:
129,353,211238,5,2,0:1:0:0:
129,353,211391,1,0,0:2:0:0:
227,319,211544,5,10,0:1:0:0:
227,319,211697,1,0,0:2:0:0:
324,366,211850,6,0,P|387:373|499:336,1,167.999994873047,2|8,0:2|0:0,0:0:0:0:
459,253,212309,2,0,P|475:216|473:168,1,83.9999974365235,2|0,0:2|0:0,0:0:0:0:
393,123,212616,2,0,P|383:85|348:41,1,83.9999974365235,2|8,0:2|0:0,0:0:0:0:
253,25,212922,5,0,0:0:0:0:
253,25,212998,1,0,0:0:0:0:
253,25,213075,2,0,L|243:133,1,83.9999974365235,2|0,0:0|0:0,0:0:0:0:
165,23,213381,2,0,L|155:131,1,83.9999974365235,10|0,0:0|0:0,0:0:0:0:
229,199,213687,5,2,0:2:0:0:
320,187,213840,1,0,0:0:0:0:
367,272,213993,1,8,0:0:0:0:
367,272,214146,1,0,0:0:0:0:
304,339,214299,2,0,P|237:314|129:326,1,167.999994873047,2|8,0:2|0:0,0:0:0:0:
58,384,214758,2,0,P|34:324|84:215,1,167.999994873047,2|0,0:2|0:0,0:0:0:0:
0,160,215218,2,0,B|31:151|31:151|38:140|38:140|74:129,1,83.9999974365235,10|0,0:2|0:0,0:0:0:0:
142,60,215524,6,0,B|202:106|202:106|251:120|284:77,1,167.999994873047,2|8,0:1|0:2,0:0:0:0:
351,15,215983,1,2,0:1:0:0:
437,48,216136,2,0,P|460:94|455:135,1,83.9999974365235,0|0,0:1|0:0,0:0:0:0:
392,190,216442,2,0,P|355:177|298:180,1,83.9999974365235,10|0,0:1|0:0,0:0:0:0:
244,266,216748,6,0,B|236:342|291:368|291:368|310:348|358:346,1,167.999994873047,2|8,0:1|0:0,0:0:0:0:
422,370,217207,1,2,0:1:0:0:
491,308,217361,2,0,P|498:274|486:210,1,83.9999974365235
423,163,217667,1,14,0:2:0:0:
260,257,217973,6,0,L|165:248,1,83.9999974365235,6|0,0:0|0:0,0:0:0:0:
233,345,218279,2,0,L|138:336,1,83.9999974365235,10|0,0:0|0:0,0:0:0:0:
51,384,218585,5,2,0:2:0:0:
51,384,218738,1,0,0:0:0:0:
3,304,218891,1,8,0:0:0:0:
79,252,219044,1,0,0:0:0:0:
24,177,219197,2,0,P|19:120|79:19,1,167.999994873047,2|8,0:2|0:0,0:0:0:0:
127,111,219656,2,0,P|173:116|211:104,1,83.9999974365235,2|0,0:2|0:0,0:0:0:0:
278,28,219963,1,2,0:2:0:0:
278,28,220039,1,0,0:0:0:0:
278,28,220116,2,0,P|318:16|359:22,1,83.9999974365235,8|0,0:0|0:0,0:0:0:0:
458,90,220422,6,0,L|471:191,1,83.9999974365235,2|0,0:1|0:0,0:0:0:0:
379,126,220728,2,0,L|392:227,1,83.9999974365235,10|0,0:0|0:0,0:0:0:0:
291,144,221034,5,2,0:2:0:0:
264,232,221187,1,0,0:0:0:0:
176,205,221340,1,8,0:0:0:0:
176,205,221493,1,0,0:0:0:0:
203,117,221646,2,0,P|197:70|89:42,1,167.999994873047,2|8,0:2|0:0,0:0:0:0:
19,116,222105,2,0,L|28:203,1,83.9999974365235,2|0,0:2|0:0,0:0:0:0:
50,307,222412,2,0,P|90:296|148:289,1,83.9999974365235,2|8,0:2|0:0,0:0:0:0:
257,301,222718,5,0,0:0:0:0:
257,301,222794,1,0,0:0:0:0:
257,301,222871,2,0,P|252:356|261:386,1,83.9999974365235,2|0,0:1|0:0,0:0:0:0:
372,317,223177,2,0,P|377:262|368:232,1,83.9999974365235,10|0,0:2|0:0,0:0:0:0:
294,175,223483,1,2,0:1:0:0:
294,175,223636,1,0,0:0:0:0:
206,222,223789,1,10,0:2:0:0:
206,222,223942,1,0,0:0:0:0:
105,180,224095,6,0,B|47:122|61:50|61:50|143:13|143:13|125:57|148:91,1,315.000012016297,6|0,1:2|0:1,2:0:0:0:
263,152,225320,5,4,0:2:0:0:
417,56,225779,1,4,0:2:0:0:
512,212,226238,1,4,0:2:0:0:
357,306,226697,1,4,0:2:0:0:
267,156,227156,1,4,0:2:0:0:
267,156,227463,1,4,0:2:0:0:
358,192,227769,6,0,P|400:188|443:163,1,77.0000023498536,4|0,0:2|0:0,0:0:0:0:
430,172,227998,1,8,0:0:0:0:
430,172,228075,1,8,0:0:0:0:
364,108,228228,2,0,L|203:95,1,154.000004699707,4|0,0:2|0:0,0:0:0:0:
152,23,228687,2,0,P|115:88|140:158,1,154.000004699707,12|0,0:2|0:0,0:0:0:0:
210,218,229146,6,0,L|294:204,1,77.0000023498536,8|8,0:0|3:2,0:0:0:0:
361,263,229452,1,8,3:2:0:0:
361,263,229529,1,8,3:2:0:0:
361,263,229605,2,0,L|369:311,3,38.5000011749268,8|8|8|8,3:3|3:3|3:3|3:3,0:0:0:0:
350,336,229912,2,4,L|302:344,3,38.5000011749268,4|4|4|4,3:3|3:3|3:3|3:3,0:3:0:0:
279,369,230218,6,0,P|232:355|158:365,1,83.9999974365235,10|8,0:0|0:0,0:0:0:0:
115,374,230524,1,8,0:3:0:0:
130,291,230677,2,0,L|149:200,1,83.9999974365235,10|8,0:0|0:0,0:0:0:0:
206,149,230983,1,4,0:3:0:0:
269,213,231136,2,0,P|315:232|392:215,1,90.9999958343508,10|8,0:0|0:0,0:0:0:0:
438,192,231442,1,8,0:3:0:0:
468,106,231595,2,0,P|467:60|435:14,1,90.9999958343508,10|8,0:0|0:0,0:0:0:0:
368,72,231901,1,4,0:3:0:0:
302,12,232054,6,0,L|256:24,3,41.9999987182618,8|8|8|8,0:0|0:0|0:0|0:0,0:0:0:0:
229,50,232361,2,0,L|183:62,3,41.9999987182618,8|8|8|8,0:3|0:3|0:3|0:3,0:0:0:0:
139,52,232667,6,2,P|117:107|134:161,1,97.9999970092774,6|0,0:2|0:0,0:1:0:0:
188,229,232973,1,10,0:0:0:0:
286,185,233126,2,2,P|332:168|380:172,1,97.9999970092774,6|0,0:2|0:0,0:1:0:0:
479,214,233432,1,8,0:0:0:0:
479,214,233585,1,8,0:0:0:0:
449,107,233738,6,0,B|437:147|417:165|417:165|415:209|450:226|450:226|442:243|442:243|461:306|387:364|387:364|353:296|366:261|366:261|330:209|322:147|368:100|368:100|328:129|290:117|290:117|322:64|286:28|286:28|288:22|288:22|181:49|190:165|254:193|254:193|214:197|188:229|188:229|108:185|124:84|144:29|144:29|96:55|58:33|58:33|12:185|93:289|180:312|180:312|71:305|20:382,1,1915.20004675781,6|0,0:2|0:0,0:0:0:0:
