osu file format v14

[General]
AudioFilename: audio.mp3
AudioLeadIn: 0
PreviewTime: 66195
Countdown: 1
SampleSet: Soft
StackLeniency: 0.3
Mode: 0
LetterboxInBreaks: 0
WidescreenStoryboard: 1

[Editor]
Bookmarks: 11588,22375,34510,45296,53386,56083,66701,89790
DistanceSpacing: 0.9
BeatDivisor: 4
GridSize: 8
TimelineZoom: 1.6

[Metadata]
Title:Date A Live (TV size)
TitleUnicode:デート・ア・ライブ (TV size)
Artist:sweet ARMS
ArtistUnicode:sweet ARMS
Creator:cococolaco
Version:Hard
Source:Date A Live
Tags:date_a_live tohka yoshino kurumi kotori yuzuru kaguya yamai princess hermit efreet ifrit berserk nightmare
BeatmapID:1406437
BeatmapSetID:664491

[Difficulty]
HPDrainRate:5
CircleSize:4
OverallDifficulty:6
ApproachRate:8.3
SliderMultiplier:0.999999999999999
SliderTickRate:1

[Events]
//Background and Video events
0,0,"tohkaedgy.png",0,0
//Break Periods
//Storyboard Layer 0 (Background)
//Storyboard Layer 1 (Fail)
//Storyboard Layer 2 (Pass)
//Storyboard Layer 3 (Foreground)
//Storyboard Sound Samples

[TimingPoints]
802.5,337.078651685393,4,2,0,50,1,0
22375,-76.9230769230769,4,2,0,50,0,0
66701,-76.9230769230769,4,2,0,100,0,1
72263,-66.6666666666667,4,2,0,100,0,1
76139,-66.6666666666667,4,2,0,100,0,1
77487,-76.9230769230769,4,2,0,100,0,1
85746,-100,4,2,0,100,0,0
89791,-66.6666666666667,4,2,0,100,0,0

[HitObjects]
76,166,802,6,0,B|130:107|130:107|202:111,2,150
76,166,2319,1,0,0:0:0:0:
218,209,2824,2,0,L|199:111,1,99.9999999999999
289,154,3499,6,0,B|302:232|302:232|254:287,2,150
289,154,5016,1,0,0:0:0:0:
167,238,5521,2,0,L|255:283,1,99.9999999999999
235,185,6195,6,0,B|163:149|163:149|147:79,2,150
235,185,7712,1,0,0:0:0:0:
260,41,8217,2,0,L|165:71,1,99.9999999999999
133,166,8892,6,0,B|209:143|209:143|269:183,2,150
133,166,10240,1,0,0:0:0:0:
133,166,10409,1,0,0:0:0:0:
212,288,10914,2,0,L|260:200,1,99.9999999999999
184,134,11589,6,0,P|289:106|330:131,2,150
184,134,13105,1,0,0:0:0:0:
112,265,13611,2,0,L|220:265,1,99.9999999999999
233,170,14285,6,0,P|301:223|303:297,2,150
229,166,15802,1,0,0:0:0:0:
112,265,16308,2,0,L|112:157,1,99.9999999999999
134,67,16982,6,0,P|196:109|211:182,2,150
134,67,18499,1,0,0:0:0:0:
212,194,19004,2,0,L|320:194,1,99.9999999999999
407,209,19678,6,0,P|390:137|329:97,2,150
411,205,21195,1,0,0:0:0:0:
344,279,21532,1,0,0:0:0:0:
344,279,21701,2,0,L|278:267,1,50
361,196,22038,2,0,L|410:204,1,50
327,122,22375,6,0,L|337:49,2,64.9999970245362,0|0|8,0:0|0:0|0:0,0:0:0:0:
389,208,22881,1,0,0:0:0:0:
389,208,23049,2,0,L|379:281,2,64.9999970245362,0|0|8,0:0|0:0|0:0,0:0:0:0:
462,271,23555,6,0,B|428:336|428:336|354:352,1,129.999994049072
315,263,24060,1,8,0:0:0:0:
315,263,24229,1,0,0:0:0:0:
315,263,24398,2,0,L|388:273,2,64.9999970245362,0|0|8,0:0|0:0|0:0,0:0:0:0:
305,164,24903,6,0,B|241:200|241:200|227:275,1,129.999994049072
141,296,25409,1,8,0:0:0:0:
141,296,25578,1,0,0:0:0:0:
141,296,25747,2,0,L|153:226,2,64.9999970245362,0|0|8,0:0|0:0|0:0,0:0:0:0:
71,229,26251,6,0,B|107:165|107:165|182:151,2,129.999994049072
151,231,27094,2,0,B|165:268|165:268|164:294,1,64.9999970245362
224,218,27431,2,0,B|238:255|238:255|237:281,1,64.9999970245362,8|0,0:0|0:0,0:0:0:0:
304,219,27768,6,0,B|269:154|269:154|194:139,1,129.999994049072,0|8,0:0|0:0,0:0:0:0:
178,59,28274,1,0,0:0:0:0:
178,59,28442,1,0,0:0:0:0:
178,59,28611,2,0,L|257:76,1,64.9999970245362,0|8,0:0|0:0,0:0:0:0:
319,82,28948,6,0,B|317:123|317:123|304:153|302:150,2,64.9999970245362
241,72,29454,2,0,B|239:113|239:113|226:143|224:140,1,64.9999970245362
145,170,29791,2,0,P|169:207|204:225,1,64.9999970245362
264,265,30128,2,0,P|243:290|215:305,1,64.9999970245362
118,311,30465,6,0,P|142:236|205:217,1,129.999994049072
264,265,30971,1,0,0:0:0:0:
264,265,31139,2,0,L|264:184,2,64.9999970245362
267,362,31645,1,0,0:0:0:0:
349,310,31813,6,0,B|369:247|369:247|369:177,1,129.999994049072
450,130,32319,2,0,P|373:86|317:101,1,129.999994049072
278,169,32824,1,0,0:0:0:0:
278,169,32993,1,0,0:0:0:0:
369,183,33162,6,0,P|375:219|359:255,1,64.9999970245362
326,326,33499,1,0,0:0:0:0:
326,326,33583,1,0,0:0:0:0:
326,326,33667,1,0,0:0:0:0:
410,328,33836,5,0,0:0:0:0:
369,183,34004,5,0,0:0:0:0:
189,92,34510,6,0,P|179:133|171:178,1,64.9999970245362,0|0,3:0|0:0,0:0:0:0:
211,293,34847,2,0,P|221:252|229:207,1,64.9999970245362,0|0,3:0|0:0,0:0:0:0:
174,155,35184,1,0,3:0:0:0:
229,236,35353,1,0,0:0:0:0:
229,236,35521,2,0,P|258:245|292:250,1,64.9999970245362,0|0,3:0|0:0,0:0:0:0:
405,153,35858,6,0,P|371:144|341:138,1,64.9999970245362,0|0,3:0|0:0,0:0:0:0:
292,222,36195,1,0,3:0:0:0:
292,222,36364,2,0,P|260:229|228:236,1,64.9999970245362,0|0,0:0|3:0,0:0:0:0:
173,154,36701,2,0,P|179:122|188:91,1,64.9999970245362,0|0,0:0|3:0,0:0:0:0:
323,90,37038,6,0,P|337:121|344:153,1,64.9999970245362,0|0,0:0|3:0,0:0:0:0:
266,209,37375,1,0,0:0:0:0:
266,209,37544,2,0,P|258:240|251:272,1,64.9999970245362,0|0,3:0|3:0,0:0:0:0:
364,230,37881,1,0,3:0:0:0:
406,302,38049,5,0,0:0:0:0:
364,230,38218,1,0,3:0:0:0:
446,229,38386,1,0,0:0:0:0:
324,302,38555,6,0,B|275:248|275:248|275:181,1,129.999994049072,0|0,3:0|3:0,0:0:0:0:
274,106,39060,2,0,P|305:104|338:105,1,64.9999970245362,0|0,0:0|3:0,0:0:0:0:
202,146,39398,2,0,P|170:147|137:146,1,64.9999970245362,0|0,0:0|3:0,0:0:0:0:
290,43,39735,1,0,3:0:0:0:
290,43,39903,6,0,P|282:73|273:104,1,64.9999970245362,0|0,3:0|0:0,0:0:0:0:
186,208,40240,2,0,P|192:176|201:144,1,64.9999970245362,0|0,3:0|0:0,0:0:0:0:
282,125,40577,1,0,3:0:0:0:
202,145,40746,1,0,0:0:0:0:
202,145,40914,2,0,P|170:137|139:128,1,64.9999970245362,0|0,3:0|0:0,0:0:0:0:
54,17,41251,6,0,P|84:23|116:32,1,64.9999970245362,0|0,3:0|0:0,0:0:0:0:
169,104,41589,1,0,3:0:0:0:
169,104,41757,2,0,P|200:96|231:87,1,64.9999970245362,0|0,0:0|3:0,0:0:0:0:
349,53,42094,2,0,P|318:43|287:36,1,64.9999970245362,0|0,0:0|3:0,0:0:0:0:
275,190,42431,1,0,0:0:0:0:
275,190,42600,6,0,P|337:169|346:49,1,194.999991073609
272,59,43274,2,0,L|271:255,1,194.999991073609
277,340,43948,2,0,P|337:314|337:194,1,194.999991073609
342,199,44959,2,0,L|342:131,1,64.9999970245362
209,77,45296,5,0,0:0:0:0:
260,143,45465,1,0,0:0:0:0:
292,68,45633,1,8,0:0:0:0:
178,154,45802,1,0,0:0:0:0:
225,221,45971,1,0,0:0:0:0:
279,289,46139,1,0,0:0:0:0:
279,289,46308,6,0,P|290:258|296:226,1,64.9999970245362,8|0,0:0|0:0,0:0:0:0:
281,85,46645,2,0,P|270:115|264:147,1,64.9999970245362
228,227,46982,1,8,0:0:0:0:
228,227,47150,2,0,P|258:237|290:243,1,64.9999970245362
326,130,47487,2,0,P|295:140|264:147,1,64.9999970245362,0|8,0:0|0:0,0:0:0:0:
161,216,47824,6,0,P|167:184|177:153,1,64.9999970245362
247,84,48162,1,0,0:0:0:0:
247,84,48330,2,0,P|257:114|263:146,1,64.9999970245362,8|0,0:0|0:0,0:0:0:0:
210,202,48667,2,0,P|200:232|194:264,1,64.9999970245362
269,289,49004,2,0,P|279:319|285:351,1,64.9999970245362,8|0,0:0|0:0,0:0:0:0:
139,278,49341,6,0,P|200:281|226:225,1,129.999994049072,0|8,0:0|0:0,0:0:0:0:
193,90,49847,2,0,P|182:121|175:153,1,64.9999970245362
226,225,50184,2,0,P|236:255|243:287,1,64.9999970245362,0|8,0:0|0:0,0:0:0:0:
175,152,50521,1,0,0:0:0:0:
257,164,50690,5,0,0:0:0:0:
287,241,50859,1,0,0:0:0:0:
339,178,51027,1,8,0:0:0:0:
205,229,51196,1,0,0:0:0:0:
120,214,51364,1,0,0:0:0:0:
175,152,51532,1,0,0:0:0:0:
175,152,51701,6,0,P|167:120|157:89,1,64.9999970245362,8|0,0:0|0:0,0:0:0:0:
120,214,52038,2,0,P|126:245|137:276,1,64.9999970245362
225,350,52375,1,8,0:0:0:0:
225,350,52544,2,0,P|235:319|242:287,1,64.9999970245362
120,214,52881,2,0,P|151:204|183:197,1,64.9999970245362,0|8,0:0|0:0,0:0:0:0:
286,243,53218,1,0,0:0:0:0:
284,331,53386,6,0,P|346:310|355:190,1,194.999991073609
286,243,54060,2,0,L|286:48,1,194.999991073609
203,38,54735,6,0,P|141:59|132:179,1,194.999991073609
153,251,55409,1,0,3:0:0:0:
153,177,55577,1,0,3:0:0:0:
216,214,55746,1,0,3:0:0:0:
153,251,55914,1,0,3:0:0:0:
216,140,56083,6,0,B|311:147|311:147|362:234,1,194.999991073609
280,312,56926,2,0,L|278:244,1,64.9999970245362,0|8,0:0|0:0,0:0:0:0:
313,155,57263,5,0,0:0:0:0:
313,155,57431,2,0,P|285:130|259:113,1,64.9999970245362
213,185,57768,1,8,0:0:0:0:
213,185,57937,2,0,P|188:157|171:131,1,64.9999970245362
207,48,58274,6,0,P|151:43|87:101,1,129.999994049072
172,208,58780,1,0,0:0:0:0:
172,134,58948,1,0,0:0:0:0:
235,171,59117,1,8,0:0:0:0:
109,171,59285,6,0,P|104:227|171:280,1,129.999994049072
172,208,59791,2,0,P|211:239|223:270,1,64.9999970245362,8|0,0:0|0:0,0:0:0:0:
256,314,60128,5,0,0:0:0:0:
300,253,60296,1,0,0:0:0:0:
302,373,60465,1,8,0:0:0:0:
337,318,60633,6,0,L|292:387,1,64.9999970245362
214,299,60971,1,0,0:0:0:0:
214,299,61139,2,0,B|214:223,1,64.9999970245362,8|0,0:0|0:0,0:0:0:0:
132,198,61476,6,0,P|191:149|266:162,1,129.999994049072
304,166,61982,2,0,L|234:148,1,64.9999970245362
158,78,62319,2,0,L|88:96,1,64.9999970245362
63,186,62656,5,0,0:0:0:0:
63,186,62824,2,0,P|100:213|123:222,1,64.9999970245362
136,300,63162,1,8,0:0:0:0:
136,300,63330,2,0,P|165:286|190:265,1,64.9999970245362
231,182,63667,6,0,P|280:241|267:316,1,129.999994049072
190,265,64173,6,0,B|130:217|130:217|132:153,1,129.999994049072
131,163,64678,2,0,P|193:119|193:63,1,129.999994049072
195,69,65184,2,0,L|319:132,1,129.999994049072
310,148,65690,5,0,0:0:0:0:
190,265,65858,5,0,0:0:0:0:
190,265,66195,5,0,0:0:0:0:
118,306,66363,1,0,0:0:0:0:
119,224,66532,1,0,0:0:0:0:
42,124,66701,6,0,B|72:156|72:156|79:186|79:186|125:229,1,129.999994049072
262,224,67206,1,8,0:0:0:0:
190,265,67374,1,0,0:0:0:0:
191,183,67543,1,0,0:0:0:0:
263,310,67712,5,0,0:0:0:0:
263,142,67880,1,8,0:0:0:0:
340,241,68049,6,0,B|310:209|310:209|303:179|303:179|257:136,1,129.999994049072
191,183,68555,1,8,0:0:0:0:
191,101,68723,1,0,0:0:0:0:
119,141,68892,1,0,0:0:0:0:
262,142,69060,5,0,0:0:0:0:
117,226,69229,1,8,0:0:0:0:
242,243,69398,6,0,B|199:233|199:233|169:241|169:241|116:225,1,129.999994049072
57,294,69903,1,8,0:0:0:0:
57,294,70072,2,0,P|29:200|56:157,1,129.999994049072
245,159,70577,1,8,0:0:0:0:
245,159,70746,6,0,B|202:149|202:149|172:157|172:157|119:141,1,129.999994049072
31,178,71251,1,8,0:0:0:0:
31,178,71420,2,0,P|52:210|82:230,2,64.9999970245362
119,141,71926,2,0,P|151:119|171:89,1,64.9999970245362,8|0,0:0|0:0,0:0:0:0:
226,23,72263,6,0,B|260:51|260:51|275:92,1,75.000002861023
342,232,72600,1,8,0:0:0:0:
342,232,72768,2,0,B|308:204|308:204|297:174,2,75.000002861023
270,80,73274,2,0,P|228:93|207:117,1,75.000002861023,8|0,0:0|0:0,0:0:0:0:
297,174,73611,6,0,P|323:147|359:138,1,75.000002861023
495,163,73948,2,0,P|468:189|432:198,1,75.000002861023,8|0,0:0|0:0,0:0:0:0:
358,138,74285,1,0,0:0:0:0:
358,138,74454,1,0,0:0:0:0:
373,67,74622,6,0,B|354:107|354:107|359:150,1,75.000002861023,8|0,0:0|0:0,0:0:0:0:
384,233,74959,2,0,B|353:236|353:236|313:217,2,75.000002861023,0|0|8,0:0|0:0|0:0,0:0:0:0:
447,205,75465,1,0,0:0:0:0:
441,277,75633,5,0,0:0:0:0:
384,233,75801,1,0,0:0:0:0:
447,205,75970,1,8,0:0:0:0:
321,261,76139,6,0,B|299:222|299:222|295:176,1,75.000002861023,0|0,2:0|2:0,2:0:0:0:
380,135,76476,2,0,B|402:96|402:96|406:50,1,75.000002861023,0|0,2:0|2:0,2:0:0:0:
284,42,76813,1,0,0:0:0:0:
284,42,76982,2,0,L|210:48,2,75.000002861023
206,141,77487,6,0,B|236:109|236:109|243:79|243:79|289:36,1,129.999994049072
284,185,77993,1,8,0:0:0:0:
325,113,78162,1,0,0:0:0:0:
243,114,78330,1,0,0:0:0:0:
366,184,78498,5,0,0:0:0:0:
202,186,78667,1,8,0:0:0:0:
301,263,78836,6,0,B|269:233|269:233|239:226|239:226|196:180,1,129.999994049072
78,116,79341,1,8,0:0:0:0:
119,187,79509,1,0,0:0:0:0:
159,115,79678,1,0,0:0:0:0:
34,189,79847,5,0,0:0:0:0:
118,44,80015,1,8,0:0:0:0:
135,169,80184,6,0,B|119:116|119:116|127:86|127:86|117:43,1,129.999994049072
69,220,80689,1,8,0:0:0:0:
69,220,80858,2,0,P|163:248|206:221,1,129.999994049072
259,132,81363,1,8,0:0:0:0:
259,132,81532,6,0,B|269:175|269:175|261:205|261:205|277:258,1,129.999994049072
362,286,82037,1,8,0:0:0:0:
362,286,82206,2,0,P|341:318|311:338,2,64.9999970245362
276,257,82712,2,0,P|244:235|224:205,1,64.9999970245362,8|0,0:0|0:0,0:0:0:0:
237,128,83049,1,0,0:0:0:0:
256,192,83133,12,0,84903,0:0:0:0:
73,257,85240,5,0,0:0:0:0:
165,225,85409,1,0,0:0:0:0:
165,225,85493,1,0,0:0:0:0:
165,225,85577,1,0,0:0:0:0:
163,92,85746,6,0,L|162:145,1,50
162,141,86251,1,0,0:0:0:0:
162,141,86589,1,0,0:0:0:0:
162,141,86926,2,0,L|162:245,1,99.9999999999999
162,241,87431,1,0,0:0:0:0:
256,192,87515,12,0,88780,0:0:0:0:
256,192,89117,5,0,0:0:0:0:
256,192,89285,5,0,0:0:0:0:
177,298,89791,6,0,B|139:289|139:289|91:308,2,75.000002861023,0|0|8,0:0|0:0|0:0,0:0:0:0:
225,364,90296,1,0,0:0:0:0:
177,298,90465,2,0,L|177:221,1,75.000002861023
211,154,90802,1,8,0:0:0:0:
249,223,90971,6,0,B|213:232|213:232|177:223,2,75.000002861023,8|0|0,0:0|0:0|0:0,0:0:0:0:
332,171,91476,2,0,L|332:261,1,75.000002861023,8|0,0:0|0:0,0:0:0:0:
296,314,91813,2,0,P|333:323|369:313,1,75.000002861023
332,246,92150,1,8,0:0:0:0:
254,243,92319,6,0,B|225:267|225:267|212:301,2,75.000002861023,8|0|0,0:0|0:0|0:0,0:0:0:0:
332,246,92824,2,0,L|332:169,1,75.000002861023,8|0,0:0|0:0,0:0:0:0:
369,105,93162,2,0,P|332:96|296:106,1,75.000002861023
239,161,93499,1,8,0:0:0:0:
326,163,93667,6,0,B|355:139|355:139|368:105,2,75.000002861023,8|0|0,0:0|0:0|0:0,0:0:0:0:
239,161,94173,1,8,0:0:0:0:
239,161,94341,1,0,0:0:0:0:
162,189,94510,1,0,0:0:0:0:
162,189,94678,1,0,0:0:0:0:
90,189,94847,2,0,P|125:179|161:188,1,75.000002861023,8|0,0:0|0:0,0:0:0:0:
247,222,95184,6,0,B|260:255|260:255|251:293,2,75.000002861023,0|0|8,0:0|0:0|0:0,0:0:0:0:
181,174,95689,1,0,0:0:0:0:
247,222,95858,2,0,L|324:222,1,75.000002861023
390,187,96195,1,8,0:0:0:0:
321,149,96364,6,0,B|312:185|312:185|321:221,2,75.000002861023,8|0|0,0:0|0:0|0:0,0:0:0:0:
341,71,96869,2,0,L|251:71,1,75.000002861023,8|0,0:0|0:0,0:0:0:0:
198,107,97206,2,0,P|189:70|199:34,1,75.000002861023
266,71,97543,1,8,0:0:0:0:
427,75,97881,5,0,0:0:0:0:
398,140,98049,1,0,0:0:0:0:
369,206,98218,1,8,0:0:0:0:
284,137,98555,5,0,0:0:0:0:
260,192,98723,1,0,0:0:0:0:
236,247,98892,1,8,0:0:0:0:
172,194,99229,6,0,B|156:205|141:229|141:229|141:117,1,150.000005722046,0|8,0:0|0:0,0:0:0:0:
161,31,99735,2,0,P|221:73|233:157,1,150.000005722046
172,194,100240,5,8,0:0:0:0:
