osu file format v14

[General]
AudioFilename: audio.mp3
AudioLeadIn: 0
PreviewTime: 66078
Countdown: 0
SampleSet: Normal
StackLeniency: 0.7
Mode: 1
LetterboxInBreaks: 0
WidescreenStoryboard: 1

[Editor]
Bookmarks: 11556,22343,34477,45264,56050,95152,100376
DistanceSpacing: 0.8
BeatDivisor: 4
GridSize: 32
TimelineZoom: 1.7

[Metadata]
Title:Date A Live (TV Size)
TitleUnicode:デート・ア・ライブ (TV Size)
Artist:sweet ARMS
ArtistUnicode:sweet ARMS
Creator:Ryxliee
Version:Asahina Oleshev's Muzukashii
Source:デート・ア・ライブ
Tags:opening op japanese pop jpop j-pop anime 1st first season in utopia 野水伊織 Nomizu Iori 富樫美鈴 Togashi Misuzu 佐土原かおり Sadohara Kaori 味里 Misato Hausenberg Asahina Oleshev DakeDekaane
BeatmapID:3329748
BeatmapSetID:1630813

[Difficulty]
HPDrainRate:6
CircleSize:2
OverallDifficulty:5
ApproachRate:10
SliderMultiplier:1.4
SliderTickRate:1

[Events]
//Background and Video events
0,0,"123660.jpg",0,45
//Break Periods
//Storyboard Layer 0 (Background)
//Storyboard Layer 1 (Fail)
//Storyboard Layer 2 (Pass)
//Storyboard Layer 3 (Foreground)
//Storyboard Layer 4 (Overlay)
//Storyboard Sound Samples

[TimingPoints]
790,337.078651685393,4,1,0,60,1,0
11576,-100,4,1,0,70,0,0
22363,-100,4,1,0,80,0,0
34497,-100,4,1,0,70,0,0
45284,-100,4,1,0,75,0,0
56070,-100,4,1,0,75,0,0
66688,-100,4,1,0,85,0,1
83037,-100,4,1,0,85,0,0
89778,-100,4,1,0,80,0,0

[HitObjects]
256,192,790,5,0,0:0:0:0:
256,192,1801,5,8,0:0:0:0:
256,192,2812,5,0,0:0:0:0:
256,192,3486,5,0,0:0:0:0:
256,192,4497,5,8,0:0:0:0:
256,192,5508,5,0,0:0:0:0:
256,192,6183,5,0,0:0:0:0:
256,192,7194,5,8,0:0:0:0:
256,192,8205,5,0,0:0:0:0:
256,192,8879,5,0,0:0:0:0:
256,192,9890,5,8,0:0:0:0:
256,192,11576,5,12,0:0:0:0:
188,236,12082,5,0,0:0:0:0:
256,192,12587,5,8,0:0:0:0:
256,192,13093,5,8,0:0:0:0:
256,192,13598,5,8,0:0:0:0:
256,192,13936,5,0,0:0:0:0:
256,192,14273,5,8,0:0:0:0:
256,192,14778,5,0,0:0:0:0:
256,192,15284,5,8,0:0:0:0:
256,192,15789,5,8,0:0:0:0:
256,192,16295,5,8,0:0:0:0:
256,192,16632,5,0,0:0:0:0:
256,192,16969,5,12,0:0:0:0:
256,192,17475,5,0,0:0:0:0:
256,192,17981,5,8,0:0:0:0:
256,192,18486,5,8,0:0:0:0:
256,192,18992,5,8,0:0:0:0:
256,192,19329,5,0,0:0:0:0:
256,192,19666,5,8,0:0:0:0:
256,192,20172,5,0,0:0:0:0:
256,192,20677,5,8,0:0:0:0:
256,192,21183,5,8,0:0:0:0:
256,192,21520,5,0,0:0:0:0:
256,192,21688,5,8,0:0:0:0:
256,192,21857,5,8,0:0:0:0:
256,192,21941,5,8,0:0:0:0:
256,192,22025,5,8,0:0:0:0:
256,192,22363,5,4,0:0:0:0:
256,176,22700,5,0,0:0:0:0:
256,176,23037,5,8,0:0:0:0:
256,176,23205,5,0,0:0:0:0:
256,176,23374,5,0,0:0:0:0:
256,176,23542,5,8,0:0:0:0:
256,192,23879,5,8,0:0:0:0:
256,192,24048,5,0,0:0:0:0:
256,192,24385,5,8,0:0:0:0:
256,192,24554,5,0,0:0:0:0:
256,192,24722,5,8,0:0:0:0:
256,176,24891,5,0,0:0:0:0:
256,176,25228,5,0,0:0:0:0:
256,176,25396,5,8,0:0:0:0:
256,176,25733,5,8,0:0:0:0:
256,176,25902,5,0,0:0:0:0:
256,176,26070,5,0,0:0:0:0:
256,176,26239,5,0,0:0:0:0:
256,176,26576,5,8,0:0:0:0:
256,176,26745,5,8,0:0:0:0:
256,176,27419,5,0,0:0:0:0:
256,192,27756,5,12,0:0:0:0:
256,176,28093,5,0,0:0:0:0:
256,176,28430,5,0,0:0:0:0:
256,176,28598,5,8,0:0:0:0:
256,176,28767,5,0,0:0:0:0:
256,176,28936,5,8,0:0:0:0:
256,192,29273,5,8,0:0:0:0:
256,192,29441,5,0,0:0:0:0:
256,192,29778,5,0,0:0:0:0:
256,192,29947,5,0,0:0:0:0:
256,192,30115,5,8,0:0:0:0:
256,176,30452,5,8,0:0:0:0:
256,176,30789,5,0,0:0:0:0:
256,176,31127,5,8,0:0:0:0:
256,176,31295,5,8,0:0:0:0:
256,176,31464,5,0,0:0:0:0:
256,176,31801,5,8,0:0:0:0:
256,176,32138,5,0,0:0:0:0:
256,176,32307,5,0,0:0:0:0:
256,176,32644,5,8,0:0:0:0:
256,176,32812,5,8,0:0:0:0:
256,176,33149,5,8,0:0:0:0:
256,176,33318,5,0,0:0:0:0:
256,176,33402,5,0,0:0:0:0:
256,176,33486,5,0,0:0:0:0:
256,176,33655,5,0,0:0:0:0:
256,176,33823,5,12,0:0:0:0:
256,176,33992,5,12,0:0:0:0:
256,192,34497,5,12,0:0:0:0:
256,192,35340,5,0,0:0:0:0:
256,192,35509,5,8,0:0:0:0:
256,192,35677,5,8,0:0:0:0:
256,192,35846,5,0,0:0:0:0:
256,192,36183,5,8,0:0:0:0:
256,192,36351,5,0,0:0:0:0:
256,192,36688,5,0,0:0:0:0:
256,192,37025,5,8,0:0:0:0:
256,192,37363,5,0,0:0:0:0:
256,192,37531,5,8,0:0:0:0:
256,192,37868,5,0,0:0:0:0:
256,192,38037,5,8,0:0:0:0:
256,192,38205,5,0,0:0:0:0:
256,192,38542,5,8,0:0:0:0:
256,192,38879,5,0,0:0:0:0:
256,192,39048,5,0,0:0:0:0:
256,192,39385,5,8,0:0:0:0:
256,192,39722,5,8,0:0:0:0:
256,192,40733,5,8,0:0:0:0:
256,192,40902,5,8,0:0:0:0:
256,192,41070,5,0,0:0:0:0:
256,192,41239,5,0,0:0:0:0:
256,192,41576,5,8,0:0:0:0:
256,192,41745,5,8,0:0:0:0:
256,192,42082,5,0,0:0:0:0:
256,192,42587,5,8,0:0:0:0:
256,192,43261,5,8,0:0:0:0:
256,192,43598,5,0,0:0:0:0:
256,192,43936,5,8,0:0:0:0:
256,192,44273,5,8,0:0:0:0:
256,192,44441,5,0,0:0:0:0:
256,192,44947,5,0,0:0:0:0:
256,192,45284,5,4,0:0:0:0:
256,192,45452,5,0,0:0:0:0:
256,192,45621,5,8,0:0:0:0:
256,192,45789,5,0,0:0:0:0:
256,192,46127,5,0,0:0:0:0:
256,192,46295,5,8,0:0:0:0:
256,192,46464,5,0,0:0:0:0:
256,192,46632,5,0,0:0:0:0:
256,192,46969,5,8,0:0:0:0:
256,192,47138,5,8,0:0:0:0:
256,192,47475,5,0,0:0:0:0:
256,192,47559,5,0,0:0:0:0:
256,192,47643,5,0,0:0:0:0:
256,192,47812,5,8,0:0:0:0:
256,192,48149,5,0,0:0:0:0:
256,192,48318,5,8,0:0:0:0:
256,192,48992,5,0,0:0:0:0:
256,192,49329,5,0,0:0:0:0:
256,192,49666,5,8,0:0:0:0:
256,192,49834,5,0,0:0:0:0:
256,192,50172,5,8,0:0:0:0:
256,192,50509,5,0,0:0:0:0:
256,192,50677,5,8,0:0:0:0:
256,192,50846,5,0,0:0:0:0:
256,192,51014,5,0,0:0:0:0:
256,192,51183,5,0,0:0:0:0:
256,192,51520,5,8,0:0:0:0:
256,192,51688,5,8,0:0:0:0:
256,192,51857,5,0,0:0:0:0:
256,192,52025,5,8,0:0:0:0:
256,192,52363,5,0,0:0:0:0:
256,192,52531,5,0,0:0:0:0:
256,192,52868,5,8,0:0:0:0:
256,192,53374,5,8,0:0:0:0:
256,192,53711,5,0,0:0:0:0:
256,192,53879,5,0,0:0:0:0:
256,192,54048,5,8,0:0:0:0:
256,192,54385,5,0,0:0:0:0:
256,192,54722,5,8,0:0:0:0:
256,192,55059,5,0,0:0:0:0:
256,192,55228,5,8,0:0:0:0:
256,192,55396,5,0,0:0:0:0:
256,192,55565,5,8,0:0:0:0:
256,192,55649,5,8,0:0:0:0:
256,192,55733,5,8,0:0:0:0:
256,192,55902,5,0,0:0:0:0:
256,192,56070,5,4,0:0:0:0:
256,192,56576,5,8,0:0:0:0:
256,192,56913,5,8,0:0:0:0:
256,192,57082,5,0,0:0:0:0:
256,192,57250,5,0,0:0:0:0:
256,192,57419,5,8,0:0:0:0:
256,192,57756,5,0,0:0:0:0:
256,192,57924,5,8,0:0:0:0:
256,192,58261,5,8,0:0:0:0:
256,192,58598,5,0,0:0:0:0:
256,192,58767,5,8,0:0:0:0:
256,192,58936,5,0,0:0:0:0:
256,192,59104,5,8,0:0:0:0:
256,192,59273,5,0,0:0:0:0:
256,192,59610,5,8,0:0:0:0:
256,192,59778,5,0,0:0:0:0:
256,192,60115,5,8,0:0:0:0:
256,192,60284,5,8,0:0:0:0:
256,192,60452,5,8,0:0:0:0:
256,192,60621,5,0,0:0:0:0:
256,192,60958,5,8,0:0:0:0:
256,192,61127,5,8,0:0:0:0:
256,192,61464,5,0,0:0:0:0:
256,192,61969,5,0,0:0:0:0:
256,192,62306,5,8,0:0:0:0:
256,192,62475,5,0,0:0:0:0:
256,192,62643,5,0,0:0:0:0:
256,192,62812,5,8,0:0:0:0:
256,192,63149,5,0,0:0:0:0:
256,192,63318,5,0,0:0:0:0:
256,192,63655,5,8,0:0:0:0:
256,192,63823,5,8,0:0:0:0:
256,192,64160,5,0,0:0:0:0:
256,192,64497,5,8,0:0:0:0:
256,192,64666,5,0,0:0:0:0:
256,192,65003,5,0,0:0:0:0:
256,192,65172,5,8,0:0:0:0:
256,192,65509,5,8,0:0:0:0:
256,192,65677,5,8,0:0:0:0:
256,192,65846,5,0,0:0:0:0:
256,192,66688,5,12,0:0:0:0:
256,192,67025,5,8,0:0:0:0:
256,192,67194,5,0,0:0:0:0:
256,192,67362,5,8,0:0:0:0:
256,192,67447,5,8,0:0:0:0:
256,192,67531,5,8,0:0:0:0:
256,192,67699,5,0,0:0:0:0:
256,192,67868,5,8,0:0:0:0:
256,192,68036,5,4,0:0:0:0:
256,192,68373,5,0,0:0:0:0:
256,192,68542,5,8,0:0:0:0:
256,192,68710,5,8,0:0:0:0:
256,192,68879,5,0,0:0:0:0:
256,192,69047,5,0,0:0:0:0:
256,192,69216,5,8,0:0:0:0:
256,192,69385,5,12,0:0:0:0:
256,192,69722,5,8,0:0:0:0:
256,192,69890,5,0,0:0:0:0:
256,192,70059,5,8,0:0:0:0:
256,192,70396,5,8,0:0:0:0:
240,192,70733,5,8,0:0:0:0:
240,192,71070,5,0,0:0:0:0:
240,192,71238,5,8,0:0:0:0:
240,192,71407,5,8,0:0:0:0:
240,192,71744,5,8,0:0:0:0:
240,192,71913,5,0,0:0:0:0:
256,192,72250,5,12,0:0:0:0:
256,192,72587,5,8,0:0:0:0:
256,192,72756,5,8,0:0:0:0:
256,192,73093,5,8,0:0:0:0:
256,192,73261,5,0,0:0:0:0:
256,192,73598,5,8,0:0:0:0:
256,192,73767,5,0,0:0:0:0:
256,192,73936,5,8,0:0:0:0:
256,192,74273,5,0,0:0:0:0:
256,192,74441,5,0,0:0:0:0:
256,192,74610,5,8,0:0:0:0:
256,192,74947,5,8,0:0:0:0:
256,192,75284,5,0,0:0:0:0:
256,192,75621,5,0,0:0:0:0:
256,192,75789,5,8,0:0:0:0:
256,192,75958,5,8,0:0:0:0:
256,192,76127,5,0,0:0:0:0:
256,192,76463,5,0,0:0:0:0:
256,192,76632,5,8,0:0:0:0:
256,192,76801,5,8,0:0:0:0:
256,192,76969,5,8,0:0:0:0:
256,192,77053,5,8,0:0:0:0:
256,192,77137,5,8,0:0:0:0:
256,192,77306,5,0,0:0:0:0:
256,192,77475,5,12,0:0:0:0:
256,192,77812,5,8,0:0:0:0:
256,192,77981,5,0,0:0:0:0:
256,192,78149,5,0,0:0:0:0:
256,192,78318,5,8,0:0:0:0:
256,192,78402,5,8,0:0:0:0:
256,192,78486,5,8,0:0:0:0:
256,192,78655,5,8,0:0:0:0:
256,192,78823,5,4,0:0:0:0:
256,192,79160,5,0,0:0:0:0:
256,192,79329,5,0,0:0:0:0:
256,192,79497,5,8,0:0:0:0:
256,192,79666,5,8,0:0:0:0:
256,192,79834,5,0,0:0:0:0:
256,192,80003,5,8,0:0:0:0:
256,192,80172,5,12,0:0:0:0:
256,192,80509,5,8,0:0:0:0:
256,192,80677,5,0,0:0:0:0:
256,192,80846,5,8,0:0:0:0:
256,192,81183,5,8,0:0:0:0:
240,192,81520,5,8,0:0:0:0:
240,192,81857,5,0,0:0:0:0:
240,192,82025,5,8,0:0:0:0:
240,192,82194,5,8,0:0:0:0:
240,192,82531,5,8,0:0:0:0:
240,192,82700,5,0,0:0:0:0:
240,192,83037,5,4,0:0:0:0:
240,192,83542,5,8,0:0:0:0:
240,192,83711,5,8,0:0:0:0:
240,192,84048,5,8,0:0:0:0:
240,192,84216,5,0,0:0:0:0:
240,192,84554,5,8,0:0:0:0:
240,192,84638,5,8,0:0:0:0:
240,192,84722,5,8,0:0:0:0:
240,192,84891,5,8,0:0:0:0:
240,192,85059,5,0,0:0:0:0:
240,192,85396,5,0,0:0:0:0:
240,192,85481,5,0,0:0:0:0:
240,192,85565,5,0,0:0:0:0:
240,192,85733,5,12,0:0:0:0:
240,192,86407,5,12,0:0:0:0:
240,192,86913,5,4,0:0:0:0:
256,192,89104,5,12,0:0:0:0:
256,192,89273,5,12,0:0:0:0:
256,192,89778,5,4,0:0:0:0:
256,176,90115,5,0,0:0:0:0:
256,176,90452,5,8,0:0:0:0:
256,176,90621,5,8,0:0:0:0:
256,176,90789,5,0,0:0:0:0:
256,176,90958,5,0,0:0:0:0:
256,192,91295,5,8,0:0:0:0:
256,192,91464,5,8,0:0:0:0:
256,192,91801,5,0,0:0:0:0:
256,192,91969,5,8,0:0:0:0:
256,192,92138,5,8,0:0:0:0:
256,176,92306,5,0,0:0:0:0:
256,176,92643,5,0,0:0:0:0:
256,176,92812,5,8,0:0:0:0:
256,176,93149,5,8,0:0:0:0:
256,176,93318,5,0,0:0:0:0:
256,176,93486,5,8,0:0:0:0:
256,176,93655,5,8,0:0:0:0:
256,176,93992,5,8,0:0:0:0:
256,176,94160,5,0,0:0:0:0:
256,176,94834,5,0,0:0:0:0:
256,192,95172,5,12,0:0:0:0:
256,176,95509,5,8,0:0:0:0:
256,176,95846,5,0,0:0:0:0:
256,176,96014,5,8,0:0:0:0:
256,176,96183,5,0,0:0:0:0:
256,176,96351,5,8,0:0:0:0:
256,192,96688,5,8,0:0:0:0:
256,192,96857,5,8,0:0:0:0:
256,192,97194,5,0,0:0:0:0:
256,192,97363,5,8,0:0:0:0:
256,192,97531,5,8,0:0:0:0:
256,176,97868,5,0,0:0:0:0:
256,176,98205,5,8,0:0:0:0:
256,176,98374,5,0,0:0:0:0:
256,176,98542,5,8,0:0:0:0:
256,176,98711,5,0,0:0:0:0:
256,176,98879,5,0,0:0:0:0:
256,176,99216,5,8,0:0:0:0:
256,176,99554,5,0,0:0:0:0:
256,176,99722,5,8,0:0:0:0:
256,176,100059,5,8,0:0:0:0:
256,176,100228,5,8,0:0:0:0:
256,192,100396,5,0,0:0:0:0:
