osu file format v14

[General]
AudioFilename: audio.mp3
AudioLeadIn: 0
PreviewTime: 65625
Countdown: 0
SampleSet: Soft
StackLeniency: 0.7
Mode: 0
LetterboxInBreaks: 0
WidescreenStoryboard: 1

[Editor]
Bookmarks: 44801,47834
DistanceSpacing: 1
BeatDivisor: 2
GridSize: 16
TimelineZoom: 1.7

[Metadata]
Title:Date A Live (TV Size)
TitleUnicode:デート・ア・ライブ (TV Size)
Artist:sweet ARMS
ArtistUnicode:sweet ARMS
Creator:Darkness31_
Version:Easy
Source:デート・ア・ライブ
Tags:Date a live op opening anime 1st first season tv size japanese athiwat
BeatmapID:3699554
BeatmapSetID:1800746

[Difficulty]
HPDrainRate:2
CircleSize:2.4
OverallDifficulty:2
ApproachRate:3.5
SliderMultiplier:1
SliderTickRate:1

[Events]
//Background and Video events
Video,-696,"opening.mp4"
0,0,"hermit.jpg",0,0
//Break Periods
2,86629,87854
//Storyboard Layer 0 (Background)
//Storyboard Layer 1 (Fail)
//Storyboard Layer 2 (Pass)
//Storyboard Layer 3 (Foreground)
//Storyboard Layer 4 (Overlay)
//Storyboard Sound Samples

[TimingPoints]
306,337.078651685393,4,2,1,70,1,0
24408,-100,4,2,1,70,0,0
24576,-100,4,2,1,70,0,0
25755,-100,4,2,1,70,0,0
25923,-100,4,2,1,70,0,0
27273,-100,4,2,1,70,0,0
29969,-100,4,2,1,70,0,0
31317,-100,4,2,1,70,0,0
32666,-100,4,2,1,70,0,0
34014,-100,4,2,1,70,0,0
43452,-100,4,2,1,70,0,0
43958,-100,4,2,1,70,0,0
44464,-100,4,2,1,70,0,0
44801,-100,4,2,1,70,0,0
55587,-100,4,2,1,70,0,0
63677,-100,4,2,1,70,0,0
64351,-100,4,2,1,70,0,0
65362,-100,4,2,1,70,0,0
65699,-100,4,2,1,70,0,0
66204,-100,4,2,1,90,0,1
66372,-100,4,2,1,90,0,1
66709,-100,4,2,1,90,0,1
67551,-100,4,2,1,90,0,1
68056,-100,4,2,1,90,0,1
68898,-100,4,2,1,90,0,1
71427,-100,4,2,1,90,0,1
71765,-100,4,2,1,90,0,1
75641,-100,4,2,1,90,0,1
76314,-100,4,2,1,90,0,1
76484,-100,4,2,1,90,0,1
76989,-100,4,2,1,90,0,1
77494,-100,4,2,1,90,0,1
78168,-100,4,2,1,90,0,1
78336,-100,4,2,1,90,0,1
78841,-100,4,2,1,90,0,1
79683,-100,4,2,1,90,0,1
82216,-100,4,2,1,70,0,0
82549,-100,4,2,1,70,0,0
85919,-100,4,2,1,70,0,0
86425,-100,4,2,1,70,0,0
86930,-100,4,2,1,70,0,0
88615,-100,4,2,1,70,0,0
88783,-100,4,2,1,70,0,0
89290,-100,4,2,1,70,0,0
90469,-100,4,2,1,70,0,0
90637,-100,4,2,1,70,0,0
91816,-100,4,2,1,70,0,0
91984,-100,4,2,1,70,0,0
93163,-100,4,2,1,70,0,0
93331,-100,4,2,1,70,0,0
94679,-100,4,2,1,70,0,0
97375,-100,4,2,1,70,0,0
98723,-100,4,2,1,70,0,0
99735,-100,4,2,1,70,0,0

[Colours]
Combo1 : 254,223,152
Combo2 : 210,254,129
Combo3 : 74,253,183

[HitObjects]
39,318,21879,6,0,L|151:318,1,100,6|10,3:2|0:2,0:0:0:0:
239,318,22553,1,2,3:2:0:0:
384,281,23058,2,0,P|413:232|370:141,1,150,2|10,3:2|0:2,0:0:0:0:
312,78,23901,1,2,3:2:0:0:
166,38,24408,6,0,B|146:98|146:98|123:116|123:116|101:185,1,150,6|10,3:2|0:2,0:0:0:0:
66,262,25250,1,2,3:2:0:0:
190,345,25755,2,0,P|244:364|304:292,1,150,2|10,3:2|0:2,0:0:0:0:
297,206,26597,2,8,L|249:175,2,50,2|2|10,3:2|3:2|0:2,0:0:0:0:
394,185,27271,6,0,P|416:145|385:83,1,100,6|10,3:2|0:2,0:0:0:0:
344,12,27947,1,2,3:2:0:0:
201,57,28452,2,0,P|203:118|256:191,1,150,2|10,3:2|0:2,0:0:0:0:
331,251,29295,2,0,P|317:294|279:332,1,100,2|10,3:2|0:2,0:0:0:0:
179,337,29969,6,0,B|154:260|154:260|126:227|126:227|96:136,1,200,6|2,3:2|3:2,0:0:0:0:
66,61,30980,1,8,0:2:0:0:
161,30,31317,2,0,P|209:12|294:67,2,150,2|2|10,3:2|3:2|0:2,0:0:0:0:
66,61,32666,2,0,L|12:26,2,50,6|2|2,0:2|0:2|0:2,0:0:0:0:
102,154,33340,1,10,0:2:0:0:
284,73,34014,5,4,3:2:0:0:
304,170,34351,1,0,3:2:0:0:
334,316,34857,2,0,P|369:346|468:302,1,150,2|2,0:2|3:2,0:0:0:0:
509,177,35868,2,0,L|446:92,1,100,2|2,0:2|0:2,0:0:0:0:
387,18,36542,1,2,0:2:0:0:
267,108,37048,2,0,B|232:187|232:187|107:232,1,200,2|0,3:2|3:2,0:0:0:0:
32,261,38059,6,0,P|50:316|129:353,1,150,2|2,3:2|0:2,0:0:0:0:
229,351,38902,2,0,L|331:297,1,100,2|2,0:2|0:2,0:0:0:0:
443,224,39744,1,0,3:2:0:0:
423,75,40250,6,0,L|260:75,1,150,2|2,0:2|3:2,0:0:0:0:
123,57,41261,1,2,0:2:0:0:
110,156,41598,1,2,0:2:0:0:
197,279,42104,2,0,P|270:277|372:190,1,200,2|2,3:2|3:2,0:0:0:0:
466,28,43452,1,10,0:2:0:0:
268,8,44801,6,0,L|306:108,1,100,4|8,3:2|0:2,0:0:0:0:
414,200,45643,2,0,P|434:254|354:279,1,150,2|2,0:2|3:2,0:0:0:0:
213,283,46655,2,0,P|187:321|129:344,1,100,2|2,0:2|0:2,0:0:0:0:
43,368,47329,1,2,0:2:0:0:
23,219,47834,2,0,B|58:140|58:140|183:95,1,200,10|8,0:2|0:2,0:0:0:0:
256,61,48846,6,0,P|299:91|316:195,1,150,2|2,3:2|0:2,0:0:0:0:
278,272,49688,2,0,P|319:287|379:271,1,100,2|2,0:2|0:2,0:0:0:0:
508,210,50531,1,8,0:2:0:0:
458,68,51037,6,0,L|307:68,1,150,2|2,0:2|0:0,0:0:0:0:
158,50,52048,2,0,P|151:91|186:156,1,100,2|2,0:2|0:2,0:0:0:0:
200,291,52890,6,0,B|240:304|240:304|308:288,1,100,2|8,3:2|0:2,0:0:0:0:
396,283,53565,2,0,B|436:272|436:272|486:222,1,100,2|8,3:2|0:2,0:0:0:0:
506,136,54239,2,0,P|454:112|354:138,1,150,2|2,3:2|0:2,0:0:0:0:
233,200,55250,1,0,3:2:0:0:
142,158,55587,6,0,B|159:96|159:96|248:33,2,150,6|2|10,0:2|0:2|0:2,0:0:0:0:
122,255,56935,2,0,B|104:316|104:316|15:379,2,150,2|2|8,0:2|0:2|0:0,0:0:0:0:
217,225,58284,6,0,P|268:245|377:215,2,150,2|2|8,3:2|3:2|0:2,0:0:0:0:
159,143,59632,2,0,P|107:123|-1:153,2,150,2|2|8,3:2|3:2|0:2,0:0:0:0:
249,185,60980,6,0,P|307:163|352:69,2,150,6|2|8,3:2|3:2|3:2,0:0:0:0:
154,217,62329,6,0,P|96:239|50:333,2,150,2|2|8,3:2|3:2|0:2,0:0:0:0:
249,185,63677,6,0,B|312:185|312:185|337:193|337:193|417:193,2,150,6|6|6,3:2|3:2|0:2,0:0:0:0:
154,217,65025,2,0,L|154:279,2,50,10|10|14,0:2|0:2|0:2,0:0:0:0:
35,73,66204,6,0,P|83:95|191:69,1,150,6|10,0:0|0:2,0:0:0:0:
266,36,67046,5,2,3:2:0:0:
411,74,67553,6,0,B|411:145|411:145|385:224,1,150,6|10,0:2|0:2,0:0:0:0:
333,304,68395,1,2,3:2:0:0:
191,354,68901,6,0,P|134:339|90:312,1,100,6|2,0:2|0:2,0:0:0:0:
43,235,69575,2,0,P|39:179|44:126,1,100,2|2,0:2|3:2,0:0:0:0:
77,42,70249,1,2,3:2:0:0:
174,65,70586,1,2,3:2:0:0:
132,155,70923,2,0,L|287:155,1,150,2|10,0:2|0:2,0:0:0:0:
325,255,71766,6,8,B|408:255|408:255|462:191,2,150,6|2|10,0:2|0:2|0:2,0:0:0:0:
362,161,73114,2,0,P|329:115|292:75,1,100,6|10,3:2|0:2,0:0:0:0:
216,28,73789,2,8,P|161:33|104:28,1,100,2|10,3:2|0:2,0:0:0:0:
16,33,74463,2,8,P|12:90|16:148,1,100,2|8,3:2|0:2,0:0:0:0:
68,216,75137,1,2,3:2:0:0:
24,305,75474,2,0,P|82:309|135:305,1,100,10|0,0:2|0:0,0:0:0:0:
217,342,76148,2,0,P|297:347|377:341,1,150,10|2,0:2|3:2,0:0:0:0:
450,285,76991,6,0,P|410:216|344:178,1,150,6|10,0:0|0:2,0:0:0:0:
269,122,77834,2,0,P|269:74|317:74,1,100,2|10,3:2|0:2,0:0:0:0:
408,94,78508,2,0,P|456:94|456:142,1,100,0|10,0:0|0:2,0:0:0:0:
443,235,79182,2,0,L|442:352,2,100,2|10|0,3:2|0:2|0:0,0:0:0:0:
346,208,80193,2,0,P|287:204|229:208,1,100,8|0,0:0|0:0,0:0:0:0:
161,251,80867,6,0,P|108:258|57:252,1,100,8|0,0:0|0:0,0:0:0:0:
9,167,81541,2,0,P|5:113|12:64,1,100,8|0,0:2|0:0,0:0:0:0:
97,15,82216,5,10,0:2:0:0:
171,81,82553,2,0,P|195:133|331:162,1,200,0|8,0:0|0:0,0:0:0:0:
467,125,83732,2,0,L|503:232,1,100
510,369,84575,1,8,0:0:0:0:
411,349,84912,1,8,0:0:0:0:
312,329,85249,6,0,P|247:357|143:268,1,200,6|6,0:2|0:2,0:0:0:0:
66,164,86429,1,4,0:0:0:0:
88,56,89294,6,0,L|112:160,1,100,6|10,3:2|0:2,0:0:0:0:
135,250,89968,1,2,3:2:0:0:
260,331,90473,2,0,P|315:341|386:269,1,150,2|10,3:2|0:2,0:0:0:0:
447,208,91316,1,2,3:2:0:0:
422,59,91823,6,0,B|358:58|358:58|334:42|334:42|262:42,1,150,6|10,3:2|0:2,0:0:0:0:
177,45,92665,1,2,3:2:0:0:
33,88,93170,2,0,P|29:145|115:182,1,150,2|10,3:2|0:2,0:0:0:0:
198,216,94012,2,8,L|184:271,2,50,2|2|10,3:2|3:2|0:2,0:0:0:0:
287,172,94687,6,0,P|335:173|368:208,1,100,6|10,0:0|0:0,0:3:0:0:
420,294,95362,1,2,3:2:0:0:
287,364,95867,2,0,P|213:352|159:303,1,150,2|10,3:2|0:2,0:0:0:0:
119,210,96710,2,0,P|154:175|170:128,1,100,2|10,3:2|0:2,0:0:0:0:
209,36,97384,6,0,B|289:35|289:35|329:19|329:19|425:19,1,200,6|2,3:2|3:2,0:0:0:0:
505,23,98395,1,8,0:2:0:0:
495,122,98732,6,0,B|435:149|435:149|351:144,1,150,6|6,3:2|3:2,0:0:0:0:
201,133,99744,5,14,0:2:0:0:
