osu file format v14

[General]
AudioFilename: audio.mp3
AudioLeadIn: 0
PreviewTime: 192826
Countdown: 0
SampleSet: Normal
StackLeniency: 0.7
Mode: 1
LetterboxInBreaks: 0
WidescreenStoryboard: 0

[Editor]
Bookmarks: 31417,53119,78651,106736,128438,153970,179502,213970,244608,259927,282906
DistanceSpacing: 1.9
BeatDivisor: 4
GridSize: 8
TimelineZoom: 3.099998

[Metadata]
Title:Blade of Hope
TitleUnicode:Blade of Hope
Artist:sweet ARMS
ArtistUnicode:sweet ARMS
Creator:radar
Version:Impurity
Source:新妹魔王の契約者
Tags:nao tomori full version ver. jpop j-pop op shinmai maou no keiyakusha the testament of sister new devil opening iori nomizu togashi misuzu sadohara kaori misato anime japanese oni
BeatmapID:2826604
BeatmapSetID:1366719

[Difficulty]
HPDrainRate:5
CircleSize:5
OverallDifficulty:5
ApproachRate:5
SliderMultiplier:1.4
SliderTickRate:1

[Events]
//Background and Video events
0,0,"temp.jpg",0,0
//Break Periods
//Storyboard Layer 0 (Background)
//Storyboard Layer 1 (Fail)
//Storyboard Layer 2 (Pass)
//Storyboard Layer 3 (Foreground)
//Storyboard Layer 4 (Overlay)
//Storyboard Sound Samples

[TimingPoints]
655,346.820809248555,4,1,0,70,1,8
655,-92.0212765957447,4,1,0,70,0,8
814,320.855614973262,4,1,0,70,1,0
814,-99.468085106383,4,1,0,70,0,0
1134,297.029702970297,4,1,0,70,1,8
1134,-107.446808510638,4,1,0,70,0,8
1297,319.148936170213,4,1,0,70,1,8
1297,-99.9999999999999,4,1,0,70,0,8
1775,319.148936170213,4,1,0,70,1,0
1775,-99.9999999999999,4,1,0,70,0,8
1896,319.148936170213,4,1,0,70,1,8
1896,-99.9999999999999,4,1,0,70,0,0
3013,-99.9999999999999,4,1,0,80,0,0
3172,319.148936170213,4,1,0,80,1,8
3172,-99.9999999999999,4,1,0,80,0,8
3332,319.148936170213,4,1,0,80,1,0
3332,-99.9999999999999,4,1,0,80,0,0
21204,-99.9999999999999,4,1,0,70,0,0
31417,-99.9999999999999,4,1,0,80,0,0
52800,-99.9999999999999,4,1,0,90,0,0
53119,-99.9999999999999,4,1,0,100,0,1
77374,-99.9999999999999,4,1,0,100,0,0
78012,-99.9999999999999,4,1,0,80,0,0
78332,-99.9999999999999,4,1,0,90,0,0
78651,-99.9999999999999,4,1,0,80,0,0
128119,-99.9999999999999,4,1,0,90,0,0
128438,-99.9999999999999,4,1,0,100,0,1
153970,-99.9999999999999,4,1,0,80,0,0
189874,-99.9999999999999,4,1,0,70,0,0
190512,-99.9999999999999,4,1,0,60,0,0
191151,-99.9999999999999,4,1,0,50,0,0
191789,-99.9999999999999,4,1,0,40,0,0
193544,-111.111111111111,4,1,0,50,0,0
203438,-111.111111111111,4,1,0,55,0,0
203757,-111.111111111111,4,1,0,60,0,0
210778,-111.111111111111,4,1,0,70,0,0
211417,-111.111111111111,4,1,0,80,0,0
214449,-105.263157894737,4,1,0,80,0,0
214608,-105.263157894737,4,1,0,90,0,0
215087,-100,4,1,0,90,0,0
215246,-100,4,1,0,100,0,1
243332,-100,4,1,0,90,0,0
244608,-100,4,1,0,80,0,0
277800,-100,4,1,0,70,0,0
278597,-100,4,1,0,60,0,0
279236,-100,4,1,0,50,0,0
279874,-100,4,1,0,40,0,0
280512,-100,4,1,0,30,0,0
281151,-100,4,1,0,20,0,0
281789,-100,4,1,0,10,0,0

[HitObjects]
148,305,655,5,0,0:0:0:0:
148,305,741,1,0,0:0:0:0:
148,305,814,1,8,0:0:0:0:
148,305,974,1,0,0:0:0:0:
148,305,1134,1,0,0:0:0:0:
148,305,1297,1,8,0:0:0:0:
148,305,1456,1,0,0:0:0:0:
148,305,1616,1,0,0:0:0:0:
148,305,1775,1,8,0:0:0:0:
256,192,1895,12,0,2693,0:0:0:0:
98,68,3013,5,4,0:0:0:0:
114,81,3331,1,12,0:0:0:0:
140,294,3491,1,0,0:0:0:0:
140,294,3651,1,0,0:0:0:0:
140,294,3810,1,8,0:0:0:0:
140,294,3970,1,0,0:0:0:0:
140,294,4129,1,0,0:0:0:0:
140,294,4289,1,8,0:0:0:0:
140,294,4449,1,8,0:0:0:0:
140,294,4608,1,0,0:0:0:0:
140,294,4768,1,8,0:0:0:0:
138,277,4927,1,8,0:0:0:0:
138,277,5087,1,0,0:0:0:0:
138,277,5246,1,8,0:0:0:0:
138,277,5406,1,0,0:0:0:0:
138,277,5566,1,8,0:0:0:0:
138,277,5725,1,0,0:0:0:0:
149,277,5885,1,8,0:0:0:0:
139,272,6204,1,8,0:0:0:0:
139,272,6363,1,0,0:0:0:0:
139,272,6683,1,0,0:0:0:0:
139,272,6842,1,8,0:0:0:0:
139,272,7002,1,0,0:0:0:0:
139,272,7161,1,0,0:0:0:0:
139,272,7321,1,0,0:0:0:0:
139,272,7480,1,8,0:0:0:0:
137,304,7800,1,0,0:0:0:0:
137,304,7959,1,0,0:0:0:0:
134,291,8119,1,8,0:0:0:0:
140,50,8438,1,12,0:0:0:0:
132,295,8597,1,0,0:0:0:0:
132,295,8757,1,0,0:0:0:0:
134,291,8917,1,8,0:0:0:0:
132,295,9076,1,0,0:0:0:0:
132,295,9236,1,0,0:0:0:0:
132,295,9395,1,8,0:0:0:0:
132,295,9555,1,8,0:0:0:0:
134,291,9714,1,0,0:0:0:0:
132,295,9874,1,8,0:0:0:0:
132,295,10034,1,0,0:0:0:0:
132,295,10193,1,0,0:0:0:0:
132,295,10353,1,8,0:0:0:0:
134,291,10512,1,8,0:0:0:0:
132,295,10672,1,0,0:0:0:0:
132,295,10832,1,0,0:0:0:0:
132,295,10991,1,8,0:0:0:0:
132,298,11310,1,8,0:0:0:0:
132,295,11470,1,0,0:0:0:0:
132,295,11789,1,0,0:0:0:0:
132,298,11949,1,8,0:0:0:0:
132,295,12108,1,8,0:0:0:0:
115,10,12427,1,4,0:0:0:0:
120,49,12746,1,12,0:0:0:0:
131,80,13066,1,12,0:0:0:0:
117,283,13385,1,0,0:0:0:0:
117,283,13464,1,0,0:0:0:0:
131,80,13544,1,12,0:0:0:0:
140,284,13704,1,0,0:0:0:0:
140,284,13863,1,0,0:0:0:0:
140,284,14023,1,8,0:0:0:0:
140,284,14183,1,0,0:0:0:0:
140,284,14342,1,0,0:0:0:0:
140,284,14502,1,8,0:0:0:0:
140,284,14661,1,8,0:0:0:0:
140,284,14821,1,0,0:0:0:0:
140,284,14980,1,8,0:0:0:0:
146,269,15140,1,8,0:0:0:0:
146,269,15300,1,0,0:0:0:0:
147,269,15459,1,8,0:0:0:0:
147,269,15619,1,0,0:0:0:0:
146,269,15778,1,8,0:0:0:0:
146,269,15938,1,0,0:0:0:0:
147,269,16097,1,8,0:0:0:0:
147,269,16417,1,8,0:0:0:0:
146,269,16576,1,0,0:0:0:0:
147,269,16895,1,0,0:0:0:0:
147,269,17055,1,0,0:0:0:0:
146,269,17214,1,8,0:0:0:0:
147,269,17534,1,0,0:0:0:0:
151,262,17693,1,8,0:0:0:0:
151,262,17853,1,8,0:0:0:0:
149,260,18012,1,0,0:0:0:0:
149,260,18172,1,0,0:0:0:0:
149,260,18332,1,8,0:0:0:0:
111,20,18651,1,12,0:0:0:0:
152,266,18810,1,0,0:0:0:0:
151,266,18970,1,0,0:0:0:0:
151,266,19129,1,8,0:0:0:0:
152,266,19289,1,0,0:0:0:0:
152,266,19449,1,0,0:0:0:0:
152,266,19608,1,8,0:0:0:0:
186,41,19768,1,12,0:0:0:0:
108,74,20087,1,4,0:0:0:0:
108,74,20406,1,12,0:0:0:0:
108,74,20725,1,12,0:0:0:0:
128,321,21204,1,0,0:0:0:0:
125,332,21683,1,0,0:0:0:0:
132,328,22002,1,0,0:0:0:0:
133,329,22161,1,0,0:0:0:0:
133,329,22321,1,8,0:0:0:0:
132,328,22640,1,8,0:0:0:0:
133,329,22800,1,0,0:0:0:0:
136,324,23757,1,0,0:0:0:0:
136,324,24076,1,0,0:0:0:0:
135,307,24236,1,8,0:0:0:0:
131,306,24555,1,8,0:0:0:0:
135,307,24874,1,0,0:0:0:0:
131,306,25193,1,0,0:0:0:0:
135,307,25353,1,8,0:0:0:0:
153,298,25991,1,0,0:0:0:0:
153,298,26310,1,8,0:0:0:0:
153,298,26629,1,8,0:0:0:0:
153,298,26789,1,0,0:0:0:0:
153,298,27108,1,0,0:0:0:0:
153,298,27268,1,0,0:0:0:0:
153,298,27427,1,8,0:0:0:0:
153,298,27746,1,8,0:0:0:0:
153,298,27906,1,0,0:0:0:0:
143,296,28544,1,0,0:0:0:0:
143,296,28863,1,8,0:0:0:0:
143,296,29183,1,0,0:0:0:0:
143,296,29342,1,8,0:0:0:0:
143,296,29661,1,8,0:0:0:0:
143,296,29980,1,8,0:0:0:0:
143,296,30300,1,0,0:0:0:0:
143,296,30459,1,8,0:0:0:0:
150,288,30699,1,8,0:0:0:0:
150,288,30778,1,8,0:0:0:0:
150,288,30938,1,0,0:0:0:0:
150,288,31097,1,0,0:0:0:0:
150,288,31257,1,0,0:0:0:0:
282,156,31417,1,8,0:0:0:0:
281,159,31736,1,8,0:0:0:0:
281,159,31895,1,0,0:0:0:0:
281,159,31975,1,8,0:0:0:0:
281,159,32055,1,0,0:0:0:0:
281,159,32214,1,0,0:0:0:0:
281,159,32374,1,8,0:0:0:0:
281,159,32534,1,0,0:0:0:0:
322,169,32853,1,0,0:0:0:0:
322,169,33012,1,8,0:0:0:0:
319,164,33172,1,8,0:0:0:0:
319,164,33332,1,0,0:0:0:0:
319,164,33491,1,0,0:0:0:0:
319,164,33571,1,0,0:0:0:0:
319,164,33651,1,8,0:0:0:0:
313,166,33810,1,8,0:0:0:0:
313,166,33970,1,0,0:0:0:0:
313,166,34289,1,8,0:0:0:0:
313,166,34449,1,8,0:0:0:0:
313,166,34528,1,8,0:0:0:0:
313,166,34608,1,0,0:0:0:0:
313,166,34768,1,0,0:0:0:0:
313,166,34927,1,8,0:0:0:0:
313,166,35087,1,0,0:0:0:0:
274,142,35406,1,0,0:0:0:0:
274,142,35566,1,8,0:0:0:0:
274,143,35885,1,0,0:0:0:0:
274,143,36044,1,0,0:0:0:0:
274,143,36124,1,0,0:0:0:0:
274,143,36204,1,8,0:0:0:0:
269,148,36363,1,8,0:0:0:0:
269,148,36523,1,4,0:0:0:0:
191,142,36842,1,8,0:0:0:0:
191,142,37002,1,0,0:0:0:0:
189,143,37321,1,0,0:0:0:0:
189,143,37480,1,8,0:0:0:0:
183,146,37640,1,0,0:0:0:0:
357,190,37959,1,0,0:0:0:0:
357,190,38119,1,8,0:0:0:0:
256,188,38438,1,0,0:0:0:0:
256,188,38597,1,0,0:0:0:0:
256,188,38757,1,8,0:0:0:0:
256,188,38917,1,8,0:0:0:0:
256,188,39076,1,0,0:0:0:0:
321,100,39395,1,8,0:0:0:0:
321,100,39555,1,8,0:0:0:0:
321,100,39714,1,0,0:0:0:0:
321,100,39874,1,8,0:0:0:0:
318,106,40034,1,8,0:0:0:0:
213,115,40193,1,0,0:0:0:0:
323,161,40512,1,0,0:0:0:0:
323,161,40672,1,8,0:0:0:0:
312,163,40832,1,8,0:0:0:0:
312,163,40911,1,8,0:0:0:0:
312,163,40991,1,0,0:0:0:0:
305,161,41151,1,0,0:0:0:0:
305,161,41470,1,0,0:0:0:0:
305,161,41629,1,12,0:0:0:0:
295,165,41949,1,0,0:0:0:0:
295,164,42268,1,8,0:0:0:0:
294,164,42587,1,0,0:0:0:0:
294,164,42746,1,8,0:0:0:0:
294,164,42906,1,0,0:0:0:0:
292,176,43066,1,8,0:0:0:0:
296,168,43225,1,0,0:0:0:0:
296,168,43544,1,8,0:0:0:0:
296,168,43863,1,8,0:0:0:0:
296,168,44023,1,8,0:0:0:0:
296,168,44183,1,0,0:0:0:0:
292,169,44502,1,0,0:0:0:0:
292,169,44821,1,8,0:0:0:0:
292,169,45140,1,0,0:0:0:0:
292,169,45300,1,8,0:0:0:0:
292,169,45459,1,0,0:0:0:0:
292,169,45619,1,0,0:0:0:0:
292,169,45699,1,0,0:0:0:0:
292,169,45778,1,0,0:0:0:0:
292,169,45938,1,4,0:0:0:0:
320,124,46257,1,0,0:0:0:0:
320,124,46337,1,0,0:0:0:0:
320,124,46417,1,8,0:0:0:0:
318,128,46576,1,8,0:0:0:0:
316,131,46656,1,8,0:0:0:0:
313,131,46736,1,4,0:0:0:0:
286,142,47055,1,8,0:0:0:0:
286,142,47214,1,0,0:0:0:0:
286,142,47534,1,0,0:0:0:0:
286,142,47693,1,8,0:0:0:0:
286,142,47853,1,8,0:0:0:0:
286,142,48012,1,0,0:0:0:0:
282,144,48332,1,8,0:0:0:0:
269,144,48651,1,0,0:0:0:0:
269,144,48810,1,0,0:0:0:0:
269,144,48970,1,8,0:0:0:0:
269,144,49129,1,0,0:0:0:0:
269,144,49289,1,8,0:0:0:0:
269,144,49449,1,0,0:0:0:0:
268,144,49768,1,0,0:0:0:0:
268,144,49927,1,8,0:0:0:0:
268,144,50087,1,0,0:0:0:0:
364,198,50406,1,0,0:0:0:0:
364,198,50566,1,8,0:0:0:0:
364,198,50725,1,0,0:0:0:0:
364,198,50885,1,8,0:0:0:0:
322,167,51044,1,0,0:0:0:0:
322,167,51124,1,8,0:0:0:0:
322,167,51204,1,8,0:0:0:0:
322,167,51363,1,8,0:0:0:0:
322,167,51523,1,4,0:0:0:0:
219,123,52480,5,8,0:0:0:0:
444,70,52640,1,8,0:0:0:0:
319,118,52800,1,0,0:0:0:0:
319,118,52879,1,0,0:0:0:0:
319,118,52959,1,0,0:0:0:0:
319,118,53039,1,0,0:0:0:0:
314,174,53119,1,12,0:0:0:0:
154,283,53438,1,8,0:0:0:0:
144,295,53597,1,0,0:0:0:0:
144,295,53677,1,0,0:0:0:0:
144,295,53757,1,8,0:0:0:0:
144,292,53917,1,0,0:0:0:0:
144,293,54076,1,0,0:0:0:0:
144,295,54236,1,8,0:0:0:0:
139,303,54555,1,0,0:0:0:0:
134,298,54714,1,8,0:0:0:0:
134,298,54874,1,0,0:0:0:0:
134,298,54954,1,0,0:0:0:0:
134,298,55034,1,8,0:0:0:0:
129,290,55193,1,0,0:0:0:0:
129,290,55353,1,8,0:0:0:0:
129,290,55512,1,8,0:0:0:0:
123,298,55672,1,0,0:0:0:0:
125,296,55991,1,8,0:0:0:0:
125,296,56151,1,8,0:0:0:0:
125,296,56230,1,0,0:0:0:0:
125,296,56310,1,0,0:0:0:0:
117,285,56470,1,8,0:0:0:0:
113,286,56629,1,0,0:0:0:0:
113,286,56789,1,8,0:0:0:0:
115,280,57108,1,8,0:0:0:0:
115,280,57268,1,8,0:0:0:0:
127,269,57427,1,0,0:0:0:0:
127,269,57507,1,0,0:0:0:0:
127,269,57587,1,8,0:0:0:0:
127,269,57746,1,0,0:0:0:0:
127,269,57906,1,8,0:0:0:0:
108,40,58225,1,12,0:0:0:0:
140,291,58544,1,0,0:0:0:0:
119,268,58704,1,8,0:0:0:0:
119,268,58863,1,0,0:0:0:0:
128,283,59023,1,0,0:0:0:0:
128,283,59103,1,0,0:0:0:0:
128,292,59183,1,8,0:0:0:0:
128,292,59342,1,0,0:0:0:0:
128,292,59502,1,8,0:0:0:0:
134,302,59821,1,0,0:0:0:0:
136,293,59980,1,8,0:0:0:0:
136,293,60140,1,0,0:0:0:0:
136,293,60300,1,8,0:0:0:0:
136,293,60379,1,8,0:0:0:0:
136,293,60459,1,0,0:0:0:0:
136,293,60619,1,0,0:0:0:0:
136,293,60778,1,8,0:0:0:0:
136,293,61097,1,8,0:0:0:0:
136,293,61257,1,0,0:0:0:0:
136,293,61576,1,0,0:0:0:0:
136,293,61736,1,8,0:0:0:0:
136,293,61816,1,0,0:0:0:0:
136,293,61895,1,8,0:0:0:0:
136,293,62055,1,8,0:0:0:0:
134,288,62214,1,0,0:0:0:0:
145,276,62374,1,8,0:0:0:0:
145,276,62534,1,8,0:0:0:0:
145,276,62613,1,8,0:0:0:0:
145,276,62693,1,0,0:0:0:0:
145,276,62853,1,0,0:0:0:0:
145,276,63012,1,8,0:0:0:0:
99,61,63332,1,12,0:0:0:0:
154,283,63651,1,8,0:0:0:0:
144,295,63810,1,8,0:0:0:0:
144,295,63890,1,0,0:0:0:0:
144,295,63970,1,8,0:0:0:0:
144,292,64129,1,0,0:0:0:0:
144,293,64289,1,8,0:0:0:0:
144,295,64449,1,8,0:0:0:0:
139,303,64768,1,0,0:0:0:0:
134,298,64927,1,8,0:0:0:0:
134,298,65087,1,0,0:0:0:0:
148,279,65167,1,0,0:0:0:0:
134,298,65246,1,8,0:0:0:0:
129,290,65406,1,8,0:0:0:0:
129,290,65566,1,8,0:0:0:0:
129,290,65725,1,0,0:0:0:0:
123,298,65885,1,8,0:0:0:0:
125,296,66204,1,8,0:0:0:0:
125,296,66363,1,0,0:0:0:0:
125,296,66443,1,8,0:0:0:0:
125,296,66523,1,0,0:0:0:0:
117,285,66683,1,8,0:0:0:0:
113,286,66842,1,8,0:0:0:0:
113,286,67002,1,0,0:0:0:0:
115,280,67321,1,0,0:0:0:0:
115,280,67480,1,8,0:0:0:0:
127,269,67640,1,8,0:0:0:0:
127,269,67720,1,8,0:0:0:0:
127,269,67800,1,0,0:0:0:0:
127,269,67959,1,0,0:0:0:0:
127,269,68119,1,8,0:0:0:0:
108,40,68438,1,12,0:0:0:0:
140,291,68757,1,0,0:0:0:0:
119,268,68917,1,8,0:0:0:0:
119,268,69076,1,0,0:0:0:0:
128,283,69236,1,0,0:0:0:0:
128,283,69316,1,0,0:0:0:0:
128,292,69395,1,8,0:0:0:0:
128,292,69555,1,0,0:0:0:0:
128,292,69714,1,8,0:0:0:0:
134,302,70034,1,0,0:0:0:0:
136,293,70193,1,8,0:0:0:0:
136,293,70353,1,0,0:0:0:0:
136,293,70512,1,8,0:0:0:0:
136,293,70592,1,8,0:0:0:0:
136,293,70672,1,0,0:0:0:0:
136,293,70832,1,0,0:0:0:0:
136,293,70991,1,8,0:0:0:0:
136,293,71310,1,8,0:0:0:0:
136,293,71470,1,0,0:0:0:0:
136,293,71789,1,0,0:0:0:0:
136,293,71949,1,8,0:0:0:0:
136,293,72108,1,0,0:0:0:0:
143,286,72188,1,8,0:0:0:0:
136,293,72268,1,0,0:0:0:0:
134,288,72427,1,0,0:0:0:0:
145,276,72587,1,8,0:0:0:0:
145,276,72746,1,0,0:0:0:0:
145,276,72826,1,0,0:0:0:0:
120,0,72906,1,12,0:0:0:0:
145,276,73066,1,0,0:0:0:0:
173,37,73225,1,12,0:0:0:0:
99,61,73544,1,12,0:0:0:0:
142,283,73704,1,0,0:0:0:0:
142,283,73784,1,0,0:0:0:0:
142,283,73863,1,8,0:0:0:0:
142,283,74023,1,0,0:0:0:0:
142,283,74183,1,8,0:0:0:0:
137,280,74342,1,8,0:0:0:0:
137,280,74422,1,8,0:0:0:0:
137,280,74502,1,0,0:0:0:0:
137,280,74582,1,0,0:0:0:0:
137,280,74661,1,8,0:0:0:0:
122,264,74821,1,8,0:0:0:0:
122,264,74980,1,0,0:0:0:0:
122,264,75060,1,0,0:0:0:0:
122,264,75140,1,8,0:0:0:0:
122,264,75220,1,8,0:0:0:0:
122,262,75300,1,0,0:0:0:0:
117,258,75459,1,8,0:0:0:0:
122,264,75619,1,0,0:0:0:0:
122,264,75699,1,0,0:0:0:0:
122,264,75778,1,8,0:0:0:0:
123,270,75938,1,0,0:0:0:0:
121,47,76097,1,12,0:0:0:0:
124,274,76257,1,0,0:0:0:0:
178,31,76417,1,12,0:0:0:0:
93,296,76576,1,0,0:0:0:0:
92,273,76736,1,8,0:0:0:0:
109,292,76842,1,8,0:0:0:0:
110,292,76949,1,8,0:0:0:0:
110,292,77055,1,0,0:0:0:0:
110,292,77135,1,0,0:0:0:0:
110,292,77214,1,0,0:0:0:0:
131,57,77374,1,12,0:0:0:0:
120,302,78012,1,8,0:0:0:0:
120,302,78172,1,8,0:0:0:0:
121,288,78332,1,0,0:0:0:0:
121,288,78411,1,0,0:0:0:0:
121,288,78491,1,0,0:0:0:0:
121,288,78571,1,0,0:0:0:0:
144,45,78651,1,12,0:0:0:0:
238,154,78970,1,8,0:0:0:0:
238,154,79129,1,0,0:0:0:0:
237,154,79449,1,0,0:0:0:0:
237,154,79608,1,8,0:0:0:0:
237,154,79927,1,0,0:0:0:0:
307,102,80087,1,0,0:0:0:0:
299,95,80246,1,8,0:0:0:0:
298,95,80566,1,0,0:0:0:0:
298,95,80725,1,0,0:0:0:0:
298,95,80885,1,8,0:0:0:0:
298,95,81044,1,8,0:0:0:0:
298,95,81204,1,0,0:0:0:0:
294,95,81523,1,8,0:0:0:0:
294,95,81683,1,0,0:0:0:0:
294,95,82002,1,0,0:0:0:0:
294,95,82161,1,8,0:0:0:0:
294,95,82321,1,0,0:0:0:0:
294,95,82640,1,0,0:0:0:0:
294,95,82800,1,8,0:0:0:0:
294,95,83119,1,0,0:0:0:0:
294,95,83278,1,0,0:0:0:0:
294,95,83358,1,0,0:0:0:0:
294,95,83438,1,8,0:0:0:0:
294,95,83597,1,0,0:0:0:0:
294,95,83757,1,12,0:0:0:0:
278,134,84076,1,8,0:0:0:0:
278,134,84236,1,0,0:0:0:0:
278,134,84555,1,0,0:0:0:0:
278,134,84714,1,8,0:0:0:0:
233,150,84874,1,0,0:0:0:0:
233,150,85193,1,0,0:0:0:0:
233,150,85353,1,8,0:0:0:0:
233,150,85512,1,8,0:0:0:0:
233,150,85672,1,0,0:0:0:0:
233,150,85832,1,0,0:0:0:0:
233,150,85911,1,0,0:0:0:0:
233,150,85991,1,8,0:0:0:0:
233,152,86310,1,0,0:0:0:0:
233,152,86629,1,8,0:0:0:0:
233,152,86789,1,0,0:0:0:0:
233,154,87108,1,0,0:0:0:0:
233,154,87268,1,8,0:0:0:0:
232,163,87427,1,4,0:0:0:0:
232,163,87746,1,12,0:0:0:0:
232,165,88066,1,12,0:0:0:0:
232,165,88385,1,12,0:0:0:0:
232,165,88704,1,8,0:0:0:0:
232,165,88784,1,8,0:0:0:0:
232,165,88863,1,4,0:0:0:0:
191,145,89183,1,8,0:0:0:0:
185,147,89342,1,0,0:0:0:0:
185,147,89661,1,0,0:0:0:0:
185,147,89821,1,8,0:0:0:0:
179,143,89980,1,0,0:0:0:0:
176,145,90300,1,0,0:0:0:0:
176,145,90379,1,0,0:0:0:0:
176,145,90459,1,8,0:0:0:0:
176,145,90619,1,8,0:0:0:0:
171,149,90778,1,0,0:0:0:0:
171,149,90938,1,0,0:0:0:0:
171,149,91097,1,8,0:0:0:0:
169,149,91417,1,0,0:0:0:0:
167,153,91736,1,8,0:0:0:0:
167,153,91895,1,0,0:0:0:0:
163,154,92214,1,0,0:0:0:0:
156,162,92374,1,8,0:0:0:0:
149,164,92534,1,0,0:0:0:0:
149,164,92693,1,0,0:0:0:0:
149,164,92853,1,8,0:0:0:0:
149,164,93012,1,8,0:0:0:0:
148,165,93332,1,0,0:0:0:0:
148,165,93491,1,0,0:0:0:0:
148,165,93651,1,8,0:0:0:0:
148,165,93730,1,8,0:0:0:0:
148,165,93810,1,0,0:0:0:0:
142,201,93890,1,0,0:0:0:0:
148,165,93970,1,12,0:0:0:0:
140,163,94289,1,8,0:0:0:0:
140,163,94449,1,0,0:0:0:0:
138,162,94768,1,0,0:0:0:0:
138,162,94927,1,8,0:0:0:0:
138,162,95087,1,12,0:0:0:0:
135,163,95406,1,4,0:0:0:0:
134,165,95725,1,12,0:0:0:0:
206,155,96044,1,8,0:0:0:0:
206,155,96124,1,8,0:0:0:0:
206,155,96204,1,0,0:0:0:0:
198,158,96363,1,8,0:0:0:0:
201,158,96443,1,8,0:0:0:0:
198,158,96523,1,4,0:0:0:0:
244,155,96842,1,8,0:0:0:0:
214,194,97002,1,0,0:0:0:0:
214,194,97321,1,0,0:0:0:0:
214,194,97480,1,8,0:0:0:0:
214,194,97640,1,0,0:0:0:0:
214,194,97959,1,0,0:0:0:0:
214,194,98119,1,8,0:0:0:0:
214,194,98278,1,8,0:0:0:0:
214,194,98438,1,0,0:0:0:0:
204,197,98597,1,8,0:0:0:0:
204,197,98757,1,8,0:0:0:0:
204,197,99076,1,0,0:0:0:0:
204,197,99395,1,8,0:0:0:0:
204,197,99555,1,0,0:0:0:0:
198,198,99874,1,8,0:0:0:0:
198,198,100034,1,0,0:0:0:0:
198,198,100193,1,8,0:0:0:0:
198,198,100512,1,0,0:0:0:0:
198,198,100672,1,8,0:0:0:0:
195,198,100991,1,0,0:0:0:0:
195,198,101151,1,0,0:0:0:0:
195,198,101310,1,8,0:0:0:0:
189,202,101470,1,8,0:0:0:0:
189,202,101550,1,8,0:0:0:0:
189,202,101629,1,4,0:0:0:0:
183,196,101949,1,8,0:0:0:0:
183,196,102108,1,0,0:0:0:0:
183,196,102427,1,0,0:0:0:0:
183,196,102587,1,8,0:0:0:0:
183,196,102746,1,0,0:0:0:0:
183,197,103066,1,0,0:0:0:0:
183,197,103225,1,8,0:0:0:0:
183,197,103544,1,0,0:0:0:0:
183,197,103704,1,0,0:0:0:0:
183,197,103863,1,8,0:0:0:0:
182,197,104183,1,0,0:0:0:0:
183,197,104342,1,0,0:0:0:0:
182,197,104502,1,8,0:0:0:0:
180,171,104661,1,8,0:0:0:0:
180,171,104980,1,0,0:0:0:0:
180,171,105140,1,8,0:0:0:0:
180,171,105300,1,0,0:0:0:0:
180,171,105619,1,0,0:0:0:0:
180,171,105699,1,0,0:0:0:0:
180,171,105778,1,8,0:0:0:0:
257,84,105858,1,0,0:0:0:0:
180,171,105938,1,8,0:0:0:0:
180,171,106097,1,0,0:0:0:0:
180,171,106257,1,8,0:0:0:0:
180,171,106337,1,8,0:0:0:0:
180,171,106417,1,0,0:0:0:0:
180,171,106576,1,0,0:0:0:0:
178,175,106736,1,12,0:0:0:0:
134,311,107055,1,8,0:0:0:0:
134,311,107214,1,0,0:0:0:0:
134,311,107534,1,8,0:0:0:0:
134,311,107693,1,8,0:0:0:0:
134,311,107853,1,0,0:0:0:0:
134,311,108172,1,0,0:0:0:0:
134,311,108332,1,8,0:0:0:0:
138,300,108491,1,0,0:0:0:0:
138,300,108571,1,8,0:0:0:0:
138,300,108651,1,0,0:0:0:0:
138,300,108810,1,0,0:0:0:0:
138,300,108970,1,8,0:0:0:0:
145,297,109129,1,0,0:0:0:0:
138,304,109289,1,8,0:0:0:0:
144,306,109608,1,8,0:0:0:0:
144,306,109768,1,0,0:0:0:0:
145,306,110087,1,0,0:0:0:0:
145,306,110246,1,8,0:0:0:0:
144,306,110406,1,8,0:0:0:0:
148,293,110725,1,0,0:0:0:0:
148,293,110885,1,8,0:0:0:0:
148,293,111044,1,0,0:0:0:0:
148,293,111124,1,0,0:0:0:0:
148,293,111204,1,8,0:0:0:0:
150,279,111363,1,0,0:0:0:0:
150,279,111523,1,8,0:0:0:0:
134,276,111683,1,8,0:0:0:0:
134,293,111762,1,8,0:0:0:0:
130,54,111842,1,4,0:0:0:0:
143,292,112161,1,8,0:0:0:0:
144,292,112321,1,0,0:0:0:0:
143,292,112640,1,8,0:0:0:0:
143,292,112800,1,8,0:0:0:0:
143,292,112959,1,0,0:0:0:0:
149,278,113278,1,0,0:0:0:0:
149,278,113438,1,8,0:0:0:0:
148,278,113597,1,0,0:0:0:0:
148,278,113677,1,0,0:0:0:0:
148,278,113757,1,8,0:0:0:0:
149,278,113917,1,0,0:0:0:0:
149,278,114076,1,8,0:0:0:0:
149,278,114236,1,8,0:0:0:0:
148,278,114316,1,8,0:0:0:0:
148,278,114395,1,0,0:0:0:0:
149,278,114714,1,8,0:0:0:0:
149,278,114874,1,0,0:0:0:0:
148,278,115193,1,8,0:0:0:0:
149,278,115353,1,0,0:0:0:0:
149,278,115512,1,8,0:0:0:0:
136,277,115832,1,0,0:0:0:0:
136,277,115991,1,8,0:0:0:0:
136,277,116151,1,0,0:0:0:0:
136,277,116230,1,0,0:0:0:0:
136,277,116310,1,8,0:0:0:0:
136,277,116470,1,0,0:0:0:0:
136,277,116550,1,0,0:0:0:0:
136,277,116629,1,0,0:0:0:0:
142,275,116789,1,0,0:0:0:0:
98,31,116949,1,12,0:0:0:0:
141,303,117268,1,0,0:0:0:0:
141,303,117427,1,8,0:0:0:0:
141,303,117906,1,8,0:0:0:0:
147,290,118066,1,0,0:0:0:0:
147,290,118225,1,8,0:0:0:0:
147,290,118385,1,8,0:0:0:0:
147,290,118544,1,0,0:0:0:0:
147,290,118704,1,8,0:0:0:0:
147,290,119023,1,0,0:0:0:0:
147,290,119183,1,0,0:0:0:0:
147,290,119502,1,8,0:0:0:0:
139,282,119821,1,8,0:0:0:0:
139,282,119980,1,0,0:0:0:0:
139,282,120300,1,0,0:0:0:0:
139,282,120459,1,8,0:0:0:0:
139,282,120619,1,8,0:0:0:0:
109,58,120778,1,4,0:0:0:0:
139,282,120938,1,8,0:0:0:0:
139,282,121018,1,0,0:0:0:0:
139,282,121097,1,0,0:0:0:0:
123,47,121257,1,12,0:0:0:0:
122,277,121576,1,8,0:0:0:0:
122,277,121656,1,8,0:0:0:0:
122,277,121736,1,0,0:0:0:0:
122,277,121816,1,0,0:0:0:0:
122,277,121895,1,8,0:0:0:0:
123,47,122055,1,12,0:0:0:0:
130,283,122374,1,8,0:0:0:0:
130,283,122534,1,0,0:0:0:0:
130,283,122853,1,0,0:0:0:0:
130,283,123012,1,8,0:0:0:0:
124,270,123172,1,0,0:0:0:0:
124,270,123332,1,0,0:0:0:0:
126,272,123491,1,8,0:0:0:0:
126,272,123651,1,8,0:0:0:0:
139,269,123970,1,0,0:0:0:0:
139,269,124129,1,0,0:0:0:0:
139,262,124289,1,8,0:0:0:0:
137,257,124608,1,8,0:0:0:0:
137,257,124768,1,0,0:0:0:0:
139,262,125087,1,0,0:0:0:0:
137,257,125246,1,8,0:0:0:0:
137,257,125406,1,0,0:0:0:0:
139,262,125725,1,0,0:0:0:0:
139,262,125885,1,8,0:0:0:0:
137,257,126044,1,0,0:0:0:0:
137,257,126204,1,8,0:0:0:0:
139,262,126363,1,0,0:0:0:0:
139,262,126443,1,0,0:0:0:0:
139,262,126523,1,8,0:0:0:0:
145,266,126683,1,0,0:0:0:0:
115,68,126842,1,12,0:0:0:0:
127,286,127800,1,8,0:0:0:0:
127,286,127959,1,8,0:0:0:0:
127,286,128119,1,0,0:0:0:0:
127,286,128199,1,0,0:0:0:0:
127,286,128278,1,0,0:0:0:0:
127,286,128358,1,0,0:0:0:0:
123,44,128438,1,12,0:0:0:0:
230,184,128757,1,8,0:0:0:0:
230,184,128917,1,8,0:0:0:0:
230,184,128996,1,8,0:0:0:0:
237,176,129076,1,0,0:0:0:0:
237,176,129236,1,0,0:0:0:0:
236,156,129395,1,8,0:0:0:0:
236,156,129555,1,0,0:0:0:0:
226,156,129874,1,0,0:0:0:0:
226,156,130034,1,8,0:0:0:0:
226,156,130193,1,0,0:0:0:0:
226,156,130273,1,0,0:0:0:0:
226,156,130353,1,8,0:0:0:0:
226,156,130512,1,0,0:0:0:0:
226,156,130672,1,8,0:0:0:0:
226,156,130832,1,8,0:0:0:0:
226,156,130991,1,4,0:0:0:0:
280,123,131310,1,8,0:0:0:0:
269,124,131470,1,8,0:0:0:0:
269,124,131550,1,8,0:0:0:0:
269,124,131629,1,0,0:0:0:0:
269,124,131709,1,0,0:0:0:0:
269,124,131789,1,8,0:0:0:0:
269,124,131949,1,8,0:0:0:0:
269,124,132108,1,0,0:0:0:0:
299,148,132427,1,0,0:0:0:0:
299,148,132507,1,0,0:0:0:0:
299,148,132587,1,8,0:0:0:0:
299,148,132746,1,0,0:0:0:0:
294,143,132906,1,8,0:0:0:0:
294,143,133066,1,8,0:0:0:0:
294,143,133145,1,8,0:0:0:0:
294,143,133225,1,8,0:0:0:0:
294,143,133385,1,8,0:0:0:0:
292,138,133544,1,4,0:0:0:0:
235,115,133863,1,8,0:0:0:0:
225,106,134023,1,0,0:0:0:0:
223,112,134183,1,8,0:0:0:0:
238,117,134342,1,8,0:0:0:0:
239,116,134422,1,8,0:0:0:0:
238,117,134502,1,0,0:0:0:0:
233,113,134661,1,0,0:0:0:0:
233,113,134821,1,8,0:0:0:0:
255,116,135140,1,8,0:0:0:0:
255,116,135300,1,0,0:0:0:0:
255,116,135459,1,8,0:0:0:0:
255,116,135539,1,8,0:0:0:0:
235,127,135619,1,0,0:0:0:0:
272,86,135699,1,0,0:0:0:0:
235,127,135778,1,8,0:0:0:0:
235,127,135938,1,8,0:0:0:0:
235,127,136018,1,8,0:0:0:0:
221,141,136097,1,0,0:0:0:0:
221,141,136257,1,0,0:0:0:0:
221,141,136417,1,8,0:0:0:0:
221,141,136576,1,0,0:0:0:0:
296,137,136895,1,0,0:0:0:0:
289,136,136975,1,0,0:0:0:0:
296,137,137055,1,8,0:0:0:0:
289,136,137214,1,0,0:0:0:0:
279,136,137534,1,0,0:0:0:0:
279,136,137693,1,8,0:0:0:0:
252,141,137853,1,8,0:0:0:0:
252,141,138012,1,0,0:0:0:0:
331,102,138092,1,0,0:0:0:0:
252,141,138172,1,0,0:0:0:0:
331,102,138252,1,0,0:0:0:0:
238,123,138332,1,8,0:0:0:0:
238,123,138411,1,8,0:0:0:0:
238,129,138491,1,8,0:0:0:0:
238,129,138571,1,8,0:0:0:0:
238,129,138651,1,4,0:0:0:0:
288,104,138970,1,8,0:0:0:0:
288,104,139050,1,0,0:0:0:0:
283,101,139129,1,8,0:0:0:0:
267,171,139289,1,0,0:0:0:0:
267,171,139449,1,8,0:0:0:0:
267,171,139528,1,8,0:0:0:0:
267,171,139608,1,8,0:0:0:0:
267,171,139768,1,0,0:0:0:0:
235,158,140087,1,0,0:0:0:0:
289,149,140246,1,8,0:0:0:0:
289,149,140406,1,8,0:0:0:0:
289,149,140566,1,0,0:0:0:0:
289,149,140645,1,0,0:0:0:0:
283,153,140725,1,0,0:0:0:0:
282,155,140805,1,0,0:0:0:0:
282,155,140885,1,8,0:0:0:0:
266,150,141204,1,0,0:0:0:0:
266,150,141363,1,0,0:0:0:0:
266,150,141523,1,8,0:0:0:0:
266,150,141603,1,0,0:0:0:0:
266,150,141683,1,8,0:0:0:0:
266,150,141842,1,0,0:0:0:0:
266,150,142002,1,8,0:0:0:0:
266,150,142161,1,0,0:0:0:0:
213,94,142241,1,0,0:0:0:0:
266,150,142321,1,8,0:0:0:0:
339,120,142401,5,8,0:0:0:0:
266,150,142480,1,0,0:0:0:0:
264,111,142800,1,8,0:0:0:0:
310,128,142959,1,8,0:0:0:0:
190,73,143039,1,8,0:0:0:0:
300,137,143119,1,0,0:0:0:0:
300,137,143278,1,0,0:0:0:0:
300,137,143438,1,8,0:0:0:0:
294,136,143757,1,4,0:0:0:0:
294,136,144076,1,8,0:0:0:0:
221,132,144236,1,0,0:0:0:0:
221,132,144395,1,8,0:0:0:0:
221,132,144555,1,8,0:0:0:0:
250,74,144635,1,8,0:0:0:0:
216,131,144714,1,0,0:0:0:0:
216,131,144874,1,0,0:0:0:0:
216,131,144954,1,0,0:0:0:0:
208,130,145034,1,8,0:0:0:0:
300,138,145353,1,8,0:0:0:0:
300,138,145512,1,0,0:0:0:0:
295,136,145672,1,8,0:0:0:0:
295,136,145832,1,0,0:0:0:0:
256,105,145911,1,0,0:0:0:0:
295,136,145991,1,8,0:0:0:0:
289,137,146151,1,8,0:0:0:0:
250,106,146230,1,8,0:0:0:0:
289,137,146310,1,0,0:0:0:0:
331,127,146629,1,8,0:0:0:0:
319,124,146789,1,0,0:0:0:0:
292,139,147108,1,0,0:0:0:0:
292,139,147268,1,8,0:0:0:0:
292,139,147427,1,0,0:0:0:0:
236,118,147746,1,0,0:0:0:0:
236,118,147906,1,8,0:0:0:0:
236,118,148066,1,8,0:0:0:0:
236,118,148225,1,0,0:0:0:0:
236,118,148305,1,0,0:0:0:0:
236,118,148385,1,0,0:0:0:0:
236,118,148464,1,0,0:0:0:0:
236,118,148544,1,12,0:0:0:0:
236,118,148704,1,0,0:0:0:0:
236,118,148863,1,12,0:0:0:0:
266,128,149183,1,8,0:0:0:0:
266,128,149342,1,0,0:0:0:0:
263,135,149502,1,8,0:0:0:0:
254,128,149661,1,0,0:0:0:0:
247,84,149741,1,0,0:0:0:0:
254,128,149821,1,8,0:0:0:0:
254,128,149980,1,0,0:0:0:0:
252,132,150140,1,12,0:0:0:0:
237,137,150459,1,8,0:0:0:0:
237,137,150619,1,0,0:0:0:0:
301,97,150699,1,0,0:0:0:0:
237,137,150778,1,8,0:0:0:0:
251,58,150858,1,8,0:0:0:0:
237,137,150938,1,0,0:0:0:0:
237,137,151097,1,8,0:0:0:0:
237,137,151257,1,0,0:0:0:0:
231,135,151417,1,12,0:0:0:0:
304,165,151736,1,8,0:0:0:0:
304,165,151895,1,0,0:0:0:0:
304,165,152055,1,8,0:0:0:0:
231,112,152135,1,8,0:0:0:0:
231,112,152214,1,8,0:0:0:0:
231,112,152294,1,8,0:0:0:0:
231,112,152374,1,0,0:0:0:0:
231,112,152454,1,0,0:0:0:0:
225,115,152534,1,0,0:0:0:0:
225,115,152613,1,0,0:0:0:0:
225,115,152693,1,12,0:0:0:0:
217,119,153172,1,0,0:0:0:0:
217,119,153252,1,0,0:0:0:0:
217,119,153332,1,12,0:0:0:0:
217,120,153970,1,4,0:0:0:0:
139,312,154449,1,0,0:0:0:0:
139,312,154608,1,8,0:0:0:0:
129,309,155087,1,0,0:0:0:0:
128,306,155406,1,8,0:0:0:0:
128,303,155725,1,0,0:0:0:0:
128,303,155885,1,8,0:0:0:0:
126,289,156363,1,0,0:0:0:0:
116,97,156523,1,12,0:0:0:0:
154,317,157002,1,0,0:0:0:0:
154,311,157161,1,8,0:0:0:0:
148,306,157480,1,8,0:0:0:0:
148,306,157640,1,0,0:0:0:0:
148,306,157800,1,0,0:0:0:0:
148,306,157959,1,8,0:0:0:0:
148,306,158278,1,0,0:0:0:0:
176,244,158438,1,8,0:0:0:0:
167,268,158917,1,0,0:0:0:0:
122,66,159076,1,4,0:0:0:0:
151,297,159555,1,0,0:0:0:0:
151,297,159714,1,8,0:0:0:0:
159,305,160034,1,0,0:0:0:0:
159,305,160193,1,0,0:0:0:0:
159,305,160512,1,8,0:0:0:0:
159,305,160832,1,0,0:0:0:0:
159,305,160911,1,8,0:0:0:0:
159,305,160991,1,8,0:0:0:0:
159,305,161151,1,0,0:0:0:0:
159,305,161310,1,0,0:0:0:0:
159,305,161470,1,0,0:0:0:0:
137,89,161629,1,12,0:0:0:0:
159,297,161789,1,0,0:0:0:0:
159,297,161949,1,0,0:0:0:0:
153,128,162108,1,12,0:0:0:0:
171,277,162268,1,0,0:0:0:0:
165,277,162427,1,0,0:0:0:0:
153,128,162587,1,12,0:0:0:0:
165,277,162746,1,0,0:0:0:0:
165,277,162906,1,0,0:0:0:0:
153,128,163066,1,12,0:0:0:0:
165,277,163225,1,0,0:0:0:0:
165,277,163385,1,0,0:0:0:0:
153,128,163544,1,12,0:0:0:0:
164,269,163704,1,0,0:0:0:0:
119,51,164183,1,12,0:0:0:0:
157,285,164502,1,8,0:0:0:0:
157,285,164661,1,0,0:0:0:0:
157,285,164980,1,0,0:0:0:0:
157,285,165140,1,8,0:0:0:0:
157,285,165300,1,0,0:0:0:0:
157,285,165619,1,0,0:0:0:0:
161,274,165778,1,0,0:0:0:0:
161,274,165938,1,8,0:0:0:0:
167,269,166097,1,8,0:0:0:0:
167,269,166257,1,0,0:0:0:0:
167,269,166417,1,8,0:0:0:0:
167,269,166736,1,0,0:0:0:0:
151,263,167055,1,8,0:0:0:0:
149,262,167214,1,0,0:0:0:0:
148,278,167534,1,0,0:0:0:0:
148,278,167693,1,8,0:0:0:0:
148,278,167853,1,0,0:0:0:0:
152,288,168012,1,8,0:0:0:0:
152,288,168119,1,8,0:0:0:0:
152,288,168225,1,8,0:0:0:0:
152,288,168332,1,0,0:0:0:0:
182,287,168438,1,0,0:0:0:0:
182,287,168544,1,0,0:0:0:0:
182,287,168651,1,8,0:0:0:0:
189,285,168863,1,0,0:0:0:0:
182,287,168970,1,0,0:0:0:0:
129,67,169289,1,12,0:0:0:0:
176,270,169608,1,8,0:0:0:0:
166,262,169768,1,0,0:0:0:0:
167,262,170087,1,0,0:0:0:0:
167,262,170246,1,8,0:0:0:0:
167,262,170406,1,0,0:0:0:0:
167,262,170725,1,0,0:0:0:0:
167,262,170885,1,0,0:0:0:0:
167,262,171044,1,8,0:0:0:0:
167,262,171204,1,8,0:0:0:0:
167,262,171363,1,0,0:0:0:0:
167,262,171523,1,8,0:0:0:0:
139,64,171842,1,12,0:0:0:0:
154,252,172002,1,0,0:0:0:0:
157,253,172161,1,0,0:0:0:0:
148,111,172321,1,12,0:0:0:0:
154,252,172480,1,0,0:0:0:0:
154,252,172640,1,0,0:0:0:0:
148,111,172800,1,12,0:0:0:0:
157,253,172959,1,0,0:0:0:0:
154,252,173119,1,0,0:0:0:0:
148,111,173278,1,12,0:0:0:0:
154,252,173438,1,0,0:0:0:0:
157,253,173597,1,0,0:0:0:0:
148,111,173757,1,12,0:0:0:0:
154,252,173917,1,0,0:0:0:0:
148,111,174076,1,12,0:0:0:0:
157,253,174395,1,0,0:0:0:0:
158,254,174555,1,0,0:0:0:0:
158,254,174635,1,0,0:0:0:0:
154,8,174714,1,12,0:0:0:0:
157,253,175034,1,0,0:0:0:0:
157,253,175193,1,0,0:0:0:0:
158,254,175353,1,8,0:0:0:0:
158,254,175512,1,0,0:0:0:0:
157,253,175592,1,0,0:0:0:0:
157,253,175672,1,8,0:0:0:0:
157,253,175832,1,0,0:0:0:0:
157,253,175991,1,8,0:0:0:0:
151,254,176310,1,0,0:0:0:0:
151,254,176470,1,8,0:0:0:0:
151,254,176550,1,0,0:0:0:0:
151,254,176629,1,8,0:0:0:0:
144,256,176789,1,0,0:0:0:0:
144,256,176949,1,8,0:0:0:0:
144,256,177188,1,0,0:0:0:0:
151,254,177268,1,8,0:0:0:0:
144,256,177427,1,0,0:0:0:0:
144,256,177587,1,8,0:0:0:0:
144,256,177826,1,8,0:0:0:0:
152,238,177906,1,0,0:0:0:0:
144,256,178066,1,0,0:0:0:0:
144,256,178225,1,8,0:0:0:0:
159,263,178385,1,8,0:0:0:0:
159,263,178464,1,8,0:0:0:0:
159,263,178544,1,8,0:0:0:0:
159,263,178704,1,8,0:0:0:0:
159,263,178784,1,8,0:0:0:0:
159,263,178863,1,0,0:0:0:0:
164,255,179023,1,8,0:0:0:0:
164,255,179103,1,0,0:0:0:0:
164,255,179183,1,0,0:0:0:0:
164,255,179342,1,0,0:0:0:0:
125,61,179502,1,12,0:0:0:0:
266,182,179821,1,0,0:0:0:0:
266,182,179980,1,8,0:0:0:0:
266,182,180140,1,0,0:0:0:0:
266,185,180459,1,0,0:0:0:0:
266,185,180619,1,8,0:0:0:0:
266,185,180778,1,0,0:0:0:0:
266,185,180938,1,8,0:0:0:0:
266,185,181097,1,0,0:0:0:0:
310,149,181417,1,0,0:0:0:0:
310,149,181736,1,0,0:0:0:0:
310,149,182055,1,0,0:0:0:0:
310,149,182374,1,0,0:0:0:0:
310,149,182534,1,8,0:0:0:0:
310,149,182693,1,0,0:0:0:0:
308,149,183012,1,0,0:0:0:0:
308,149,183172,1,8,0:0:0:0:
308,149,183332,1,8,0:0:0:0:
308,149,183491,1,0,0:0:0:0:
308,149,183571,1,0,0:0:0:0:
308,149,183651,1,0,0:0:0:0:
308,149,183810,1,12,0:0:0:0:
286,154,184129,1,8,0:0:0:0:
286,154,184209,1,0,0:0:0:0:
286,154,184289,1,0,0:0:0:0:
286,154,184449,1,8,0:0:0:0:
286,154,184528,1,8,0:0:0:0:
286,154,184608,1,4,0:0:0:0:
305,160,184927,1,8,0:0:0:0:
296,157,185087,1,0,0:0:0:0:
291,159,185406,1,0,0:0:0:0:
291,159,185566,1,8,0:0:0:0:
268,182,185885,1,0,0:0:0:0:
273,175,186044,1,0,0:0:0:0:
271,179,186204,1,8,0:0:0:0:
271,179,186523,1,0,0:0:0:0:
271,179,186842,1,8,0:0:0:0:
271,179,187002,1,0,0:0:0:0:
271,179,187161,5,8,0:0:0:0:
264,169,187321,1,0,0:0:0:0:
305,142,187640,1,0,0:0:0:0:
305,142,187800,1,8,0:0:0:0:
287,166,187959,1,0,0:0:0:0:
277,160,188278,1,0,0:0:0:0:
277,160,188438,1,8,0:0:0:0:
271,152,188597,1,0,0:0:0:0:
271,152,188757,1,8,0:0:0:0:
271,152,188837,1,8,0:0:0:0:
271,152,188917,1,0,0:0:0:0:
271,152,188996,1,0,0:0:0:0:
273,147,189076,1,8,0:0:0:0:
273,147,189236,1,0,0:0:0:0:
273,147,189395,1,0,0:0:0:0:
273,147,189555,1,0,0:0:0:0:
271,140,189714,1,4,0:0:0:0:
256,192,189874,12,4,192268,0:0:0:0:
241,140,193544,5,0,0:0:0:0:
241,139,194821,1,0,0:0:0:0:
301,159,196097,1,0,0:0:0:0:
289,157,197374,1,0,0:0:0:0:
288,157,198012,1,0,0:0:0:0:
278,152,198651,1,0,0:0:0:0:
278,152,199927,1,0,0:0:0:0:
267,150,201204,1,0,0:0:0:0:
263,158,202480,1,0,0:0:0:0:
263,158,203119,1,0,0:0:0:0:
308,138,203438,1,8,0:0:0:0:
260,148,203757,1,0,0:0:0:0:
260,148,205034,1,8,0:0:0:0:
260,148,205672,1,0,0:0:0:0:
256,144,206310,1,8,0:0:0:0:
253,144,206949,1,8,0:0:0:0:
249,145,207587,1,0,0:0:0:0:
247,145,208225,1,0,0:0:0:0:
247,145,208544,1,8,0:0:0:0:
247,145,208863,1,0,0:0:0:0:
290,132,209821,1,0,0:0:0:0:
243,143,210140,1,8,0:0:0:0:
243,142,210778,1,8,0:0:0:0:
390,108,210938,1,8,0:0:0:0:
336,103,211097,1,0,0:0:0:0:
336,103,211204,1,0,0:0:0:0:
336,103,211310,1,0,0:0:0:0:
317,99,211417,1,12,0:0:0:0:
283,139,211736,1,8,0:0:0:0:
283,139,211895,1,0,0:0:0:0:
283,139,211975,1,0,0:0:0:0:
283,139,212055,1,8,0:0:0:0:
285,131,212214,1,8,0:0:0:0:
268,113,212374,1,8,0:0:0:0:
268,113,212534,1,8,0:0:0:0:
289,101,212693,1,12,0:0:0:0:
289,101,212853,1,12,0:0:0:0:
128,309,213970,1,0,0:0:0:0:
91,309,214449,1,0,0:0:0:0:
91,309,214528,1,0,0:0:0:0:
129,45,214608,1,12,0:0:0:0:
88,295,215087,1,8,0:0:0:0:
88,295,215167,1,8,0:0:0:0:
91,61,215246,1,4,0:0:0:0:
134,298,215566,1,8,0:0:0:0:
134,298,215725,1,0,0:0:0:0:
134,298,215805,1,0,0:0:0:0:
134,298,215885,1,8,0:0:0:0:
129,290,216044,1,0,0:0:0:0:
129,290,216204,1,8,0:0:0:0:
122,285,216284,1,8,0:0:0:0:
129,290,216363,1,8,0:0:0:0:
123,298,216523,1,0,0:0:0:0:
125,296,216842,1,8,0:0:0:0:
125,296,217002,1,8,0:0:0:0:
125,296,217082,1,0,0:0:0:0:
125,296,217161,1,0,0:0:0:0:
117,285,217321,1,8,0:0:0:0:
120,261,217401,1,8,0:0:0:0:
113,286,217480,1,0,0:0:0:0:
113,286,217640,1,8,0:0:0:0:
115,280,217959,1,8,0:0:0:0:
115,280,218119,1,8,0:0:0:0:
127,269,218278,1,0,0:0:0:0:
127,269,218358,1,0,0:0:0:0:
127,269,218438,1,8,0:0:0:0:
124,263,218518,1,8,0:0:0:0:
127,269,218597,1,0,0:0:0:0:
127,269,218757,1,8,0:0:0:0:
108,40,219076,1,12,0:0:0:0:
140,291,219395,1,0,0:0:0:0:
119,268,219555,1,8,0:0:0:0:
119,268,219714,1,0,0:0:0:0:
128,283,219874,1,0,0:0:0:0:
128,283,219954,1,0,0:0:0:0:
128,292,220034,1,8,0:0:0:0:
128,292,220193,1,0,0:0:0:0:
128,292,220353,1,8,0:0:0:0:
134,302,220672,1,0,0:0:0:0:
136,293,220832,1,8,0:0:0:0:
136,293,220991,1,0,0:0:0:0:
136,293,221151,1,8,0:0:0:0:
136,293,221230,1,8,0:0:0:0:
136,293,221310,1,0,0:0:0:0:
136,293,221470,1,0,0:0:0:0:
136,293,221629,1,8,0:0:0:0:
136,293,221949,1,8,0:0:0:0:
136,293,222108,1,0,0:0:0:0:
136,293,222427,1,0,0:0:0:0:
136,293,222587,1,8,0:0:0:0:
136,293,222746,1,0,0:0:0:0:
136,293,222826,1,8,0:0:0:0:
136,293,222906,1,8,0:0:0:0:
134,288,223066,1,0,0:0:0:0:
145,276,223225,1,8,0:0:0:0:
138,261,223305,1,0,0:0:0:0:
145,276,223385,1,8,0:0:0:0:
145,276,223464,1,8,0:0:0:0:
145,276,223544,1,0,0:0:0:0:
145,276,223704,1,0,0:0:0:0:
145,276,223863,1,8,0:0:0:0:
143,280,224023,1,0,0:0:0:0:
143,280,224103,1,0,0:0:0:0:
99,61,224183,1,12,0:0:0:0:
154,283,224502,1,8,0:0:0:0:
144,295,224661,1,0,0:0:0:0:
144,295,224741,1,8,0:0:0:0:
144,295,224821,1,0,0:0:0:0:
144,292,224980,1,0,0:0:0:0:
144,293,225140,1,8,0:0:0:0:
140,273,225220,1,0,0:0:0:0:
144,295,225300,1,8,0:0:0:0:
139,303,225619,1,0,0:0:0:0:
134,298,225778,1,8,0:0:0:0:
134,298,225938,1,0,0:0:0:0:
148,279,226018,1,0,0:0:0:0:
134,298,226097,1,8,0:0:0:0:
129,290,226257,1,8,0:0:0:0:
140,281,226337,1,0,0:0:0:0:
129,290,226417,1,8,0:0:0:0:
129,290,226576,1,0,0:0:0:0:
123,298,226736,1,8,0:0:0:0:
125,296,227055,1,8,0:0:0:0:
125,296,227214,1,0,0:0:0:0:
125,296,227294,1,0,0:0:0:0:
125,296,227374,1,8,0:0:0:0:
117,285,227534,1,8,0:0:0:0:
113,286,227693,1,8,0:0:0:0:
113,286,227853,1,0,0:0:0:0:
115,280,228172,1,0,0:0:0:0:
115,280,228332,1,8,0:0:0:0:
127,269,228491,1,8,0:0:0:0:
127,269,228571,1,8,0:0:0:0:
127,269,228651,1,0,0:0:0:0:
120,282,228730,1,0,0:0:0:0:
127,269,228810,1,8,0:0:0:0:
127,269,228970,1,8,0:0:0:0:
108,40,229289,1,12,0:0:0:0:
140,291,229608,1,0,0:0:0:0:
119,268,229768,1,8,0:0:0:0:
119,268,229927,1,0,0:0:0:0:
128,283,230087,1,0,0:0:0:0:
128,283,230167,1,0,0:0:0:0:
128,292,230246,1,8,0:0:0:0:
128,292,230406,1,0,0:0:0:0:
128,292,230566,1,8,0:0:0:0:
134,302,230885,1,0,0:0:0:0:
136,293,231044,1,8,0:0:0:0:
136,293,231204,1,0,0:0:0:0:
136,293,231363,1,8,0:0:0:0:
136,293,231443,1,8,0:0:0:0:
136,293,231523,1,0,0:0:0:0:
136,293,231683,1,0,0:0:0:0:
136,293,231842,1,8,0:0:0:0:
136,293,232161,1,8,0:0:0:0:
136,293,232321,1,0,0:0:0:0:
136,293,232640,1,0,0:0:0:0:
136,293,232800,1,8,0:0:0:0:
136,293,232959,1,0,0:0:0:0:
143,286,233039,1,8,0:0:0:0:
136,293,233119,1,0,0:0:0:0:
146,274,233199,1,0,0:0:0:0:
134,288,233278,1,8,0:0:0:0:
145,276,233438,1,8,0:0:0:0:
145,276,233597,1,0,0:0:0:0:
145,276,233677,1,0,0:0:0:0:
120,0,233757,1,12,0:0:0:0:
145,276,233917,1,0,0:0:0:0:
137,274,233996,1,0,0:0:0:0:
137,0,234076,1,12,0:0:0:0:
99,61,234395,1,12,0:0:0:0:
142,283,234555,1,0,0:0:0:0:
142,283,234635,1,0,0:0:0:0:
142,283,234714,1,8,0:0:0:0:
119,284,234794,1,8,0:0:0:0:
142,283,234874,1,0,0:0:0:0:
142,283,235034,1,8,0:0:0:0:
137,280,235193,1,8,0:0:0:0:
137,280,235273,1,8,0:0:0:0:
137,280,235353,1,0,0:0:0:0:
137,280,235433,1,0,0:0:0:0:
137,280,235512,1,8,0:0:0:0:
122,264,235672,1,8,0:0:0:0:
122,264,235832,1,0,0:0:0:0:
122,264,235911,1,0,0:0:0:0:
122,264,235991,1,8,0:0:0:0:
122,264,236071,1,8,0:0:0:0:
122,262,236151,1,0,0:0:0:0:
117,258,236310,1,8,0:0:0:0:
122,264,236470,1,8,0:0:0:0:
122,264,236550,1,8,0:0:0:0:
122,264,236629,1,0,0:0:0:0:
128,283,236709,1,0,0:0:0:0:
123,270,236789,1,8,0:0:0:0:
82,316,236949,1,8,0:0:0:0:
124,274,237108,1,0,0:0:0:0:
122,269,237188,1,0,0:0:0:0:
139,300,237268,1,8,0:0:0:0:
131,280,237347,1,8,0:0:0:0:
93,296,237427,1,0,0:0:0:0:
120,280,237587,1,8,0:0:0:0:
120,280,237746,1,8,0:0:0:0:
120,280,237826,1,8,0:0:0:0:
119,277,237906,1,0,0:0:0:0:
119,277,237986,1,0,0:0:0:0:
119,277,238066,1,8,0:0:0:0:
120,280,238225,1,8,0:0:0:0:
135,280,238385,1,0,0:0:0:0:
135,280,238544,1,8,0:0:0:0:
135,280,238624,1,8,0:0:0:0:
136,279,238704,1,0,0:0:0:0:
128,285,238863,1,8,0:0:0:0:
128,285,238943,1,0,0:0:0:0:
128,285,239023,1,0,0:0:0:0:
112,58,239183,1,12,0:0:0:0:
112,58,239502,1,12,0:0:0:0:
136,300,239821,1,8,0:0:0:0:
136,300,239980,1,0,0:0:0:0:
136,300,240300,1,0,0:0:0:0:
136,300,240459,1,8,0:0:0:0:
136,300,240619,1,8,0:0:0:0:
136,300,240778,1,0,0:0:0:0:
128,285,240938,1,0,0:0:0:0:
128,285,241097,1,8,0:0:0:0:
117,288,241417,1,0,0:0:0:0:
117,288,241576,1,0,0:0:0:0:
117,288,241736,1,8,0:0:0:0:
117,288,241895,1,0,0:0:0:0:
117,288,241975,1,0,0:0:0:0:
117,288,242055,1,8,0:0:0:0:
117,288,242374,1,8,0:0:0:0:
117,288,242454,1,8,0:0:0:0:
117,288,242534,1,8,0:0:0:0:
117,288,242613,1,8,0:0:0:0:
117,288,242693,1,8,0:0:0:0:
117,288,242773,1,8,0:0:0:0:
117,288,242853,1,8,0:0:0:0:
117,288,242933,1,8,0:0:0:0:
117,288,243012,1,8,0:0:0:0:
117,288,243092,1,8,0:0:0:0:
117,288,243172,1,8,0:0:0:0:
102,49,243332,1,4,0:0:0:0:
123,307,243970,1,8,0:0:0:0:
123,307,244129,1,8,0:0:0:0:
123,307,244209,1,8,0:0:0:0:
100,93,244289,1,4,0:0:0:0:
103,17,244608,1,12,0:0:0:0:
293,156,244927,1,8,0:0:0:0:
293,156,245087,1,8,0:0:0:0:
293,156,245167,1,8,0:0:0:0:
293,156,245246,1,0,0:0:0:0:
293,156,245406,1,0,0:0:0:0:
293,156,245566,1,8,0:0:0:0:
293,156,245885,1,0,0:0:0:0:
293,156,246044,1,0,0:0:0:0:
293,156,246204,1,8,0:0:0:0:
293,156,246363,1,0,0:0:0:0:
293,156,246443,1,8,0:0:0:0:
293,156,246523,1,0,0:0:0:0:
293,156,246683,1,0,0:0:0:0:
293,156,246842,1,8,0:0:0:0:
293,156,247002,1,8,0:0:0:0:
293,156,247161,1,0,0:0:0:0:
293,156,247480,1,8,0:0:0:0:
293,156,247640,1,8,0:0:0:0:
293,156,247800,1,0,0:0:0:0:
293,156,247959,1,0,0:0:0:0:
293,156,248119,1,8,0:0:0:0:
293,156,248199,1,8,0:0:0:0:
293,156,248278,1,0,0:0:0:0:
293,156,248358,1,0,0:0:0:0:
293,156,248438,1,8,0:0:0:0:
293,156,248597,1,0,0:0:0:0:
293,156,248757,1,8,0:0:0:0:
293,156,249076,1,0,0:0:0:0:
293,156,249236,1,0,0:0:0:0:
373,180,249316,1,0,0:0:0:0:
293,156,249395,1,8,0:0:0:0:
293,156,249555,1,8,0:0:0:0:
293,156,249714,1,4,0:0:0:0:
334,190,250034,1,8,0:0:0:0:
334,190,250193,1,8,0:0:0:0:
334,190,250353,1,0,0:0:0:0:
334,190,250512,1,0,0:0:0:0:
334,190,250592,1,0,0:0:0:0:
334,190,250672,1,8,0:0:0:0:
325,182,250991,1,0,0:0:0:0:
325,182,251151,1,0,0:0:0:0:
325,182,251310,1,8,0:0:0:0:
325,183,251629,1,8,0:0:0:0:
325,183,251789,1,0,0:0:0:0:
325,183,251949,1,8,0:0:0:0:
325,183,252108,1,8,0:0:0:0:
325,183,252188,1,8,0:0:0:0:
325,183,252268,1,0,0:0:0:0:
325,183,252427,1,0,0:0:0:0:
325,183,252587,1,8,0:0:0:0:
325,183,252746,1,0,0:0:0:0:
325,183,252826,1,8,0:0:0:0:
325,183,252906,1,0,0:0:0:0:
325,183,253066,1,0,0:0:0:0:
325,183,253225,1,8,0:0:0:0:
325,182,253544,1,0,0:0:0:0:
325,182,253704,1,0,0:0:0:0:
325,182,253784,1,0,0:0:0:0:
325,182,253863,1,8,0:0:0:0:
325,182,254023,1,8,0:0:0:0:
217,153,254103,1,8,0:0:0:0:
325,182,254183,1,0,0:0:0:0:
325,182,254342,1,0,0:0:0:0:
325,182,254502,1,8,0:0:0:0:
325,182,254661,1,0,0:0:0:0:
325,182,254821,1,12,0:0:0:0:
337,185,255140,1,8,0:0:0:0:
337,185,255300,1,8,0:0:0:0:
337,185,255379,1,8,0:0:0:0:
337,185,255459,1,0,0:0:0:0:
337,185,255619,1,0,0:0:0:0:
337,185,255778,1,8,0:0:0:0:
337,185,255938,1,0,0:0:0:0:
337,185,256018,1,8,0:0:0:0:
337,185,256097,1,0,0:0:0:0:
337,185,256257,1,0,0:0:0:0:
337,185,256417,1,8,0:0:0:0:
334,185,256736,1,0,0:0:0:0:
334,185,256895,1,0,0:0:0:0:
334,185,256975,1,0,0:0:0:0:
334,185,257055,1,8,0:0:0:0:
334,185,257214,1,8,0:0:0:0:
334,185,257374,1,0,0:0:0:0:
334,185,257693,1,8,0:0:0:0:
334,185,257853,1,8,0:0:0:0:
334,185,258012,1,0,0:0:0:0:
334,185,258172,1,0,0:0:0:0:
334,185,258252,1,0,0:0:0:0:
334,185,258332,1,8,0:0:0:0:
334,185,258491,1,8,0:0:0:0:
334,185,258571,1,8,0:0:0:0:
334,185,258651,1,0,0:0:0:0:
334,185,258810,1,0,0:0:0:0:
334,185,258970,1,8,0:0:0:0:
334,185,259129,1,0,0:0:0:0:
334,185,259289,1,8,0:0:0:0:
334,185,259449,1,0,0:0:0:0:
334,185,259528,1,0,0:0:0:0:
334,185,259608,1,8,0:0:0:0:
334,185,259688,1,8,0:0:0:0:
334,185,259768,1,8,0:0:0:0:
334,185,259847,1,8,0:0:0:0:
114,81,259927,1,4,0:0:0:0:
140,294,260246,1,0,0:0:0:0:
140,294,260406,1,8,0:0:0:0:
140,294,260566,1,0,0:0:0:0:
140,294,260725,1,0,0:0:0:0:
140,294,260885,1,8,0:0:0:0:
140,294,261044,1,8,0:0:0:0:
140,294,261204,1,0,0:0:0:0:
140,294,261363,1,8,0:0:0:0:
138,277,261523,1,8,0:0:0:0:
138,277,261683,1,0,0:0:0:0:
138,277,261842,1,8,0:0:0:0:
138,277,262002,1,0,0:0:0:0:
138,277,262161,1,8,0:0:0:0:
138,277,262321,1,0,0:0:0:0:
149,277,262480,1,8,0:0:0:0:
139,272,262800,1,8,0:0:0:0:
139,272,262959,1,0,0:0:0:0:
139,272,263278,1,0,0:0:0:0:
139,272,263438,1,8,0:0:0:0:
139,272,263597,1,8,0:0:0:0:
139,272,263757,1,0,0:0:0:0:
139,272,263917,1,0,0:0:0:0:
139,272,264076,1,8,0:0:0:0:
137,304,264395,1,0,0:0:0:0:
137,304,264555,1,0,0:0:0:0:
134,291,264714,1,8,0:0:0:0:
140,50,265034,1,12,0:0:0:0:
132,295,265353,1,0,0:0:0:0:
134,291,265512,1,8,0:0:0:0:
132,295,265672,1,0,0:0:0:0:
132,295,265832,1,0,0:0:0:0:
132,295,265991,1,8,0:0:0:0:
132,295,266151,1,0,0:0:0:0:
134,291,266310,1,0,0:0:0:0:
132,295,266470,1,8,0:0:0:0:
132,295,266629,1,0,0:0:0:0:
132,295,266789,1,0,0:0:0:0:
132,295,266949,1,8,0:0:0:0:
134,291,267108,1,8,0:0:0:0:
132,295,267268,1,0,0:0:0:0:
132,295,267427,1,0,0:0:0:0:
132,295,267587,1,8,0:0:0:0:
132,295,267906,1,0,0:0:0:0:
132,298,268066,1,8,0:0:0:0:
132,295,268385,1,0,0:0:0:0:
132,298,268544,1,0,0:0:0:0:
132,295,268704,1,8,0:0:0:0:
115,10,269023,1,4,0:0:0:0:
120,49,269342,1,12,0:0:0:0:
131,80,269661,1,12,0:0:0:0:
117,283,269980,1,0,0:0:0:0:
117,283,270060,1,0,0:0:0:0:
131,80,270140,1,12,0:0:0:0:
140,284,270459,1,0,0:0:0:0:
140,284,270619,1,8,0:0:0:0:
140,284,270778,1,0,0:0:0:0:
140,284,270938,1,0,0:0:0:0:
140,284,271097,1,8,0:0:0:0:
140,284,271257,1,8,0:0:0:0:
140,284,271417,1,0,0:0:0:0:
140,284,271576,1,8,0:0:0:0:
146,269,271736,1,0,0:0:0:0:
146,269,271895,1,0,0:0:0:0:
147,269,272055,1,8,0:0:0:0:
147,269,272214,1,0,0:0:0:0:
146,269,272374,1,8,0:0:0:0:
146,269,272534,1,0,0:0:0:0:
147,269,272693,1,8,0:0:0:0:
147,269,273012,1,8,0:0:0:0:
146,269,273172,1,0,0:0:0:0:
147,269,273491,1,0,0:0:0:0:
147,269,273651,1,0,0:0:0:0:
146,269,273810,1,8,0:0:0:0:
147,269,274129,1,0,0:0:0:0:
151,262,274289,1,8,0:0:0:0:
151,262,274449,1,0,0:0:0:0:
149,260,274608,1,0,0:0:0:0:
149,260,274768,1,0,0:0:0:0:
149,260,274927,1,8,0:0:0:0:
111,20,275246,1,12,0:0:0:0:
151,266,275566,1,0,0:0:0:0:
151,266,275725,1,8,0:0:0:0:
152,266,275885,1,0,0:0:0:0:
152,266,276044,1,0,0:0:0:0:
152,266,276204,1,8,0:0:0:0:
170,73,276363,1,12,0:0:0:0:
108,74,276683,1,4,0:0:0:0:
108,74,277002,1,12,0:0:0:0:
108,74,277321,1,12,0:0:0:0:
139,294,277800,1,0,0:0:0:0:
256,192,278597,12,0,282906,0:0:0:0:
