osu file format v14

[General]
AudioFilename: audio.mp3
AudioLeadIn: 0
PreviewTime: 52179
Countdown: 1
SampleSet: Normal
StackLeniency: 0.7
Mode: 0
LetterboxInBreaks: 0
WidescreenStoryboard: 0

[Editor]
DistanceSpacing: 0.8
BeatDivisor: 4
GridSize: 4
TimelineZoom: 1

[Metadata]
Title:Blade of Hope (TV Size)
TitleUnicode:Blade of Hope (TV Size)
Artist:sweet ARMS
ArtistUnicode:sweet ARMS
Creator:_shinji
Version:uwu
Source:新妹魔王の契約者
Tags:
BeatmapID:1892586
BeatmapSetID:906976

[Difficulty]
HPDrainRate:6
CircleSize:4
OverallDifficulty:9
ApproachRate:9.3
SliderMultiplier:1.4
SliderTickRate:1

[Events]
//Background and Video events
0,0,"bg.jpg",0,0
//Break Periods
//Storyboard Layer 0 (Background)
//Storyboard Layer 1 (Fail)
//Storyboard Layer 2 (Pass)
//Storyboard Layer 3 (Foreground)
//Storyboard Sound Samples

[TimingPoints]
3669,319.148936170213,4,1,0,60,1,0
3669,-90.9090909090909,4,1,0,60,0,0
21541,-125,4,1,0,60,0,0
31115,-100,4,1,0,60,0,0
31754,-90.9090909090909,4,1,0,60,0,0
41966,-100,4,1,0,60,0,0
47073,-90.9090909090909,4,1,0,60,0,0
52817,-125,4,1,0,60,0,0
53057,-125,4,1,0,5,0,0
53137,-66.6666666666667,4,1,0,60,0,0
53456,-76.9230769230769,4,1,0,60,0,1
55371,-100,4,1,0,50,0,1
55610,-100,4,1,0,5,0,1
55690,-83.3333333333333,4,1,0,60,0,1
55929,-83.3333333333333,4,1,0,5,0,1
56009,-76.9230769230769,4,1,0,60,0,1
57605,-100,4,1,0,50,0,1
57844,-100,4,1,0,5,0,1
57924,-83.3333333333333,4,1,0,60,0,1
58163,-83.3333333333333,4,1,0,5,0,1
58243,-76.9230769230769,4,1,0,60,0,1
58482,-76.9230769230769,4,1,0,5,0,1
58562,-83.3333333333333,4,1,0,50,0,1
60796,-100,4,1,0,60,0,1
61036,-100,4,1,0,5,0,1
61115,-83.3333333333333,4,1,0,60,0,1
62711,-125,4,1,0,40,0,1
62950,-125,4,1,0,5,0,1
63030,-100,4,1,0,50,0,1
63270,-100,4,1,0,5,0,1
63349,-83.3333333333333,4,1,0,60,0,1
63589,-83.3333333333333,4,1,0,5,0,1
63669,-76.9230769230769,4,1,0,60,0,1
65583,-100,4,1,0,50,0,1
65823,-100,4,1,0,5,0,1
65903,-83.3333333333333,4,1,0,60,0,1
66142,-83.3333333333333,4,1,0,5,0,1
66222,-76.9230769230769,4,1,0,60,0,1
67817,-100,4,1,0,50,0,1
68057,-100,4,1,0,5,0,1
68137,-83.3333333333333,4,1,0,60,0,1
68376,-83.3333333333333,4,1,0,5,0,1
68456,-76.9230769230769,4,1,0,60,0,1
68695,-76.9230769230769,4,1,0,5,0,1
68775,-83.3333333333333,4,1,0,60,0,1
71009,-100,4,1,0,60,0,1
71248,-100,4,1,0,5,0,1
71328,-83.3333333333333,4,1,0,60,0,1
72924,-90.9090909090909,4,1,0,60,0,1
73881,-90.9090909090909,4,1,0,60,0,1
77711,-90.9090909090909,4,1,0,60,0,0
77791,-90.9090909090909,4,1,0,10,0,0
78669,-142.857142857143,4,1,0,35,0,0
78908,-142.857142857143,4,1,0,5,0,0
78988,-90.9090909090909,4,1,0,55,0,0
81222,-125,4,1,0,55,0,0
81461,-125,4,1,0,5,0,0
81541,-90.9090909090909,4,1,0,55,0,0
83775,-142.857142857143,4,1,0,35,0,0
84014,-142.857142857143,4,1,0,5,0,0
84094,-90.9090909090909,4,1,0,55,0,0
86169,-66.6666666666667,4,1,0,55,0,0
86488,-90.9090909090909,4,1,0,5,0,0
87445,-90.9090909090909,4,1,0,20,0,0
88562,-90.9090909090909,4,1,0,10,0,0
89839,-90.9090909090909,4,1,0,5,0,0

[HitObjects]
147,252,52179,5,0,0:0:0:0:
45,190,52339,1,0,0:0:0:0:
147,128,52498,5,0,0:0:0:0:
45,66,52658,1,0,0:0:0:0:
261,31,52817,2,0,P|257:72|268:113,1,84
356,186,53137,2,0,L|379:139,1,52.5000020027161
428,232,53296,2,0,L|401:295,1,52.5000020027161
318,346,53456,6,0,P|235:315|196:235,1,181.999991668702
257,29,53934,2,0,P|340:59|379:139,1,181.999991668702
365,267,54413,2,0,P|355:311|328:347,1,90.9999958343508
233,252,54732,2,0,P|207:214|200:169,1,90.9999958343508
180,24,55051,2,0,P|135:32|98:57,1,90.9999958343508
30,224,55371,6,0,P|78:243|130:236,1,105
147,270,55691,2,0,P|91:298|29:303,1,125.999996154785
27,351,56010,2,0,P|118:358|207:341,1,181.999991668702
340,370,56488,6,0,P|329:281|266:219,1,181.999991668702
179,97,56966,1,0,0:0:0:0:
242,321,57126,2,0,P|140:313|78:252,1,181.999991668702
275,189,57605,6,0,P|323:170|374:177,1,105
392,144,57925,2,0,P|335:115|273:111,1,125.999996154785
274,62,58244,2,0,P|341:57|409:67,1,136.499993751526
488,32,58563,6,0,P|491:88|477:126,1,83.9999974365235
432,312,58881,1,0,0:0:0:0:
409,67,59041,1,0,0:0:0:0:
336,281,59200,2,0,L|309:363,1,83.9999974365235
168,114,59520,5,0,0:0:0:0:
191,359,59680,1,0,0:0:0:0:
264,145,59839,2,0,L|291:63,1,83.9999974365235
224,268,60158,5,0,0:0:0:0:
200,25,60318,1,0,0:0:0:0:
133,219,60477,2,0,L|104:299,1,83.9999974365235
84,115,60796,2,0,P|135:104|186:114,1,105
227,194,61115,6,0,P|309:204|389:178,1,167.999994873047
433,61,61594,2,0,B|461:30|461:30|458:94|503:168,1,167.999994873047
471,303,62073,1,0,0:0:0:0:
307,322,62232,2,0,B|330:287|330:287|269:305|186:277,1,167.999994873047
93,288,62711,6,0,P|51:282|14:260,1,84
92,216,63030,2,0,P|49:189|22:144,1,105
105,142,63349,2,0,P|80:84|90:22,1,125.999996154785
167,73,63669,6,0,P|257:74|347:91,1,181.999991668702
480,61,64147,2,0,P|470:150|406:213,1,181.999991668702
210,146,64626,2,0,P|255:149|308:159,1,90.9999958343508
308,263,64945,2,0,P|323:305|323:350,1,90.9999958343508
120,353,65264,2,0,P|104:311|97:267,1,90.9999958343508
32,162,65583,6,0,P|80:143|132:150,1,105
149,116,65903,2,0,P|93:88|31:83,1,125.999996154785
29,35,66222,2,0,P|120:28|209:45,1,181.999991668702
268,167,66700,6,0,P|332:104|342:15,1,181.999991668702
152,154,67179,1,0,0:0:0:0:
48,69,67339,2,0,P|124:22|213:34,1,181.999991668702
460,210,67817,6,0,P|412:229|361:222,1,105
343,255,68137,2,0,P|400:284|462:288,1,125.999996154785
461,337,68456,2,0,P|394:342|326:332,1,136.499993751526
247,367,68775,6,0,P|244:311|258:273,1,83.9999974365235
348,162,69094,1,0,0:0:0:0:
101,108,69254,1,0,0:0:0:0:
342,23,69413,2,0,L|444:29,1,83.9999974365235
424,254,69732,5,0,0:0:0:0:
177,200,69892,1,0,0:0:0:0:
418,115,70051,2,0,L|520:121,1,83.9999974365235
358,323,70371,5,0,0:0:0:0:
296,93,70530,1,0,0:0:0:0:
199,294,70690,2,0,L|116:286,1,83.9999974365235
35,336,71009,2,0,P|24:285|34:234,1,105
114,193,71328,6,0,P|124:111|98:31,1,167.999994873047
18,125,71807,1,0,0:0:0:0:
202,26,71966,1,0,0:0:0:0:
202,26,72046,1,0,0:0:0:0:
202,26,72126,1,0,0:0:0:0:
106,281,72286,1,0,0:0:0:0:
219,137,72445,6,0,P|298:113|378:133,1,167.999994873047
304,247,72924,2,0,P|302:286|315:322,1,77.0000023498536
210,237,73243,2,0,L|116:228,1,77.0000023498536
420,273,73562,2,0,P|444:242|459:207,1,77.0000023498536
490,81,73881,5,8,0:0:0:0:
344,173,74041,1,0,0:0:0:0:
316,21,74200,5,8,0:0:0:0:
458,207,74360,1,0,0:0:0:0:
176,250,74520,5,8,0:0:0:0:
234,28,74679,1,0,0:0:0:0:
316,252,74839,5,8,0:0:0:0:
44,156,74998,1,0,0:0:0:0:
325,85,75158,5,8,0:0:0:0:
35,34,75317,1,0,0:0:0:0:
232,250,75477,5,8,0:0:0:0:
192,29,75637,1,0,0:0:0:0:
43,275,75796,5,8,0:0:0:0:
340,149,75956,1,0,0:0:0:0:
87,95,76115,5,8,0:0:0:0:
338,268,76275,1,0,0:0:0:0:
33,193,76434,5,8,0:0:0:0:
407,206,76594,1,0,0:0:0:0:
182,30,76754,5,8,0:0:0:0:
482,140,76913,1,0,0:0:0:0:
314,348,77073,5,8,0:0:0:0:
276,344,77152,1,8,0:0:0:0:
241,329,77232,1,8,0:0:0:0:
212,305,77312,1,8,0:0:0:0:
191,272,77392,1,8,0:0:0:0:
181,235,77471,1,8,0:0:0:0:
183,197,77551,1,8,0:0:0:0:
196,161,77631,1,8,0:0:0:0:
220,130,77711,2,8,P|233:117|254:107,1,38.5000011749268
318,218,78669,6,0,L|392:218,1,73.4999977569581
476,256,78988,2,0,P|474:180|420:128,1,154.000004699707
360,349,79466,2,0,P|284:349|216:311,1,154.000004699707
193,105,79945,1,0,0:0:0:0:
133,331,80105,2,0,P|89:269|81:191,1,154.000004699707
322,185,80583,6,0,B|310:250|355:261|325:354,1,154.000004699707
439,82,81062,1,0,0:0:0:0:
238,32,81222,2,0,P|194:20|154:32,1,84
196,107,81541,6,0,B|271:132|282:87|347:99,1,154.000004699707
54,118,82020,2,0,B|42:183|87:194|57:287,1,154.000004699707
142,145,82498,1,0,0:0:0:0:
236,337,82658,6,0,P|311:348|383:312,1,154.000004699707
292,229,83137,2,0,P|288:190|294:153,1,77.0000023498536
391,214,83456,1,0,0:0:0:0:
322,62,83615,1,0,0:0:0:0:
194,214,83775,2,0,L|120:214,1,73.4999977569581
36,252,84094,6,0,P|37:176|91:124,1,154.000004699707
234,116,84573,2,0,P|300:152|376:152,1,154.000004699707
332,23,85051,1,0,0:0:0:0:
270,314,85211,1,0,0:0:0:0:
147,27,85530,5,0,0:0:0:0:
191,295,85849,1,0,0:0:0:0:
332,61,86169,2,0,B|370:26|370:26|394:64|394:64|420:25|452:43|452:43|478:52|514:45,1,210.000008010865
256,192,87445,12,0,89839,0:0:0:0:
