osu file format v14

[General]
AudioFilename: MaOp.mp3
AudioLeadIn: 974
PreviewTime: 52539
Countdown: 0
SampleSet: Soft
StackLeniency: 0.8
Mode: 0
LetterboxInBreaks: 0
WidescreenStoryboard: 1

[Editor]
Bookmarks: 797,3510,12286,13722,21382,30877,39254,41808,46595,52180,73882,78829,89999
DistanceSpacing: 1.3
BeatDivisor: 4
GridSize: 4
TimelineZoom: 2.2

[Metadata]
Title:Blade of Hope (TV Size)
TitleUnicode:Blade of Hope (TV Size)
Artist:sweet ARMS
ArtistUnicode:sweet ARMS
Creator:Reiki
Version:Hard
Source:新妹魔王の契約者
Tags:Anime japanese Shinmai Maou no Keiyakusha The Testament of Sister New Devil OP Opening Nitroplus Nitro+ Kadokawa 野水 伊織 Nomizu Iori 富樫 Togashi Misuzu 佐土原 かおり Sadohara Kaori 味里 Misato Atsuro toybot vikala LixRei
BeatmapID:595051
BeatmapSetID:258235

[Difficulty]
HPDrainRate:6
CircleSize:4
OverallDifficulty:6
ApproachRate:7.5
SliderMultiplier:1.25
SliderTickRate:2

[Events]
//Background and Video events
0,0,"MaBG.jpg",0,0
//Break Periods
//Storyboard Layer 0 (Background)
//Storyboard Layer 1 (Fail)
//Storyboard Layer 2 (Pass)
//Storyboard Layer 3 (Foreground)
//Storyboard Layer 4 (Overlay)
//Storyboard Sound Samples

[TimingPoints]
957,319.148936170213,4,2,1,70,1,0
12286,-100,4,2,1,75,0,0
13722,-100,4,2,1,85,0,0
21382,-133.333333333333,4,2,2,40,0,0
30877,-114.942528735632,4,2,1,85,0,0
31595,-100,4,2,1,85,0,0
41808,-90.9090909090909,4,2,1,90,0,0
53297,-83.3333333333333,4,2,1,95,0,1
77552,-133.333333333333,4,2,2,80,0,0
78829,-100,4,2,1,85,0,0
87207,-100,4,2,1,5,0,0

[Colours]
Combo1 : 128,0,255
Combo2 : 0,128,128
Combo3 : 128,128,192
Combo4 : 128,128,64

[HitObjects]
157,129,850,6,0,P|186:138|215:151,1,62.5,0|2,0:0|0:0,0:0:0:0:
308,161,1169,2,0,P|334:147|362:128,2,62.5,0|2|0,0:0|0:0|0:0,0:0:0:0:
252,236,1648,2,0,P|250:265|256:300,2,62.5,0|2|4,0:0|0:0|0:0,0:0:0:0:
256,192,2153,12,4,3191,0:0:0:0:
152,184,3510,6,0,P|184:128|232:88,1,125,4|8,0:0|0:0,0:0:0:0:
272,16,3988,1,0,0:0:0:0:
356,36,4148,2,0,L|399:85,1,62.5,2|0,0:0|0:0,0:0:0:0:
356,160,4467,2,0,L|328:220,1,62.5,8|0,0:0|0:0,0:0:0:0:
284,292,4786,1,2,0:0:0:0:
284,292,4946,1,0,0:0:0:0:
208,332,5105,2,0,P|152:356|88:372,2,125,8|2|8,0:0|0:0|0:0,0:0:0:0:
208,244,5903,1,0,0:0:0:0:
208,244,6063,6,0,P|232:187|270:138,1,125,2|8,0:0|0:0,0:0:0:0:
352,156,6542,2,0,P|344:96|292:56,1,125,2|0,0:0|0:0,0:0:0:0:
168,64,7020,2,0,P|136:84|112:104,1,62.5,8|0,0:0|0:0,0:0:0:0:
144,184,7339,2,0,P|126:217|118:246,1,62.5,2|0,0:0|0:0,0:0:0:0:
160,320,7659,1,8,0:0:0:0:
236,360,7818,1,0,0:0:0:0:
316,328,7978,2,0,P|356:280|416:276,1,125,2|8,0:0|0:0,0:0:0:0:
396,361,8457,1,0,0:0:0:0:
396,361,8536,1,0,0:0:0:0:
396,361,8616,6,0,L|340:248,1,125,4|8,0:0|0:0,0:0:0:0:
315,103,9095,2,0,L|260:216,1,125,2|0,0:0|0:0,0:0:0:0:
180,232,9574,2,0,P|160:260|136:281,1,62.5,8|0,0:0|0:0,0:0:0:0:
60,259,9893,2,0,P|31:273|1:280,1,62.5,2|0,0:0|0:0,0:0:0:0:
76,180,10212,2,0,P|28:140|4:80,2,125,8|2|8,0:0|0:0|0:0,0:0:0:0:
315,103,11169,6,0,P|377:100|438:111,1,125,2|8,0:0|0:0,0:0:0:0:
396,188,11648,2,0,B|428:204|464:196|464:196|488:216|460:244,1,125,2|0,0:0|0:0,0:0:0:0:
448,324,12127,1,8,0:0:0:0:
352,328,12286,1,4,0:0:0:0:
151,295,12605,1,4,0:0:0:0:
183,95,12925,1,4,0:0:0:0:
382,127,13244,1,4,0:0:0:0:
256,192,13563,1,8,3:0:0:0:
256,192,13643,1,4,3:0:0:0:
256,192,13722,6,0,P|196:208|134:204,1,125,4|8,0:0|0:0,0:0:0:0:
148,312,14201,2,0,P|208:296|272:296,1,125,2|0,0:0|0:0,0:0:0:0:
348,320,14680,2,0,P|380:332|416:340,1,62.5,8|0,0:0|0:0,0:0:0:0:
400,256,14999,2,0,P|432:255|468:239,1,62.5,2|0,0:0|0:0,0:0:0:0:
416,176,15318,2,0,P|464:136|472:76,2,125,8|2|8,0:0|0:0|0:0,0:0:0:0:
296,232,16116,1,0,0:0:0:0:
296,232,16276,6,0,P|236:264|180:280,1,125,2|8,0:0|0:0,0:0:0:0:
108,312,16754,2,0,B|88:300|72:280|72:280|96:244|80:200,1,125,2|0,0:0|0:0,0:0:0:0:
48,132,17233,2,0,P|48:100|43:70,1,62.5,8|0,0:0|0:0,0:0:0:0:
140,108,17552,2,0,P|172:128|196:136,1,62.5,2|0,0:0|0:0,0:0:0:0:
307,165,17871,2,0,P|281:182|252:193,1,62.5,8|0,0:0|0:0,0:0:0:0:
127,212,18191,2,0,P|178:248|236:272,1,125,2|8,0:0|0:0,0:0:0:0:
360,316,18669,1,0,0:0:0:0:
360,316,18749,1,0,0:0:0:0:
360,316,18829,6,0,P|396:268|424:208,1,125,4|8,0:0|0:0,0:0:0:0:
384,112,19308,2,0,P|348:160|320:220,1,125,2|0,0:0|0:0,0:0:0:0:
332,300,19786,1,8,0:0:0:0:
260,360,19946,1,4,0:0:0:0:
90,297,20265,1,4,0:0:0:0:
151,127,20584,1,4,0:0:0:0:
319,189,20903,1,4,0:0:0:0:
60,286,21382,6,0,P|112:292|160:288,1,93.7500035762788,4|0,0:0|0:0,0:0:0:0:
218,248,21861,2,0,P|264:245|311:251,1,93.7500035762788,2|0,0:0|0:0,0:0:0:0:
374,300,22339,1,0,0:0:0:0:
374,300,22499,2,0,P|398:260|378:212,1,93.7500035762788,2|0,0:0|0:0,0:0:0:0:
330,160,22978,2,0,P|320:80|232:96,1,187.500007152558,2|0,0:0|0:0,0:0:0:0:
208,260,23935,6,0,P|168:284|116:292,1,93.7500035762788,2|0,0:0|0:0,0:0:0:0:
72,236,24414,2,0,P|48:196|40:144,1,93.7500035762788,2|0,0:0|0:0,0:0:0:0:
216,176,25052,2,0,P|264:200|288:232,1,93.7500035762788,2|0,0:0|0:0,0:0:0:0:
352,280,25531,2,0,P|392:200|376:104,1,187.500007152558,2|2,0:0|0:0,0:0:0:0:
160,103,26488,6,0,P|137:144|124:189,1,93.7500035762788,4|0,0:0|0:0,0:0:0:0:
160,309,26967,2,0,P|182:268|196:224,1,93.7500035762788,2|0,0:0|0:0,0:0:0:0:
228,152,27446,1,0,0:0:0:0:
280,92,27605,2,0,P|324:68|368:48,1,93.7500035762788,2|0,0:0|0:0,0:0:0:0:
356,140,28084,1,0,0:0:0:0:
356,140,28244,2,0,P|424:156|488:188,1,140.625005364418,2|0,0:0|0:0,0:0:0:0:
392,316,29042,6,0,L|300:336,1,93.7500035762788,2|0,0:0|0:0,0:0:0:0:
228,368,29520,2,0,L|138:339,1,93.7500035762788,2|0,0:0|0:0,0:0:0:0:
104,268,29999,1,0,0:0:0:0:
104,268,30159,2,0,L|40:198,1,93.7500035762788,2|0,0:0|0:0,0:0:0:0:
32,120,30637,2,0,P|60:92|88:80,1,70.3125026822091,2|4,0:0|3:0,0:0:0:0:
128,60,30957,2,0,P|152:52|188:48,1,54.3750004563332,8|8,0:0|3:0,0:0:0:0:
256,28,31276,1,8,0:0:0:0:
380,104,31595,6,0,P|412:160|432:228,1,125,4|8,0:0|0:0,0:0:0:0:
392,288,32074,2,0,P|416:308|456:328,2,62.5,2|0|0,0:0|0:0|0:0,0:0:0:0:
320,248,32552,1,8,0:0:0:0:
320,248,32712,2,0,P|264:216|208:196,1,125,2|0,0:0|0:0,0:0:0:0:
128,208,33191,1,8,0:0:0:0:
76,272,33350,2,0,P|56:244|44:208,1,62.5,0|2,0:0|0:0,0:0:0:0:
152,304,33669,2,0,P|180:284|216:272,2,62.5,0|8|0,0:0|0:0|0:0,0:0:0:0:
220,364,34148,6,0,P|284:368|340:344,1,125,4|8,0:0|0:0,0:0:0:0:
388,280,34627,1,0,0:0:0:0:
448,228,34786,2,0,P|464:192|472:160,1,62.5,2|0,0:0|0:0,0:0:0:0:
428,64,35105,1,8,0:0:0:0:
428,64,35265,2,0,P|385:114|357:166,1,125,2|0,0:0|0:0,0:0:0:0:
276,166,35744,2,0,P|246:111|205:63,1,125,8|2,0:0|0:0,0:0:0:0:
128,48,36222,1,0,0:0:0:0:
68,104,36382,2,0,L|24:156,1,62.5,8|0,0:0|0:0,0:0:0:0:
148,132,36701,6,0,L|104:248,1,125,4|8,0:0|0:0,0:0:0:0:
103,332,37180,2,0,P|160:307|185:252,1,125,2|0,0:0|0:0,0:0:0:0:
244,128,37659,1,8,0:0:0:0:
244,128,37818,2,0,P|300:96|360:80,1,125,2|0,0:0|0:0,0:0:0:0:
436,108,38297,1,8,0:0:0:0:
376,164,38457,2,0,P|404:188|420:208,1,62.5,0|2,0:0|0:0,0:0:0:0:
346,242,38776,2,0,P|358:276|360:304,2,62.5,0|8|0,0:0|0:0|0:0,0:0:0:0:
296,176,39254,6,0,P|248:132|192:100,1,125,4|8,0:0|0:0,0:0:0:0:
116,112,39733,2,0,L|80:168,1,62.5,0|2,0:0|0:0,0:0:0:0:
119,287,40052,2,0,L|153:235,1,62.5,0|8,0:0|0:0,0:0:0:0:
296,176,40371,2,0,L|236:288,1,125,2|0,0:0|0:0,0:0:0:0:
236,286,40850,1,2,0:0:0:0:
156,364,41010,2,0,L|120:368,2,31.25,0|8|4,0:0|0:3|0:3,0:0:0:0:
288,360,41329,2,0,P|312:336|328:304,1,62.5,4|8,0:3|0:3,0:0:0:0:
260,60,41808,6,0,P|352:24|452:60,1,206.250006294251,4|0,0:0|0:0,0:0:0:0:
448,148,42446,2,0,L|470:213,1,68.7500020980836,10|0,0:0|0:0,0:0:0:0:
368,192,42765,2,0,L|354:262,1,68.7500020980836,0|8,0:0|0:0,0:0:0:0:
308,336,43084,2,0,P|241:315|172:322,1,137.500004196167,2|0,0:0|0:0,0:0:0:0:
85,327,43563,1,0,0:0:0:0:
128,248,43722,2,0,P|196:232|252:192,1,137.500004196167,8|0,0:0|0:0,0:0:0:0:
304,72,44201,1,0,0:0:0:0:
304,72,44361,6,0,B|368:100|368:100|420:144,1,137.500004196167,4|0,0:0|0:0,0:0:0:0:
420,240,44839,2,0,B|368:284|368:284|304:312,1,137.500004196167,2|0,0:0|0:0,0:0:0:0:
212,332,45318,1,8,0:0:0:0:
128,284,45478,1,8,0:0:0:0:
128,284,45637,2,0,B|92:256|92:256|68:276|64:248|76:184|120:120,1,206.250006294251,4|8,0:0|0:0,0:0:0:0:
292,44,46435,6,0,L|328:32,2,34.3750010490418,0|8|4,0:0|0:3|0:3,0:0:0:0:
220,108,46754,1,8,0:3:0:0:
220,108,46834,1,4,0:3:0:0:
220,108,46914,6,0,B|176:164|196:240,1,137.500004196167,4|8,0:0|0:0,0:0:0:0:
228,316,47393,1,0,0:0:0:0:
228,316,47552,2,0,L|160:336,1,68.7500020980836,2|0,0:0|0:0,0:0:0:0:
120,264,47871,2,0,L|57:230,1,68.7500020980836,8|0,0:0|0:0,0:0:0:0:
36,152,48191,1,2,0:0:0:0:
36,152,48350,1,0,0:0:0:0:
76,80,48510,2,0,P|116:68|144:64,1,68.7500020980836,8|0,0:0|0:0,0:0:0:0:
124,144,48829,2,0,P|192:148|260:168,1,137.500004196167,2|8,0:0|0:0,0:0:0:0:
484,296,49467,6,0,P|416:300|348:320,2,137.500004196167,4|0|0,0:0|0:0|1:0,0:0:0:0:
464,216,50265,2,0,P|428:200|400:192,1,68.7500020980836
452,124,50584,1,0,3:0:0:0:
452,124,50744,2,0,P|384:96|320:76,1,137.500004196167,2|8,0:0|0:0,0:0:0:0:
188,76,51222,1,0,0:0:0:0:
188,76,51302,1,8,0:3:0:0:
188,76,51382,2,0,P|123:97|60:124,1,137.500004196167,2|8,0:0|0:0,0:0:0:0:
256,320,52020,6,0,L|256:176,2,137.500004196167,2|2|2,0:0|0:0|0:0,0:0:0:0:
92,348,52978,2,0,L|60:360,3,34.3750010490418,0|0|0|0,1:0|1:0|1:0|1:0,0:0:0:0:
96,304,53297,6,0,P|132:240|160:168,1,149.999995422363,4|8,0:0|0:0,0:0:0:0:
185,32,53776,2,0,P|212:102|249:168,1,149.999995422363,2|0,0:0|0:0,0:0:0:0:
299,243,54254,1,8,0:0:0:0:
299,243,54414,2,0,P|374:245|443:216,1,149.999995422363,2|0,0:0|0:0,0:0:0:0:
424,120,54893,2,0,P|464:106|488:79,1,74.9999977111817,8|0,0:0|0:0,0:0:0:0:
352,64,55212,2,0,P|280:88|228:144,1,149.999995422363,2|8,0:0|0:0,0:0:0:0:
180,260,55691,1,0,0:0:0:0:
179,260,55850,6,0,P|127:313|57:335,1,149.999995422363,4|8,0:0|0:0,0:0:0:0:
90,252,56329,2,0,L|170:379,1,149.999995422363,2|0,0:0|0:0,0:0:0:0:
267,368,56808,2,0,L|320:312,1,74.9999977111817,8|0,0:0|0:0,0:0:0:0:
318,215,57127,2,0,P|370:162|440:140,2,149.999995422363,2|8|2,0:0|0:0|0:0,0:0:0:0:
128,268,58084,1,8,0:0:0:0:
28,80,58403,6,0,P|108:60|168:92,1,149.999995422363,4|8,0:0|0:0,0:0:0:0:
240,136,58882,2,0,L|312:176,2,74.9999977111817,0|2|0,0:0|0:0|0:0,0:0:0:0:
260,236,59361,2,0,L|188:276,1,74.9999977111817,8|0,0:0|0:0,0:0:0:0:
111,357,59680,2,0,P|185:373|259:371,1,149.999995422363,2|8,0:0|0:0,0:0:0:0:
342,286,60159,1,0,0:0:0:0:
342,286,60318,2,0,P|268:270|194:272,1,149.999995422363,2|8,0:0|0:0,0:0:0:0:
352,92,60957,6,0,P|400:44|488:32,1,149.999995422363,4|8,0:0|0:0,0:0:0:0:
452,140,61435,2,0,P|404:188|316:200,1,149.999995422363,2|0,0:0|0:0,0:0:0:0:
232,180,61914,2,0,L|164:148,1,74.9999977111817,8|0,0:0|0:0,0:0:0:0:
192,252,62233,2,0,L|260:284,1,74.9999977111817,2|0,0:0|0:0,0:0:0:0:
352,316,62552,1,8,0:0:0:0:
457,132,62871,1,2,0:0:0:0:
244,132,63191,1,12,0:0:0:0:
67,315,63510,6,0,P|18:266|51:204,1,149.999995422363,4|8,0:0|0:0,0:0:0:0:
128,250,63988,2,0,P|160:187|111:138,1,149.999995422363,2|0,0:0|0:0,0:0:0:0:
51,204,64467,1,8,0:0:0:0:
12,132,64627,2,0,P|40:68|114:39,1,149.999995422363,2|0,0:0|0:0,0:0:0:0:
110,137,65105,1,8,0:0:0:0:
110,137,65265,1,0,0:0:0:0:
208,148,65425,2,0,B|276:116|276:116|352:104,1,149.999995422363,2|8,0:0|0:0,0:0:0:0:
400,224,65903,1,0,0:0:0:0:
400,224,66063,6,0,B|332:256|332:256|256:268,1,149.999995422363,4|8,0:0|0:0,0:0:0:0:
180,328,66542,2,0,P|104:308|48:256,1,149.999995422363,2|0,0:0|0:0,0:0:0:0:
116,192,67020,2,0,P|84:172|44:168,1,74.9999977111817,8|0,0:0|0:0,0:0:0:0:
140,112,67339,2,0,P|172:132|212:136,1,74.9999977111817,2|0,0:0|0:0,0:0:0:0:
276,68,67659,2,0,P|348:88|416:132,2,149.999995422363,8|2|8,0:0|0:0|0:0,0:0:0:0:
244,188,68457,1,0,0:0:0:0:
244,188,68536,1,0,0:0:0:0:
244,188,68616,5,4,0:0:0:0:
76,284,68935,2,0,L|4:260,1,74.9999977111817,8|0,0:0|0:0,0:0:0:0:
32,356,69254,2,0,L|104:380,1,74.9999977111817,2|0,0:0|0:0,0:0:0:0:
176,312,69574,2,0,P|208:296|252:296,1,74.9999977111817,8|0,0:0|0:0,0:0:0:0:
336,360,69893,2,0,P|408:364|448:300,1,149.999995422363,2|8,0:0|0:0,0:0:0:0:
447,207,70371,1,0,0:0:0:0:
447,109,70531,2,0,P|406:49|335:53,1,149.999995422363,2|8,0:0|0:0,0:0:0:0:
156,256,71169,6,0,P|84:260|44:200,1,149.999995422363,4|8,0:0|0:0,0:0:0:0:
76,108,71648,2,0,P|40:96|4:88,2,74.9999977111817,0|2|0,0:0|0:0|0:0,0:0:0:0:
148,40,72127,2,0,P|184:52|220:60,1,74.9999977111817,8|0,0:0|0:0,0:0:0:0:
316,32,72446,2,0,B|364:40|364:40|412:28|412:28|468:40,2,149.999995422363,2|8|8,0:0|0:0|0:3,0:0:0:0:
108,38,73403,1,4,0:3:0:0:
243,199,73722,6,0,P|311:235|383:235,1,149.999995422363,4|8,0:0|0:0,0:0:0:0:
472,196,74201,1,0,0:0:0:0:
472,196,74361,2,0,P|448:168|416:144,1,74.9999977111817,2|0,0:0|0:0,0:0:0:0:
348,80,74680,2,0,P|313:67|274:71,1,74.9999977111817,8|0,0:0|0:0,0:0:0:0:
243,199,74999,2,0,P|205:202|170:190,1,74.9999977111817,2|0,0:0|0:0,0:0:0:0:
41,201,75318,2,0,P|66:229|96:252,1,74.9999977111817,8|0,0:0|0:0,0:0:0:0:
160,332,75637,1,2,0:0:0:0:
160,332,75797,1,0,0:0:0:0:
256,356,75957,2,0,P|293:358|330:353,1,74.9999977111817,8|0,0:0|0:0,0:0:0:0:
412,296,76276,6,0,P|456:236|476:164,1,149.999995422363,4|8,0:0|0:0,0:0:0:0:
403,99,76754,1,0,0:0:0:0:
315,59,76914,2,0,L|279:79,3,37.4999988555909,2|0|8|4,0:0|0:0|0:3|0:3,0:0:0:0:
233,77,77233,2,0,L|197:97,3,37.4999988555909,8|0|0|0,0:0|0:0|0:0|0:0,0:0:0:0:
151,95,77552,6,0,B|88:128|88:128|36:180,1,140.625005364418,4|0,0:0|0:0,0:0:0:0:
38,271,78191,2,0,B|68:308|68:308|116:328,1,93.7500035762788,2|2,0:0|0:0,0:0:0:0:
204,344,78669,1,0,0:0:0:0:
204,344,78749,1,0,0:0:0:0:
204,344,78829,6,0,L|320:300,1,125,4|8,0:0|0:0,0:0:0:0:
380,172,79308,2,0,L|264:216,1,125,2|0,0:0|0:0,0:0:0:0:
238,133,79786,2,0,L|296:108,1,62.5,8|0,0:0|0:0,0:0:0:0:
176,204,80105,2,0,P|112:220|68:176,2,125,2|8|2,0:0|0:0|0:0,0:0:0:0:
248,44,80903,1,0,0:0:0:0:
248,44,81063,2,0,P|280:32|320:28,1,62.5,8|0,0:0|0:0,0:0:0:0:
420,68,81382,6,0,P|472:108|480:168,1,125,2|8,0:0|0:0,0:0:0:0:
436,292,81861,2,0,B|388:312|344:288|344:288|324:304|296:284,1,125,2|0,0:0|0:0,0:0:0:0:
200,304,82339,1,8,0:0:0:0:
200,304,82499,1,0,0:0:0:0:
136,240,82659,2,0,L|64:252,2,62.5,2|0|8,0:0|0:0|0:0,0:0:0:0:
197,178,83137,1,0,0:0:0:0:
197,178,83297,2,0,B|248:168|248:168|264:152|264:152|316:140,1,125,2|8,0:0|0:0,0:0:0:0:
404,112,83776,1,0,0:0:0:0:
404,112,83855,1,0,0:0:0:0:
404,112,83935,6,0,B|432:104|444:88|444:88|472:116|480:164,1,125,4|8,0:0|0:0,0:0:0:0:
440,240,84414,1,0,0:0:0:0:
440,240,84574,2,0,P|380:264|328:296,1,125,2|8,0:0|0:0,0:0:0:0:
255,332,85052,1,4,0:0:0:0:
115,191,85371,1,4,0:0:0:0:
256,51,85691,1,4,0:0:0:0:
396,192,86010,2,0,B|356:212|328:236|328:236|312:220|312:220|272:244|244:276,1,187.5,4|0,0:0|0:0,0:0:0:0:
256,192,87207,12,0,89839,0:0:0:0:
