osu file format v14

[General]
AudioFilename: audio.mp3
AudioLeadIn: 0
PreviewTime: 53137
Countdown: 1
SampleSet: Soft
StackLeniency: 0.7
Mode: 0
LetterboxInBreaks: 0
WidescreenStoryboard: 1

[Editor]
DistanceSpacing: 1.1
BeatDivisor: 4
GridSize: 4
TimelineZoom: 1

[Metadata]
Title:Blade of Hope (TV Size)
TitleUnicode:Blade of Hope (TV Size)
Artist:sweet ARMS
ArtistUnicode:sweet ARMS
Creator:Jorkseljund
Version:Hard
Source:Shinmai Maou no Testament
Tags:anime
BeatmapID:1869359
BeatmapSetID:894586

[Difficulty]
HPDrainRate:5
CircleSize:3.5
OverallDifficulty:6
ApproachRate:8
SliderMultiplier:1.5
SliderTickRate:1

[Events]
//Background and Video events
0,0,"721711.jpg",0,0
//Break Periods
2,53815,86695
//Storyboard Layer 0 (Background)
//Storyboard Layer 1 (Fail)
//Storyboard Layer 2 (Pass)
//Storyboard Layer 3 (Foreground)
//Storyboard Sound Samples

[TimingPoints]
956,319.148936170213,4,2,1,40,1,0
2073,-1000,4,2,1,40,0,0
3349,-100,4,2,1,40,0,0
3669,319.148936170213,4,2,1,60,1,0
21541,-125,4,2,1,40,0,0
31754,-100,4,2,1,60,0,0
41966,-200,4,2,1,60,0,0
47073,-100,4,2,1,60,0,0
53456,-100,4,2,1,60,0,1
78988,-100,4,2,1,60,0,0

[HitObjects]
45,197,956,5,0,0:0:0:0:
76,121,1115,1,2,0:0:0:0:
144,166,1275,2,0,P|187:181|226:170,1,75,2|2,0:0|0:0,0:0:0:0:
275,119,1594,1,2,0:0:0:0:
241,252,1753,2,0,P|230:300|245:333,1,75,2|2,0:0|0:0,0:0:0:0:
373,320,2073,2,0,L|389:263,1,60,2|8,0:0|0:0,0:0:0:0:
414,229,3429,2,8,L|428:176,2,37.5
372,234,3668,6,0,P|333:240|286:233,1,75,6|0,3:0|0:0,0:0:0:0:
233,183,3988,2,0,P|204:219|196:255,1,75,12|2,0:0|0:0,0:0:0:0:
129,198,4307,2,0,P|117:242|125:278,1,75
46,189,4626,2,0,P|57:144|49:108,1,75,14|0,0:0|0:0,0:0:0:0:
101,50,4945,2,0,L|185:44,1,75,0|2,0:0|0:0,0:0:0:0:
231,106,5264,1,12,0:0:0:0:
207,185,5424,1,0,0:0:0:0:
287,166,5583,2,0,P|278:234|253:258,1,75,2|0,0:0|0:0,0:0:0:0:
328,301,5903,2,0,P|282:319|252:316,1,75,14|0,0:0|0:0,0:0:0:0:
409,336,6222,6,0,B|423:233|423:233|376:191,1,150,2|14,0:0|0:0,0:0:0:0:
374,116,6700,2,0,P|325:123|219:110,1,150,2|0,0:0|0:0,0:0:0:0:
173,47,7179,1,12,0:0:0:0:
67,174,7498,2,0,P|52:235|62:268,1,75
103,312,7817,2,0,P|164:327|197:317,1,75,12|0,0:0|0:0,0:0:0:0:
243,277,8137,2,0,P|258:216|248:183,1,75
282,126,8456,2,0,P|319:126|353:112,1,75,12|0,0:0|0:0,0:0:0:0:
414,57,8775,6,0,P|435:139|371:203,1,150,2|12,0:0|0:0,0:0:0:0:
461,244,9254,2,0,B|420:276|385:265|385:265|345:301|307:271,1,150,2|0,0:0|0:0,0:0:0:0:
249,243,9732,2,0,P|179:198|100:238,1,150,14|0,0:0|0:0,0:0:0:0:
173,278,10211,2,0,L|160:356,1,75,2|12,0:0|0:0,0:0:0:0:
37,203,10690,2,0,L|26:117,1,75,2|0,0:0|0:0,0:0:0:0:
145,129,11009,2,0,L|160:47,1,75,14|0,0:0|0:0,0:0:0:0:
235,85,11328,6,0,L|390:69,1,150,2|14,0:0|0:0,0:0:0:0:
464,143,11807,2,0,L|314:158,1,150,2|0,0:0|0:0,0:0:0:0:
232,167,12286,1,12,0:0:0:0:
52,336,12764,1,4,0:3:0:0:
110,181,13083,1,4,0:3:0:0:
205,316,13403,1,4,0:3:0:0:
260,165,13642,2,8,L|255:127,2,37.5
291,192,13881,6,0,P|335:182|405:272,1,150,4|12,0:3|0:0,0:0:0:0:
377,325,14360,2,0,P|452:316|483:239,1,150,2|0,0:0|0:0,0:0:0:0:
464,174,14839,2,0,B|433:131|385:111|385:111|414:62|406:38,1,150,14|0,0:0|0:0,0:0:0:0:
324,51,15317,2,0,L|233:65,1,75,2|12,0:0|0:0,0:0:0:0:
225,142,15637,2,0,L|122:121,1,75,0|2,0:0|0:0,0:0:0:0:
89,71,15956,1,0,0:0:0:0:
69,150,16115,1,14,0:0:0:0:
134,325,16434,6,0,P|184:335|299:324,1,150,2|14,0:0|0:0,0:0:0:0:
191,258,16913,2,0,P|241:254|350:214,1,150,2|0,0:0|0:0,0:0:0:0:
405,265,17392,2,0,P|446:247|474:210,1,75,14|0,0:0|0:0,0:0:0:0:
399,175,17711,2,0,P|381:134|344:106,1,75
281,141,18030,1,12,0:0:0:0:
227,78,18190,1,0,0:0:0:0:
87,46,18349,1,0,0:0:0:0:
141,109,18509,1,0,0:0:0:0:
96,178,18669,2,0,P|82:239|91:270,1,75,12|0,0:0|0:0,0:0:0:0:
164,229,18988,6,0,P|169:294|240:335,1,150,2|12,0:0|0:0,0:0:0:0:
244,253,19466,2,0,B|296:252|296:252|324:277|324:277|412:277,1,150,2|0,0:0|0:0,0:0:0:0:
449,327,19945,2,0,P|468:275|456:241,1,75,10|0,0:0|0:0,0:0:0:0:
395,107,20424,1,4,0:3:0:0:
274,219,20743,1,4,0:3:0:0:
218,63,21062,1,4,0:3:0:0:
46,241,21541,6,0,P|92:252|171:243,1,120
213,185,22020,2,0,P|239:223|211:314,1,120
291,340,22498,1,0,0:0:0:0:
350,288,22658,2,0,B|349:236|349:236|374:208|374:208|373:154,1,120
403,105,23137,1,0,0:0:0:0:
209,72,24094,6,0,L|183:191,1,120
110,161,24573,2,0,P|64:158|9:233,1,120
128,310,25211,1,0,0:0:0:0:
235,197,25530,2,0,L|305:194,1,60
418,320,26647,6,0,P|433:252|402:209,1,120
354,270,27126,2,0,P|294:281|228:268,1,120
178,209,27605,1,0,0:0:0:0:
158,284,27764,2,0,B|123:338|123:338|64:291,1,120
17,255,28243,1,0,0:0:0:0:
156,96,29200,6,0,P|212:113|284:94,1,120
321,41,29679,2,0,P|351:90|332:154,1,120
225,238,30317,1,0,0:0:0:0:
344,319,30637,1,0,0:0:0:0:
344,319,30796,1,0,0:0:0:0:
424,199,31036,1,8,0:0:0:0:
424,199,31115,1,8,0:0:0:0:
361,145,31275,2,0,B|373:68|373:68|314:86|314:86|281:69,1,150,0|0,0:0|0:3,0:0:0:0:
260,70,31754,6,0,P|218:63|167:77,1,75,4|0,0:3|0:0,0:0:0:0:
138,145,32073,2,0,P|174:150|211:143,1,75,8|0,0:0|0:0,0:0:0:0:
55,56,32392,2,0,P|38:110|42:146,1,75
79,199,32711,1,12,0:0:0:0:
35,269,32871,2,0,B|12:321|12:321|16:359,2,75
109,304,33349,2,0,P|162:314|191:304,1,75,12|0,0:0|0:0,0:0:0:0:
245,256,33669,2,0,P|255:220|249:183,1,75
174,217,33988,1,12,0:0:0:0:
292,112,34147,1,0,0:0:0:0:
368,80,34307,6,0,B|385:45|385:45|363:2,2,75,0|0|12,0:0|0:0|0:0,0:0:0:0:
416,147,34786,1,0,0:0:0:0:
363,210,34945,1,0,0:0:0:0:
444,226,35105,2,0,P|448:289|436:318,1,75,0|12,0:0|0:0,0:0:0:0:
362,295,35424,2,0,P|325:288|288:295,1,75
232,235,35743,1,0,0:0:0:0:
179,298,35903,2,0,P|156:262|157:201,1,75,12|0,0:0|0:0,0:0:0:0:
78,269,36222,2,0,P|68:227|90:170,1,75
28,127,36541,1,12,0:0:0:0:
76,60,36700,1,0,0:0:0:0:
153,87,36860,6,0,L|200:15,2,75,4|0|12,0:3|0:0|0:0,0:0:0:0:
208,148,37339,2,0,P|195:199|206:237,1,75
253,282,37658,2,0,P|210:300|179:298,1,75,0|12,0:0|0:0,0:0:0:0:
275,200,37977,2,0,P|323:190|357:197,1,75
371,273,38296,1,0,0:0:0:0:
449,246,38456,2,0,P|463:202|457:153,1,75,12|0,0:0|0:0,0:0:0:0:
394,126,38775,2,0,L|458:80,1,75
385,37,39094,2,0,L|324:80,1,75,12|0,0:0|0:0,0:0:0:0:
254,124,39413,6,0,L|211:63,2,75,0|0|12,0:0|0:0|0:0,0:0:0:0:
179,160,39892,2,0,P|190:224|177:263,1,75
213,311,40211,1,0,0:0:0:0:
132,293,40371,1,12,0:0:0:0:
56,261,40530,2,0,L|41:172,1,75
116,147,40849,2,0,L|125:65,1,75,0|12,0:0|0:0,0:0:0:0:
243,37,41248,1,8,0:3:0:0:
231,76,41328,1,8,0:3:0:0:
279,143,41488,1,8,0:3:0:0:
225,205,41647,1,8,0:3:0:0:
283,263,41807,1,8,0:3:0:0:
341,205,41966,6,0,P|380:191|447:232,2,112.5,4|0|0,0:3|0:0|0:0,0:0:0:0:
252,319,43243,2,0,P|215:339|147:310,2,112.5
204,139,44520,6,0,P|196:194|205:250,1,112.5
371,169,45477,1,0,0:0:0:0:
231,62,45796,2,0,L|115:52,2,112.5,12|12|12,0:0|0:0|0:0,0:0:0:0:
324,198,47073,6,0,L|315:283,1,75,4|0,0:3|0:0,0:0:0:0:
236,296,47392,2,0,L|245:197,1,75,12|0,0:0|0:0,0:0:0:0:
190,157,47711,2,0,P|127:150|97:167,1,75
0,227,48030,2,0,P|36:233|72:223,1,75,12|0,0:0|0:0,0:0:0:0:
154,233,48349,2,0,P|160:282|152:311,1,75
223,351,48669,2,0,P|271:360|304:352,1,75,12|0,0:0|0:0,0:0:0:0:
333,281,48988,1,8,0:0:0:0:
399,329,49147,1,0,0:0:0:0:
407,246,49307,1,12,0:0:0:0:
474,292,49466,1,0,0:0:0:0:
481,209,49626,6,0,B|425:155|425:155|427:107|403:68,1,150,4|0,0:3|0:0,0:0:0:0:
247,90,50264,2,0,B|178:56|178:56|93:90,1,150,8|0,0:0|0:0,0:0:0:0:
40,233,50903,2,0,B|76:300|76:300|107:261|107:261|137:260,1,150
278,185,51541,2,0,B|277:245|277:245|255:260|255:260|254:331,1,150,12|0,0:0|0:0,0:0:0:0:
418,319,52179,1,0,0:0:0:0:
435,294,52339,1,0,0:0:0:0:
435,264,52498,1,0,0:0:0:0:
419,238,52658,1,0,0:0:0:0:
365,175,52817,2,0,L|387:98,1,75,8|8,0:0|0:0,0:0:0:0:
302,54,53137,2,8,L|310:3,3,37.5
302,54,53456,6,0,P|256:63|217:52,1,75,4|0,0:3|0:0,0:0:0:0:
256,192,87445,12,0,89994,0:0:0:0:
