osu file format v14

[General]
AudioFilename: audio.mp3
AudioLeadIn: 0
PreviewTime: 51759
Countdown: 0
SampleSet: Soft
StackLeniency: 0.7
Mode: 0
LetterboxInBreaks: 0
WidescreenStoryboard: 1

[Editor]
Bookmarks: 21121,31334
DistanceSpacing: 1.5
BeatDivisor: 4
GridSize: 32
TimelineZoom: 2.1

[Metadata]
Title:Blade of Hope (TV Size)
TitleUnicode:Blade of Hope (TV Size)
Artist:sweet ARMS
ArtistUnicode:sweet ARMS
Creator:Aruyy
Version:Hard
Source:新妹魔王の契約者
Tags:Fluffy91021 anime japanese j pop j-pop jpop shinmai maou no keiyakusha the testament of sister new devil opening iori nomizu togashi misuzu sadohara kaori misato
BeatmapID:4161876
BeatmapSetID:1896971

[Difficulty]
HPDrainRate:5
CircleSize:3.6
OverallDifficulty:7
ApproachRate:8
SliderMultiplier:1.4
SliderTickRate:1

[Events]
//Background and Video events
0,0,"WHY CANT I BE LIKE HIM.jpg",0,0
//Break Periods
2,21335,30598
//Storyboard Layer 0 (Background)
//Storyboard Layer 1 (Fail)
//Storyboard Layer 2 (Pass)
//Storyboard Layer 3 (Foreground)
//Storyboard Layer 4 (Overlay)
//Storyboard Sound Samples

[TimingPoints]
-579,329.67032967033,4,2,1,60,1,0
710,-125,4,2,1,60,0,0
3263,319.148936170213,4,2,1,70,1,0
3263,-100,4,2,1,70,0,0
19699,-133.333333333333,4,2,1,70,0,0
21136,-133.333333333333,4,2,1,20,0,0
30631,-133.333333333333,4,2,1,60,0,0
31348,-111.111111111111,4,2,1,60,0,0
41561,-166.666666666667,4,2,1,60,0,0
41641,-166.666666666667,4,2,1,50,0,0
45072,-133.333333333333,4,2,1,50,0,0
45869,-111.111111111111,4,2,1,50,0,0
46668,-111.111111111111,4,2,1,60,0,0
52732,-90.9090909090909,4,2,1,80,0,0
78248,319.148936170213,4,2,1,60,1,0
78567,319.148936170213,4,2,1,60,1,0
78567,-100,4,2,1,60,0,0
85747,-125,4,2,1,60,0,0
92132,-125,4,2,1,5,0,0

[Colours]
Combo1 : 244,176,234
Combo2 : 248,140,129
Combo3 : 153,247,155
Combo4 : 170,249,253

[HitObjects]
108,81,574,5,2,0:0:0:0:
108,81,657,1,2,0:0:0:0:
108,81,739,2,0,L|31:99,2,56,2|2|0,0:0|0:0|0:0,0:0:0:0:
190,121,1234,2,0,L|267:139,2,56,2|0|0,0:0|0:0|0:0,0:0:0:0:
187,34,1728,5,2,0:0:0:0:
256,192,1811,12,0,2882,0:0:0:0:
32,290,3263,6,0,B|121:276|86:321|180:300,1,140,2|8,1:2|0:0,0:0:0:0:
226,380,3742,2,0,P|267:315|238:244,1,140,2|0,1:2|1:2,0:0:0:0:
169,204,4221,1,10,0:0:0:0:
236,132,4380,2,0,P|311:126|401:128,1,140,0|2,1:2|1:2,0:0:0:0:
443,196,4859,6,0,P|479:139|443:61,1,140,10|2,0:0|1:2,0:0:0:0:
387,6,5338,1,0,1:2:0:0:
295,41,5497,6,0,P|244:36|204:34,1,70,10|0,0:0|0:0,0:0:0:0:
141,3,5816,2,0,P|174:34|151:127,1,140,2|10,1:2|0:0,0:0:0:0:
77,173,6295,2,0,P|49:209|88:297,1,140,2|0,1:2|1:2,0:0:0:0:
156,350,6774,5,8,0:0:0:0:
207,266,6934,2,0,L|305:254,1,70,0|0,1:2|0:0,0:0:0:0:
391,188,7253,5,0,1:2:0:0:
391,188,7412,2,0,L|293:176,1,70,8|0,0:0|0:0,0:0:0:0:
269,104,7731,5,0,1:2:0:0:
269,104,7891,1,0,1:2:0:0:
191,164,8051,6,0,P|170:116|188:74,1,70,10|0,0:0|0:0,0:0:0:0:
173,14,8370,2,0,P|114:28|35:-7,1,140,6|8,1:2|0:0,0:0:0:0:
37,105,8848,2,0,L|16:262,1,140,2|0,1:2|1:2,0:0:0:0:
42,339,9327,2,0,B|85:300|85:300|195:315,1,140,10|0,0:0|0:0,0:0:0:0:
246,366,9806,1,2,1:2:0:0:
259,268,9965,2,0,P|264:213|268:174,1,70,8|0,0:0|0:0,0:0:0:0:
262,100,10285,5,2,1:2:0:0:
262,100,10444,1,0,1:2:0:0:
344,152,10604,6,0,P|399:147|438:143,1,70,10|0,0:0|0:0,0:0:0:0:
490,206,10923,2,0,P|517:150|482:76,1,140,2|8,1:2|0:0,0:0:0:0:
380,39,11402,2,0,B|332:62|332:62|217:37,1,140,2|0,1:2|1:2,0:0:0:0:
154,10,11880,1,10,0:0:0:0:
191,118,12040,6,2,P|200:151|190:191,1,70,6|0,1:2|0:0,0:0:0:0:
79,299,12359,1,2,1:2:0:0:
79,299,12678,1,2,1:2:0:0:
79,299,12997,6,0,P|152:260|221:292,1,140,2|8,1:2|0:0,0:0:0:0:
239,296,13396,1,8,0:0:0:0:
239,296,13476,2,0,B|301:303|301:303|390:266,1,140,2|8,1:2|0:0,0:0:0:0:
450,308,13955,2,0,P|401:262|428:171,1,140,2|0,1:2|1:2,0:0:0:0:
450,78,14434,6,0,B|362:58|398:111|300:79,1,140,10|0,0:0|0:0,0:0:0:0:
220,156,14912,1,2,1:2:0:0:
220,156,15072,2,0,P|236:115|224:63,1,70,8|0,0:0|0:0,0:0:0:0:
224,0,15391,1,2,1:2:0:0:
224,0,15551,1,0,1:2:0:0:
147,71,15710,6,0,P|92:68|60:40,1,70,10|0,0:0|0:0,0:0:0:0:
26,1,16029,2,0,P|62:54|34:138,1,140,2|8,1:2|0:0,0:0:0:0:
2,210,16508,6,0,B|93:198|50:247|160:217,1,140,2|0,1:2|1:2,0:0:0:0:
198,144,16987,1,8,0:0:0:0:
218,245,17146,2,0,P|255:212|358:231,1,140,0|0,1:2|1:2,0:0:0:0:
396,297,17625,2,0,P|429:260|410:157,1,140,8|0,0:0|1:2,0:0:0:0:
369,92,18104,1,0,1:2:0:0:
273,123,18263,6,2,P|228:137|181:120,1,70,10|0,0:0|0:0,0:0:0:0:
122,69,18582,2,0,P|50:47|-7:99,1,140,6|8,1:2|0:0,0:0:0:0:
69,150,19061,6,0,B|83:249|38:192|50:297,1,140,2|0,1:2|1:2,0:0:0:0:
137,356,19540,1,10,0:0:0:0:
213,279,19699,6,0,L|338:263,2,105.000004005432,6|2|2,1:2|1:2|1:2,0:0:0:0:
312,157,20657,6,0,L|473:179,1,157.500006008148,2|0,1:2|0:0,0:0:0:0:
43,60,31348,6,0,P|109:65|168:73,1,125.999996154785,2|8,1:2|0:0,0:0:0:0:
233,13,31827,2,0,P|260:48|240:132,1,125.999996154785,2|2,1:2|1:2,0:0:0:0:
174,212,32306,1,10,0:0:0:0:
174,212,32465,2,0,P|238:201|316:204,1,125.999996154785,2|2,1:2|1:2,0:0:0:0:
405,120,32944,2,0,P|383:155|418:242,2,125.999996154785,10|0|8,0:0|1:2|0:0,0:0:0:0:
274,297,33902,6,0,L|193:305,1,62.9999980773926,2|0,1:2|0:0,0:0:0:0:
153,236,34221,1,10,0:0:0:0:
121,367,34380,2,0,P|110:326|117:296,1,62.9999980773926,2|0,1:2|0:0,0:0:0:0:
153,236,34699,2,0,P|164:195|157:165,1,62.9999980773926,2|8,1:2|0:0,0:0:0:0:
100,110,35019,6,0,P|139:140|215:124,1,125.999996154785,2|0,1:2|1:2,0:0:0:0:
276,68,35497,2,0,P|335:52|386:85,1,125.999996154785,10|0,0:0|1:2,0:0:0:0:
436,163,35976,1,0,1:2:0:0:
436,163,36136,1,8,0:0:0:0:
364,312,36455,6,0,P|320:335|249:302,1,125.999996154785,6|8,1:2|0:0,0:0:0:0:
215,227,36934,2,0,B|176:212|176:212|89:228,1,125.999996154785,2|2,1:2|1:2,0:0:0:0:
2,206,37412,1,10,0:0:0:0:
2,206,37572,2,0,L|18:71,1,125.999996154785,2|0,1:2|1:2,0:0:0:0:
74,0,38051,2,0,P|139:45|194:31,2,125.999996154785,10|0|8,0:0|1:2|0:0,0:0:0:0:
269,28,39008,6,0,P|299:80|263:158,1,125.999996154785,2|8,1:2|0:0,0:0:0:0:
212,208,39487,2,0,L|204:295,1,62.9999980773926,2|0,1:2|0:0,0:0:0:0:
119,362,39806,2,0,L|113:299,1,62.9999980773926,2|8,1:2|0:0,0:0:0:0:
206,270,40125,6,0,B|293:262|238:311|346:290,1,125.999996154785,2|0,1:2|1:2,0:0:0:0:
397,349,40604,2,0,P|415:306|407:268,1,62.9999980773926,10|0,0:0|1:2,0:0:0:0:
407,259,40843,1,0,1:2:0:0:
407,259,40923,1,8,0:0:0:0:
308,181,41082,2,0,P|292:117|323:66,1,125.999996154785,8|0,3:0|0:0,0:0:0:0:
406,40,41561,6,0,L|413:125,1,83.9999974365235,6|0,1:2|1:2,0:0:0:0:
448,226,42040,1,2,1:2:0:0:
448,226,42199,2,8,L|443:280,1,41.9999987182618,8|0,0:0|0:0,0:0:0:0:
387,353,42519,5,2,1:2:0:0:
387,353,42678,1,8,0:0:0:0:
301,295,42838,2,0,P|244:288|215:304,1,83.9999974365235,2|0,1:2|1:2,0:0:0:0:
157,357,43316,2,0,P|118:370|77:360,1,83.9999974365235,2|0,0:0|0:0,0:0:0:0:
20,286,43795,5,2,1:2:0:0:
20,286,44114,2,0,L|29:194,1,83.9999974365235,2|0,1:2|1:2,0:0:0:0:
145,136,44593,1,2,0:0:0:0:
145,136,44753,2,0,L|140:78,1,41.9999987182618,8|0,0:0|0:0,0:0:0:0:
96,8,45072,1,2,1:2:0:0:
96,8,45231,1,8,0:0:0:0:
43,83,45391,1,2,1:2:0:0:
142,95,45551,6,0,L|236:81,1,78.7500030040742,8|0,3:0|0:0,0:0:0:0:
259,78,45870,2,0,P|286:111|268:200,1,125.999996154785,6|8,1:2|0:0,0:0:0:0:
264,217,46269,1,8,0:0:0:0:
264,217,46348,1,10,0:0:0:0:
169,296,46508,5,8,0:0:0:0:
169,296,46588,1,8,0:0:0:0:
169,296,46668,2,0,B|248:280|209:329|318:296,1,125.999996154785,6|8,1:2|0:0,0:0:0:0:
337,378,47146,2,0,P|380:324|353:251,1,125.999996154785,0|0,1:2|1:2,0:0:0:0:
309,209,47625,2,0,P|299:155|316:126,1,62.9999980773926,8|0,0:0|1:2,0:0:0:0:
393,101,47944,6,0,P|339:119|273:73,2,125.999996154785,0|8|2,0:0|0:0|1:2,0:0:0:0:
457,41,48742,1,0,1:2:0:0:
476,127,48902,2,0,L|471:210,1,62.9999980773926,10|0,0:0|0:0,0:0:0:0:
426,267,49221,5,10,0:0:0:0:
426,267,49380,2,0,P|342:262|286:267,1,125.999996154785,0|0,1:2|1:2,0:0:0:0:
200,175,49859,5,10,0:0:0:0:
200,175,50019,2,0,P|284:170|340:175,1,125.999996154785,0|0,1:2|1:2,0:0:0:0:
187,262,50497,6,0,P|147:263|105:270,1,62.9999980773926,10|0,0:0|1:2,0:0:0:0:
18,175,50816,2,0,P|58:176|100:183,1,62.9999980773926,8|0,0:0|1:2,0:0:0:0:
118,184,51056,1,0,1:2:0:0:
118,184,51136,2,0,P|119:144|126:102,1,62.9999980773926,10|0,0:0|1:2,0:0:0:0:
157,40,51455,1,12,0:0:0:0:
391,47,52731,5,8,3:0:0:0:
391,47,52811,1,0,3:0:0:0:
391,47,52891,2,0,L|392:85,1,38.5000011749268,0|0,3:0|3:0,0:0:0:0:
456,160,53051,6,2,P|382:115|296:149,1,154.000004699707,6|10,1:2|0:0,0:0:0:0:
212,128,53529,6,0,P|204:76|237:28,1,77.0000023498536,2|0,1:2|0:0,0:0:0:0:
274,204,53848,2,0,P|281:255|248:303,1,77.0000023498536,2|8,1:2|0:0,0:0:0:0:
179,345,54168,2,0,P|245:301|323:354,1,154.000004699707,2|0,1:2|1:2,0:0:0:0:
380,384,54646,1,8,0:0:0:0:
197,278,54965,5,2,1:2:0:0:
197,278,55125,1,0,1:2:0:0:
89,229,55285,6,0,B|69:201|69:201|73:123,1,77.0000023498536,10|0,0:0|0:0,0:0:0:0:
96,71,55604,2,0,P|145:61|191:82,1,77.0000023498536,6|0,1:2|0:0,0:0:0:0:
243,138,55923,1,10,0:0:0:0:
338,77,56082,2,0,P|349:26|317:-19,1,77.0000023498536,2|0,1:2|0:0,0:0:0:0:
247,35,56402,5,2,1:2:0:0:
247,35,56561,1,8,0:0:0:0:
334,107,56721,6,0,L|319:292,1,154.000004699707,2|0,1:2|1:2,0:0:0:0:
231,352,57199,2,0,L|229:252,1,77.0000023498536,10|0,0:0|0:0,0:0:0:0:
239,181,57519,1,2,1:2:0:0:
239,181,57678,1,0,1:2:0:0:
138,240,57838,2,0,P|82:236|56:211,1,77.0000023498536,10|0,0:0|0:0,0:0:0:0:
22,115,58157,6,0,B|58:96|125:107|75:143|137:146|189:114,1,154.000004699707,4|10,1:2|0:0,0:0:0:0:
243,53,58636,1,2,1:2:0:0:
327,122,58795,2,0,L|321:216,1,77.0000023498536,2|0,0:0|1:2,0:0:0:0:
314,327,59114,5,10,0:0:0:0:
314,327,59274,1,2,1:2:0:0:
403,250,59434,2,0,L|486:244,1,77.0000023498536,2|0,0:0|1:2,0:0:0:0:
441,141,59753,5,10,0:0:0:0:
441,141,59912,1,2,0:0:0:0:
322,198,60072,2,0,P|277:203|236:176,1,77.0000023498536,2|0,1:2|1:2,0:0:0:0:
200,87,60391,2,0,P|219:39|269:14,1,77.0000023498536,10|0,0:0|0:0,0:0:0:0:
134,188,60710,6,0,P|81:212|-3:143,1,154.000004699707,6|10,1:2|0:0,0:0:0:0:
50,55,61189,2,0,B|80:96|80:96|66:232,1,154.000004699707,2|2,1:2|1:2,0:0:0:0:
10,299,61668,1,8,0:0:0:0:
114,352,61827,6,0,L|202:335,1,77.0000023498536,2|0,1:2|0:0,0:0:0:0:
293,384,62146,1,2,1:2:0:0:
293,384,62306,2,0,P|306:340|296:299,1,77.0000023498536,10|0,0:0|0:0,0:0:0:0:
228,245,62625,2,0,P|214:201|224:160,1,77.0000023498536,2|0,1:2|1:2,0:0:0:0:
315,40,62944,2,0,P|328:83|318:124,1,77.0000023498536,10|0,0:0|0:0,0:0:0:0:
218,171,63263,6,0,P|283:139|359:189,1,154.000004699707,6|8,1:2|0:0,0:0:0:0:
410,286,63742,2,0,P|378:221|428:145,1,154.000004699707,2|2,1:2|1:2,0:0:0:0:
508,229,64221,1,8,0:0:0:0:
413,298,64380,6,0,B|355:326|355:326|234:302,1,154.000004699707,6|0,1:2|1:2,0:0:0:0:
171,244,64859,2,0,P|120:239|70:265,1,77.0000023498536,8|0,0:0|0:0,0:0:0:0:
169,340,65178,1,2,1:2:0:0:
169,340,65338,1,0,1:2:0:0:
255,220,65497,2,0,L|247:127,1,77.0000023498536,10|0,0:0|0:0,0:0:0:0:
316,38,65816,6,0,P|261:94|170:79,1,154.000004699707,6|10,1:2|0:0,0:0:0:0:
107,9,66295,2,0,B|78:66|78:66|104:173,1,154.000004699707,2|2,1:2|1:2,0:0:0:0:
67,249,66774,1,8,0:0:0:0:
173,210,66934,6,0,B|222:197|276:203|238:233|293:240|341:220,1,154.000004699707,2|0,1:2|1:2,0:0:0:0:
407,264,67412,2,0,P|415:209|387:171,1,77.0000023498536,10|0,0:0|0:0,0:0:0:0:
392,85,67731,5,2,1:2:0:0:
285,156,67891,1,0,1:2:0:0:
192,82,68051,2,0,L|91:63,1,77.0000023498536,10|0,0:0|0:0,0:0:0:0:
18,16,68370,6,0,P|70:60|34:158,1,154.000004699707,4|10,1:2|0:0,0:0:0:0:
25,236,68848,1,2,1:2:0:0:
120,201,69008,2,0,L|224:186,1,77.0000023498536,2|0,0:0|1:2,0:0:0:0:
270,265,69327,5,10,0:0:0:0:
270,265,69487,1,2,1:2:0:0:
279,153,69646,2,0,L|293:43,1,77.0000023498536,2|0,0:0|1:2,0:0:0:0:
212,6,69965,5,10,0:0:0:0:
212,6,70125,1,2,0:0:0:0:
289,76,70285,2,0,P|344:84|390:56,1,77.0000023498536,2|0,1:2|1:2,0:0:0:0:
192,120,70604,2,0,P|137:128|91:100,1,77.0000023498536,10|0,0:0|0:0,0:0:0:0:
43,44,70923,6,0,B|87:76|87:76|74:199,1,154.000004699707,6|8,1:2|0:0,0:0:0:0:
18,278,71401,2,0,P|79:208|158:222,1,154.000004699707,2|2,1:2|1:2,0:0:0:0:
234,257,71880,1,8,0:0:0:0:
329,191,72040,2,0,B|334:129|334:129|315:77|315:77|318:12,1,154.000004699707,2|0,1:2|1:2,0:0:0:0:
430,8,72519,5,10,0:0:0:0:
430,8,72678,1,0,1:2:0:0:
435,123,72838,6,0,L|525:117,1,77.0000023498536,10|0,0:0|1:2,0:0:0:0:
329,191,73157,2,0,L|239:185,1,77.0000023498536,10|0,0:0|1:2,0:0:0:0:
165,117,73476,5,10,0:0:0:0:
165,117,73636,1,0,1:2:0:0:
76,190,73795,2,2,L|82:280,1,77.0000023498536,10|2,0:0|1:2,0:0:0:0:
128,355,74114,6,0,P|182:337|234:353,1,77.0000023498536,8|0,0:0|1:2,0:0:0:0:
237,352,74354,1,0,1:2:0:0:
271,366,74434,2,0,P|320:372|371:345,1,77.0000023498536,8|0,0:0|1:2,0:0:0:0:
428,285,74753,2,0,P|434:236|407:185,1,77.0000023498536,8|0,0:0|1:2,0:0:0:0:
457,90,75072,2,0,P|408:84|357:111,1,77.0000023498536,8|0,0:0|1:2,0:0:0:0:
361,110,75311,1,0,1:2:0:0:
338,132,75391,2,0,P|298:144|257:137,1,77.0000023498536,8|0,0:0|1:2,0:0:0:0:
152,93,75710,2,0,P|145:134|157:173,1,77.0000023498536,10|0,0:0|1:2,0:0:0:0:
228,262,76029,6,0,P|193:215|81:226,1,154.000004699707,10|8,0:0|0:0,0:0:0:0:
20,273,76508,1,0,1:2:0:0:
7,176,76668,5,10,0:0:0:0:
7,176,76747,1,0,3:0:0:0:
7,176,76827,2,0,L|1:126,5,38.5000011749268,0|0|0|0|0|0,3:0|3:0|3:0|3:0|3:0|3:0,0:0:0:0:
22,106,77306,5,14,0:2:0:0:
256,192,77386,12,0,78249,0:0:0:0:
313,353,78567,6,0,P|289:294|334:222,1,140,6|8,1:2|0:0,0:0:0:0:
394,171,79045,2,0,B|350:138|350:138|233:153,1,140,2|0,1:2|1:2,0:0:0:0:
187,206,79524,2,0,P|113:190|106:113,1,140,10|0,0:0|0:0,0:0:0:0:
76,38,80003,1,2,1:2:0:0:
173,49,80162,6,0,B|266:33|218:87|328:54,1,140,8|2,0:0|1:2,0:0:0:0:
386,0,80641,1,0,1:2:0:0:
430,87,80801,2,0,L|420:168,1,70,10|0,0:0|0:0,0:0:0:0:
466,244,81120,2,0,P|436:190|337:195,1,140,2|10,1:2|0:0,0:0:0:0:
284,237,81598,6,0,L|120:209,1,140,2|0,1:2|1:2,0:0:0:0:
84,137,82077,1,8,0:0:0:0:
29,219,82237,2,0,L|38:309,1,70,0|0,1:2|0:0,0:0:0:0:
9,383,82556,1,0,1:2:0:0:
99,344,82715,2,0,L|168:350,1,70,8|0,0:0|0:0,0:0:0:0:
266,354,83035,1,0,1:2:0:0:
266,354,83194,1,0,1:2:0:0:
215,270,83354,6,0,P|198:213|214:177,1,70,10|0,0:0|0:0,0:0:0:0:
223,109,83673,2,0,B|275:101|275:101|368:133,1,140,6|8,1:2|0:0,0:0:0:0:
420,205,84152,2,0,P|454:134|428:73,1,140,2|0,1:2|1:2,0:0:0:0:
363,11,84630,5,10,0:0:0:0:
282,66,84790,2,0,L|129:49,2,140,6|2|2,1:2|1:2|1:2,0:0:0:0:
183,188,85747,6,0,L|193:362,1,168,2|0,1:2|0:0,0:0:0:0:
