osu file format v14

[General]
AudioFilename: audio.mp3
AudioLeadIn: 0
PreviewTime: 51759
Countdown: 0
SampleSet: Soft
StackLeniency: 0.7
Mode: 0
LetterboxInBreaks: 0
WidescreenStoryboard: 0

[Editor]
Bookmarks: 21121,31334
DistanceSpacing: 1.5
BeatDivisor: 4
GridSize: 32
TimelineZoom: 1.6

[Metadata]
Title:Blade of Hope (TV Size)
TitleUnicode:Blade of Hope (TV Size)
Artist:sweet ARMS
ArtistUnicode:sweet ARMS
Creator:Aruyy
Version:Expert
Source:新妹魔王の契約者
Tags:Fluffy91021 anime japanese j pop j-pop jpop shinmai maou no keiyakusha the testament of sister new devil opening iori nomizu togashi misuzu sadohara kaori misato
BeatmapID:4161879
BeatmapSetID:1896971

[Difficulty]
HPDrainRate:5
CircleSize:4.5
OverallDifficulty:8.5
ApproachRate:9
SliderMultiplier:1.8
SliderTickRate:1

[Events]
//Background and Video events
0,0,"WHY CANT I BE LIKE HIM.jpg",0,0
//Break Periods
2,21336,30030
//Storyboard Layer 0 (Background)
//Storyboard Layer 1 (Fail)
//Storyboard Layer 2 (Pass)
//Storyboard Layer 3 (Foreground)
//Storyboard Layer 4 (Overlay)
//Storyboard Sound Samples

[TimingPoints]
-579,329.67032967033,4,2,1,60,1,0
1668,-250,4,2,1,60,0,0
3263,319.148936170213,4,2,1,70,1,0
3263,-125,4,2,1,70,0,0
19699,-83.3333333333333,4,2,1,70,0,0
30631,-166.666666666667,4,2,1,60,0,0
31348,-142.857142857143,4,2,1,60,0,0
35019,-125,4,2,1,60,0,0
35497,-142.857142857143,4,2,1,60,0,0
41561,-250.000000000001,4,2,1,60,0,0
41641,-250.000000000001,4,2,1,50,0,0
45870,-142.857142857143,4,2,1,50,0,0
46668,-142.857142857143,4,2,1,60,0,0
52732,-142.857142857143,4,2,1,80,0,0
53051,-83.3333333333333,4,2,1,80,0,0
61827,-71.4285714285714,4,2,1,80,0,0
62306,-83.3333333333333,4,2,1,80,0,0
78248,319.148936170213,4,2,1,60,1,0
78248,-166.666666666667,4,2,1,80,0,0
78567,319.148936170213,4,2,1,60,1,0
78567,-100,4,2,1,60,0,0
84790,-83.3333333333333,4,2,1,60,0,0
85747,-100,4,2,1,60,0,0
92132,-100,4,2,1,60,0,0
92610,-100,4,2,1,5,0,0

[Colours]
Combo1 : 244,176,234
Combo2 : 248,140,129
Combo3 : 153,247,155
Combo4 : 170,249,253

[HitObjects]
45,47,574,5,2,0:0:0:0:
45,47,657,1,2,0:0:0:0:
45,47,739,1,2,0:0:0:0:
134,75,904,1,2,0:0:0:0:
215,33,1069,1,2,0:0:0:0:
215,130,1234,5,2,0:0:0:0:
308,76,1399,1,2,0:0:0:0:
215,33,1563,1,2,0:0:0:0:
326,206,1728,5,2,0:0:0:0:
256,192,1811,12,0,2882,0:0:0:0:
145,231,3263,6,0,P|204:246|217:345,1,144,2|8,1:2|0:0,0:0:0:0:
231,225,3742,2,0,B|315:188|284:262|390:209,1,144,2|0,1:2|1:2,0:0:0:0:
496,166,4221,5,10,0:0:0:0:
331,148,4380,2,0,P|289:111|305:36,1,108,0|0,1:2|0:0,0:0:0:0:
344,17,4699,1,2,1:2:0:0:
248,128,4859,6,0,B|150:108|216:171|87:140,1,144,10|2,0:0|1:2,0:0:0:0:
4,59,5338,1,0,1:2:0:0:
27,193,5497,2,0,P|38:233|26:267,1,72,10|0,0:0|0:0,0:0:0:0:
0,370,5816,6,0,P|44:335|137:350,1,144,2|10,1:2|0:0,0:0:0:0:
241,383,6295,2,0,B|331:391|290:350|393:357,1,144,2|0,1:2|1:2,0:0:0:0:
482,381,6774,1,8,0:0:0:0:
258,303,6934,2,0,P|247:264|320:191,1,144,0|0,1:2|1:2,0:0:0:0:
424,225,7412,2,0,P|435:186|362:113,1,144,8|0,0:0|1:2,0:0:0:0:
340,16,7891,5,0,1:2:0:0:
219,114,8051,1,10,0:0:0:0:
300,86,8210,1,0,0:0:0:0:
207,202,8370,6,0,P|144:187|121:108,1,144,6|8,1:2|0:0,0:0:0:0:
25,38,8848,2,0,P|69:-10|149:10,1,144,2|0,1:2|1:2,0:0:0:0:
118,205,9327,2,0,B|80:279|137:265|84:355,1,144,10|0,0:0|0:0,0:0:0:0:
0,384,9806,1,2,1:2:0:0:
133,275,9965,6,0,P|176:268|220:288,1,72,8|0,0:0|0:0,0:0:0:0:
357,211,10285,1,2,1:2:0:0:
272,347,10444,1,0,1:2:0:0:
201,195,10604,2,0,P|202:140|257:99,1,108,10|0,0:0|0:0,0:0:0:0:
312,117,10923,2,0,P|365:116|389:28,1,144,2|8,1:2|0:0,0:0:0:0:
177,160,11402,6,0,B|90:146|136:204|20:169,1,144,2|0,1:2|1:2,0:0:0:0:
69,95,11880,1,10,0:0:0:0:
164,239,12040,6,0,P|157:283|137:301,1,72,6|0,1:2|0:0,0:0:0:0:
0,338,12359,2,0,P|41:322|67:330,1,72,2|0,1:2|0:0,0:0:0:0:
200,167,12678,2,0,P|234:195|240:221,1,72,2|0,1:2|0:0,0:0:0:0:
453,265,12997,2,0,P|446:309|426:326,1,72,2|0,1:2|0:0,0:0:0:0:
291,362,13316,1,8,0:0:0:0:
325,325,13396,1,8,0:0:0:0:
380,331,13476,6,0,P|420:305|419:206,1,144,2|8,1:2|0:0,0:0:0:0:
472,45,13955,2,0,P|423:46|375:133,1,144,2|0,1:2|1:2,0:0:0:0:
346,251,14434,1,10,0:0:0:0:
294,94,14593,6,0,P|243:67|182:82,1,108,0|0,1:2|0:0,0:0:0:0:
165,99,14912,1,2,1:2:0:0:
221,222,15072,2,0,P|215:265|210:318,1,72,8|0,0:0|0:0,0:0:0:0:
143,384,15391,1,2,1:2:0:0:
303,270,15551,1,0,1:2:0:0:
101,228,15710,2,0,P|85:182|113:130,1,108,10|0,0:0|0:0,0:0:0:0:
77,64,16029,6,0,P|131:52|193:119,1,144,2|8,1:2|0:0,0:0:0:0:
247,214,16508,2,0,P|299:168|292:100,1,144,2|0,1:2|1:2,0:0:0:0:
147,264,16987,1,8,0:0:0:0:
300,186,17146,2,0,P|362:174|427:226,1,144,0|0,1:2|1:2,0:0:0:0:
354,327,17625,2,0,P|341:283|360:236,1,72,8|0,0:0|0:0,0:0:0:0:
431,120,17944,1,0,1:2:0:0:
423,219,18104,1,0,1:2:0:0:
266,47,18263,5,10,0:0:0:0:
297,37,18343,1,0,0:0:0:0:
328,47,18423,1,0,0:0:0:0:
346,74,18503,1,0,0:0:0:0:
339,111,18582,6,0,B|255:107|288:155|187:129,1,144,6|8,1:2|0:0,0:0:0:0:
126,52,19061,2,0,P|168:88|152:180,1,144,2|0,1:2|1:2,0:0:0:0:
71,281,19540,1,10,0:0:0:0:
198,235,19699,6,0,P|262:238|316:273,1,107.999996704102,6|0,1:2|0:0,0:0:0:0:
347,290,20019,2,0,P|316:245|270:218,1,107.999996704102,2|0,1:2|0:0,0:0:0:0:
217,193,20338,2,0,P|280:196|334:230,1,107.999996704102,2|0,1:2|0:0,0:0:0:0:
372,268,20657,2,0,P|327:191|195:162,1,215.999993408203,2|0,1:2|0:0,0:0:0:0:
134,185,21136,5,0,0:0:0:0:
25,60,30630,5,8,0:0:0:0:
28,55,30710,1,8,0:0:0:0:
107,25,30870,2,0,P|148:31|163:98,1,107.999996704102,0|0,1:2|0:0,0:0:0:0:
100,157,31348,6,0,P|139:118|218:134,1,125.999996154785,2|8,1:2|0:0,0:0:0:0:
324,213,31827,2,0,P|363:221|399:205,1,62.9999980773926,2|0,1:2|0:0,0:0:0:0:
308,134,32146,1,2,1:2:0:0:
244,228,32306,1,10,0:0:0:0:
380,258,32465,6,0,P|426:208|412:137,1,125.999996154785,2|2,1:2|1:2,0:0:0:0:
330,64,32944,2,0,P|309:119|352:181,1,125.999996154785,10|0,0:0|1:2,0:0:0:0:
422,153,33423,1,0,1:2:0:0:
282,143,33582,2,0,P|238:148|202:164,1,62.9999980773926,8|0,0:0|0:0,0:0:0:0:
134,221,33902,6,0,P|71:199|73:121,1,125.999996154785,2|10,1:2|0:0,0:0:0:0:
124,7,34380,2,0,P|149:53|138:98,1,94.499997116089,2|0,1:2|0:0,0:0:0:0:
0,91,34699,2,0,P|28:62|62:60,1,62.9999980773926,2|8,1:2|0:0,0:0:0:0:
223,121,35019,6,0,P|291:115|320:35,1,144,2|0,1:2|1:2,0:0:0:0:
273,155,35497,2,0,B|255:195|299:215|264:283,1,125.999996154785,10|0,0:0|1:2,0:0:0:0:
166,331,35976,1,0,1:2:0:0:
298,216,36136,2,0,P|330:217|360:237,1,62.9999980773926,8|0,0:0|0:0,0:0:0:0:
435,372,36455,6,0,P|404:330|430:262,1,125.999996154785,6|8,1:2|0:0,0:0:0:0:
499,200,36934,2,0,P|516:137|468:73,1,125.999996154785,2|2,1:2|1:2,0:0:0:0:
512,0,37412,1,10,0:0:0:0:
389,96,37572,6,0,B|316:82|347:127|256:96,1,125.999996154785,2|0,1:2|1:2,0:0:0:0:
202,28,38051,2,0,P|235:70|198:142,1,125.999996154785,10|0,0:0|1:2,0:0:0:0:
116,84,38529,1,0,1:2:0:0:
211,215,38689,2,0,P|199:251|146:279,1,94.499997116089,8|0,0:0|0:0,0:0:0:0:
145,194,39008,6,0,B|218:189|193:243|291:213,1,125.999996154785,2|8,1:2|0:0,0:0:0:0:
358,155,39487,2,0,P|424:155|454:209,1,125.999996154785,2|2,1:2|1:2,0:0:0:0:
333,280,39965,1,8,0:0:0:0:
239,132,40125,2,0,P|233:67|282:22,1,125.999996154785,2|0,1:2|1:2,0:0:0:0:
390,9,40604,5,10,0:0:0:0:
205,86,40763,1,0,1:2:0:0:
152,94,40843,1,0,1:2:0:0:
120,49,40923,1,8,0:0:0:0:
274,27,41082,2,0,P|295:84|231:160,1,157.499995193482,8|0,3:0|0:0,0:0:0:0:
188,211,41561,6,0,L|189:250,1,36,6|0,1:2|0:0,0:0:0:0:
268,245,41880,2,0,L|269:284,1,36,0|2,1:2|0:0,0:0:0:0:
335,203,42199,6,0,P|372:195|403:215,1,72,8|2,0:0|1:2,0:0:0:0:
446,270,42678,1,8,0:0:0:0:
480,183,42838,6,0,L|475:138,1,36,2|8,1:2|0:0,0:0:0:0:
388,127,43157,2,0,L|383:82,1,36,0|2,1:2|0:0,0:0:0:0:
303,161,43476,6,0,P|258:161|240:135,1,72,8|2,0:0|1:2,0:0:0:0:
219,75,43955,1,0,0:0:0:0:
168,181,44114,2,0,L|172:258,1,72,2|0,1:2|1:2,0:0:0:0:
81,275,44593,2,0,L|82:323,2,36,2|8|0,0:0|0:0|0:0,0:0:0:0:
15,196,45072,5,2,1:2:0:0:
92,121,45231,1,8,0:0:0:0:
162,201,45391,1,2,1:2:0:0:
171,209,45551,2,0,P|207:215|229:203,1,54,8|0,3:0|0:0,0:0:0:0:
268,155,45870,6,0,P|307:147|363:207,1,125.999996154785,6|8,1:2|0:0,0:0:0:0:
343,271,46269,1,8,0:0:0:0:
343,271,46348,1,10,0:0:0:0:
442,196,46508,1,8,0:0:0:0:
434,217,46588,1,8,0:0:0:0:
424,237,46668,2,0,P|395:210|426:133,1,125.999996154785,6|8,1:2|0:0,0:0:0:0:
489,99,47146,6,0,P|496:61|420:20,1,125.999996154785,0|0,1:2|1:2,0:0:0:0:
281,124,47625,2,0,P|238:128|219:113,1,62.9999980773926,8|0,0:0|1:2,0:0:0:0:
311,47,47944,2,0,P|327:80|266:148,2,125.999996154785,0|8|2,0:0|0:0|1:2,0:0:0:0:
223,3,48742,1,0,1:2:0:0:
148,97,48902,2,0,P|85:85|69:47,1,94.499997116089,10|0,0:0|0:0,0:0:0:0:
101,0,49221,5,10,0:0:0:0:
121,124,49380,2,0,B|138:184|106:183|122:251,1,125.999996154785,0|0,1:2|1:2,0:0:0:0:
52,156,49859,5,10,0:0:0:0:
192,217,50019,2,0,B|209:277|177:276|193:344,1,125.999996154785,0|0,1:2|1:2,0:0:0:0:
121,248,50497,1,10,0:0:0:0:
258,145,50657,1,0,1:2:0:0:
261,306,50816,5,8,0:0:0:0:
346,167,50976,1,0,1:2:0:0:
361,191,51056,1,0,1:2:0:0:
357,214,51136,1,10,0:0:0:0:
276,230,51295,5,0,1:2:0:0:
449,167,51455,1,12,0:0:0:0:
258,145,51774,5,0,0:0:0:0:
282,116,51934,1,0,0:0:0:0:
318,100,52093,1,0,0:0:0:0:
357,102,52253,1,0,0:0:0:0:
391,122,52412,1,2,0:0:0:0:
391,122,52731,5,8,3:0:0:0:
357,102,52811,1,0,3:0:0:0:
318,100,52891,1,0,3:0:0:0:
282,116,52971,1,0,3:0:0:0:
258,145,53051,6,0,P|205:175|101:93,1,161.999995056153,6|0,1:2|0:0,0:0:0:0:
107,65,53370,1,10,0:0:0:0:
251,196,53529,2,0,P|260:243|221:307,1,107.999996704102,2|0,1:2|0:0,0:0:0:0:
65,369,53848,5,2,1:2:0:0:
144,248,54008,1,8,0:0:0:0:
321,362,54168,6,0,P|429:285|399:208,1,215.999993408203,2|0,1:2|1:2,0:0:0:0:
322,180,54646,2,0,P|307:231|343:278,1,107.999996704102,8|0,0:0|0:0,0:0:0:0:
512,247,54965,5,2,1:2:0:0:
412,124,55125,1,0,1:2:0:0:
198,207,55285,6,0,P|152:155|207:81,1,161.999995056153,10|0,0:0|0:0,0:0:0:0:
270,105,55604,2,0,P|341:90|360:15,1,107.999996704102,6|0,1:2|0:0,0:0:0:0:
244,5,55923,1,10,0:0:0:0:
273,195,56082,2,0,P|258:266|183:285,1,107.999996704102,2|0,1:2|0:0,0:0:0:0:
19,338,56402,1,2,1:2:0:0:
95,250,56561,1,8,0:0:0:0:
261,353,56721,6,0,B|381:310|345:416|484:335,1,215.999993408203,2|0,1:2|1:2,0:0:0:0:
419,186,57199,2,0,P|390:236|397:289,1,107.999996704102,10|0,0:0|0:0,0:0:0:0:
367,100,57519,1,2,1:2:0:0:
512,159,57678,1,0,1:2:0:0:
259,206,57838,2,0,P|194:171|232:75,1,161.999995056153,10|0,0:0|0:0,0:0:0:0:
367,100,58157,6,0,P|309:138|246:106,1,107.999996704102,4|0,1:2|0:0,0:0:0:0:
141,24,58476,5,10,0:0:0:0:
56,98,58636,1,2,1:2:0:0:
168,270,58795,2,0,P|206:212|174:149,1,107.999996704102,2|0,0:0|1:2,0:0:0:0:
63,19,59114,5,10,0:0:0:0:
114,167,59274,1,2,1:2:0:0:
341,111,59434,2,0,P|309:49|239:45,1,107.999996704102,2|0,0:0|1:2,0:0:0:0:
24,204,59753,5,10,0:0:0:0:
142,85,59912,1,2,0:0:0:0:
170,250,60072,1,2,1:2:0:0:
114,167,60231,1,0,1:2:0:0:
289,234,60391,6,0,B|396:222|331:278|462:246,1,161.999995056153,10|0,0:0|0:0,0:0:0:0:
494,189,60710,2,0,P|502:131|396:95,1,161.999995056153,6|0,1:2|0:0,0:0:0:0:
359,131,61029,1,10,0:0:0:0:
246,306,61189,6,0,P|179:279|176:218,1,107.999996704102,2|0,1:2|0:0,0:0:0:0:
265,48,61508,2,0,P|278:110|216:168,1,107.999996704102,2|8,1:2|0:0,0:0:0:0:
0,71,61827,6,0,P|31:38|200:114,1,251.999992309571,2|2,1:2|1:2,0:0:0:0:
89,209,62306,2,0,P|71:142|115:103,1,107.999996704102,10|0,0:0|0:0,0:0:0:0:
301,122,62625,6,0,P|380:134|452:44,1,161.999995056153,2|0,1:2|0:0,0:0:0:0:
359,17,62944,2,0,B|320:94|407:88|355:184,1,161.999995056153,10|0,0:0|0:0,0:0:0:0:
267,222,63263,2,0,P|204:208|205:68,1,215.999993408203,6|8,1:2|0:0,0:0:0:0:
20,366,63742,2,0,P|0:304|122:235,1,215.999993408203,2|2,1:2|1:2,0:0:0:0:
249,139,64221,1,8,0:0:0:0:
368,307,64380,6,0,P|442:322|501:186,1,215.999993408203,6|0,1:2|1:2,0:0:0:0:
419,106,64859,2,0,P|391:172|416:225,1,107.999996704102,8|0,0:0|0:0,0:0:0:0:
443,372,65178,1,2,1:2:0:0:
323,226,65338,1,0,1:2:0:0:
96,374,65497,6,0,P|21:324|33:244,1,161.999995056153,10|0,0:0|0:0,0:0:0:0:
71,196,65816,2,0,P|109:114|-5:40,1,215.999993408203,6|10,1:2|0:0,0:0:0:0:
180,168,66295,2,0,B|301:145|254:223|412:178,1,215.999993408203,2|2,1:2|1:2,0:0:0:0:
506,116,66774,1,8,0:0:0:0:
362,361,66934,2,0,P|337:301|366:231,1,107.999996704102,2|0,1:2|0:0,0:0:0:0:
467,348,67253,1,0,1:2:0:0:
246,326,67412,6,0,P|193:297|94:334,1,161.999995056153,10|0,0:0|0:0,0:0:0:0:
0,384,67731,2,0,P|30:326|7:273,1,107.999996704102,2|0,1:2|1:2,0:0:0:0:
18,130,68051,2,0,P|33:198|148:196,1,161.999995056153,10|0,0:0|0:0,0:0:0:0:
191,176,68370,2,0,P|227:161|300:188,1,107.999996704102,4|0,1:2|0:0,0:0:0:0:
393,308,68689,5,10,0:0:0:0:
234,247,68848,1,2,1:2:0:0:
371,44,69008,2,0,P|385:80|358:153,1,107.999996704102,2|0,0:0|1:2,0:0:0:0:
223,347,69327,5,10,0:0:0:0:
191,176,69487,1,2,1:2:0:0:
444,179,69646,2,0,P|420:209|343:223,1,107.999996704102,2|0,0:0|1:2,0:0:0:0:
255,90,69965,5,10,0:0:0:0:
153,279,70125,1,2,0:0:0:0:
282,233,70285,1,2,1:2:0:0:
191,176,70444,1,0,1:2:0:0:
297,361,70604,2,0,P|392:353|420:266,1,161.999995056153,10|0,0:0|0:0,0:0:0:0:
424,197,70923,6,0,P|406:277|517:320,1,215.999993408203,6|8,1:2|0:0,0:0:0:0:
322,279,71402,2,0,B|203:254|237:343|106:296,1,215.999993408203,2|2,1:2|1:2,0:0:0:0:
0,348,71880,1,8,0:0:0:0:
87,95,72040,2,0,P|181:138|167:237,1,215.999993408203,2|0,1:2|1:2,0:0:0:0:
39,163,72519,5,10,0:0:0:0:
216,67,72678,1,0,1:2:0:0:
301,144,72838,5,10,0:0:0:0:
138,77,72997,1,0,1:2:0:0:
276,15,73157,2,0,P|336:17|392:89,1,107.999996704102,10|0,0:0|1:2,0:0:0:0:
362,234,73476,5,10,0:0:0:0:
412,114,73636,1,0,1:2:0:0:
378,317,73795,5,10,0:0:0:0:
301,144,73955,1,2,1:2:0:0:
300,384,74114,5,8,0:0:0:0:
362,234,74274,1,0,1:2:0:0:
362,234,74354,1,0,1:2:0:0:
362,234,74434,1,8,0:0:0:0:
493,293,74593,1,0,1:2:0:0:
257,278,74753,5,8,0:0:0:0:
438,197,74912,1,0,1:2:0:0:
141,208,75072,5,8,0:0:0:0:
359,309,75231,1,0,1:2:0:0:
359,309,75311,1,0,1:2:0:0:
359,309,75391,1,8,0:0:0:0:
416,106,75551,1,0,1:2:0:0:
276,208,75710,1,10,0:0:0:0:
468,284,75870,1,0,1:2:0:0:
303,117,76029,6,0,P|209:101|182:124,1,107.999996704102,10|0,0:0|1:2,0:0:0:0:
79,293,76348,1,8,0:0:0:0:
205,216,76508,1,0,1:2:0:0:
1,26,76668,5,10,0:0:0:0:
25,72,76747,1,0,3:0:0:0:
74,93,76827,1,0,3:0:0:0:
125,79,76907,1,0,3:0:0:0:
145,71,76987,1,0,3:0:0:0:
171,75,77066,1,0,3:0:0:0:
193,89,77146,1,0,3:0:0:0:
207,112,77226,1,0,3:0:0:0:
210,139,77306,1,14,0:2:0:0:
23,305,78248,6,0,P|62:275|112:291,1,80.9999975280763
156,307,78567,2,0,P|256:292|301:223,1,180,6|8,1:2|0:0,0:0:0:0:
209,73,79045,2,0,P|165:117|217:226,1,180,2|0,1:2|1:2,0:0:0:0:
413,145,79524,2,0,B|294:108|359:195|208:137,1,180,10|0,0:0|0:0,0:0:0:0:
129,37,80003,1,2,1:2:0:0:
161,179,80162,6,0,L|148:272,1,90,8|0,0:0|0:0,0:0:0:0:
0,300,80481,2,0,P|64:299|94:335,1,90,2|0,1:2|1:2,0:0:0:0:
273,300,80801,2,0,P|259:328|157:337,1,135,10|0,0:0|0:0,0:0:0:0:
242,234,81120,2,0,P|285:225|346:333,1,180,2|10,1:2|0:0,0:0:0:0:
406,203,81598,6,0,B|450:100|358:119|435:-5,1,180,2|0,1:2|1:2,0:0:0:0:
504,81,82077,1,8,0:0:0:0:
345,150,82237,2,0,P|294:143|258:90,1,90,0|0,1:2|0:0,0:0:0:0:
109,14,82556,1,0,1:2:0:0:
109,14,82715,2,0,P|149:45|154:109,1,90,8|0,0:0|0:0,0:0:0:0:
11,163,83035,1,0,1:2:0:0:
77,95,83194,1,0,1:2:0:0:
196,212,83354,6,0,B|281:205|227:254|348:239,1,135,10|0,0:0|0:0,0:0:0:0:
400,216,83673,2,0,P|429:256|339:334,1,180,6|8,1:2|0:0,0:0:0:0:
256,343,84152,2,0,P|199:327|155:342,1,90,2|0,1:2|0:0,0:0:0:0:
12,379,84471,1,0,1:2:0:0:
116,257,84630,5,10,0:0:0:0:
116,257,84790,2,0,P|123:199|88:135,1,107.999996704102,6|0,1:2|0:0,0:0:0:0:
82,99,85109,2,0,P|123:132|142:182,1,107.999996704102,2|0,1:2|0:0,0:0:0:0:
157,236,85428,2,0,P|164:178|129:114,1,107.999996704102,2|0,1:2|0:0,0:0:0:0:
115,79,85747,2,0,P|173:152|147:264,1,180,2|0,1:2|0:0,0:0:0:0:
