osu file format v14

[General]
AudioFilename: audio.mp3
AudioLeadIn: 0
PreviewTime: 42105
Countdown: 0
SampleSet: Soft
StackLeniency: 0.6
Mode: 0
LetterboxInBreaks: 0
WidescreenStoryboard: 0

[Editor]
DistanceSpacing: 0.8
BeatDivisor: 16
GridSize: 4
TimelineZoom: 4.399998

[Metadata]
Title:erping is super fun
TitleUnicode:erping is super fun
Artist:svtori
ArtistUnicode:svtori
Creator:fufu-
Version:rp with me, anon!
Source:
Tags:sao sword art online lolicore unko breakcore speedcore bandcamp internet roleplay
BeatmapID:1529361
BeatmapSetID:724296

[Difficulty]
HPDrainRate:7
CircleSize:4.5
OverallDifficulty:9
ApproachRate:9.9
SliderMultiplier:1.4
SliderTickRate:1

[Events]
//Background and Video events
0,0,"lolartonline.jpeg",0,0
//Break Periods
//Storyboard Layer 0 (Background)
//Storyboard Layer 1 (Fail)
//Storyboard Layer 2 (Pass)
//Storyboard Layer 3 (Foreground)
//Storyboard Sound Samples

[TimingPoints]
1080,269.905533063428,4,3,0,50,1,0
2159,-200,4,3,0,50,0,0
9716,-200,4,2,0,85,0,0
10796,-100,4,2,0,85,0,0
14575,-200,4,2,0,85,0,0
15115,-200,4,3,0,50,0,0
23212,-200,4,2,0,85,0,0
23752,-100,4,2,0,85,0,0
43185,-83.3333333333333,4,2,0,85,0,1
69096,-83.3333333333333,4,2,0,85,0,0

[Colours]
Combo1 : 192,192,192
Combo2 : 205,156,156
Combo3 : 255,102,102
Combo4 : 132,193,255

[HitObjects]
196,142,2159,6,0,L|190:218,3,70,2|0|0|0,0:0|0:0|0:0|0:0,0:0:0:0:
316,142,3239,2,0,L|322:218,3,70
406,74,4183,1,0,0:0:0:0:
406,74,4251,1,0,0:0:0:0:
406,74,4318,6,0,L|325:68,3,70,2|0|0|0,0:0|0:0|0:0|0:0,0:0:0:0:
106,74,5398,2,0,L|187:68,3,70
155,166,6343,1,0,0:0:0:0:
155,166,6410,1,0,0:0:0:0:
155,166,6478,6,0,P|163:202|191:227,3,70,2|0|0|0,0:0|0:0|0:0|0:0,0:0:0:0:
357,166,7557,2,0,P|349:202|321:227,3,70
232,325,8502,1,0,0:0:0:0:
232,325,8569,1,0,0:0:0:0:
232,325,8637,6,0,L|149:319,1,70,2|0,0:0|0:0,0:0:0:0:
55,240,9177,2,0,L|131:229,1,70
439,206,9716,5,0,0:0:0:0:
439,206,9784,1,0,0:0:0:0:
439,206,9851,1,0,0:0:0:0:
406,316,9986,1,0,0:0:0:0:
345,154,10121,1,0,0:0:0:0:
494,270,10256,6,0,L|467:267,1,17.5,6|0,0:0|0:0,0:0:0:0:
264,227,10391,2,0,L|236:222,1,17.5,6|0,0:0|0:0,0:0:0:0:
264,227,10796,5,4,0:0:0:0:
229,219,10864,1,0,0:0:0:0:
194,218,10931,1,0,0:0:0:0:
161,230,10999,1,0,0:0:0:0:
137,256,11066,1,8,0:0:0:0:
122,287,11133,1,0,0:0:0:0:
120,322,11201,1,0,0:0:0:0:
137,352,11268,1,0,0:0:0:0:
165,372,11336,5,0,0:0:0:0:
170,337,11403,1,0,0:0:0:0:
155,304,11471,1,0,0:0:0:0:
124,287,11538,1,0,0:0:0:0:
89,280,11606,1,8,0:0:0:0:
56,268,11673,1,0,0:0:0:0:
32,241,11741,1,0,0:0:0:0:
24,206,11808,1,0,0:0:0:0:
40,174,11876,5,0,0:0:0:0:
22,144,11943,1,0,0:0:0:0:
25,108,12011,1,0,0:0:0:0:
43,78,12078,1,0,0:0:0:0:
76,68,12146,1,8,0:0:0:0:
109,78,12213,1,0,0:0:0:0:
134,102,12281,1,0,0:0:0:0:
167,111,12348,1,0,0:0:0:0:
201,105,12416,5,0,0:0:0:0:
229,84,12483,1,0,0:0:0:0:
259,66,12550,1,0,0:0:0:0:
294,64,12618,1,0,0:0:0:0:
327,72,12685,1,8,0:0:0:0:
357,90,12753,1,0,0:0:0:0:
374,120,12820,1,0,0:0:0:0:
377,155,12888,1,0,0:0:0:0:
370,189,12955,5,2,0:0:0:0:
349,160,13023,1,0,0:0:0:0:
344,125,13090,1,0,0:0:0:0:
356,91,13158,1,0,0:0:0:0:
384,71,13225,1,8,0:0:0:0:
419,67,13293,1,0,0:0:0:0:
452,76,13360,1,0,0:0:0:0:
476,101,13428,1,0,0:0:0:0:
481,135,13495,5,0,0:0:0:0:
446,129,13563,1,0,0:0:0:0:
411,123,13630,1,0,0:0:0:0:
376,117,13698,1,0,0:0:0:0:
341,112,13765,1,8,0:0:0:0:
308,125,13833,1,0,0:0:0:0:
275,137,13900,1,0,0:0:0:0:
242,149,13967,1,0,0:0:0:0:
209,163,14035,5,0,0:0:0:0:
242,173,14102,1,0,0:0:0:0:
271,192,14170,1,0,0:0:0:0:
290,220,14237,1,0,0:0:0:0:
294,255,14305,1,8,0:0:0:0:
280,287,14372,1,0,0:0:0:0:
257,314,14440,1,0,0:0:0:0:
224,327,14507,1,0,0:0:0:0:
188,326,14575,6,0,L|186:302,1,17.5,6|0,0:0|0:0,0:0:0:0:
172,86,14710,2,0,L|171:67,1,17.5,6|0,0:0|0:0,0:0:0:0:
316,242,15115,6,0,L|322:166,3,70,2|0|0|0,0:0|0:0|0:0|0:0,0:0:0:0:
196,242,16195,2,0,L|190:166,3,70
106,310,17139,1,0,0:0:0:0:
106,310,17207,1,0,0:0:0:0:
106,310,17274,6,0,L|187:316,3,70,2|0|0|0,0:0|0:0|0:0|0:0,0:0:0:0:
406,310,18354,2,0,L|325:316,3,70
357,218,19299,1,0,0:0:0:0:
357,218,19366,1,0,0:0:0:0:
357,218,19434,6,0,P|349:182|321:157,3,70,2|0|0|0,0:0|0:0|0:0|0:0,0:0:0:0:
155,218,20513,2,0,P|163:182|191:157,3,70
280,59,21458,1,0,0:0:0:0:
280,59,21525,1,0,0:0:0:0:
280,59,21593,6,0,L|363:65,1,70,2|0,0:0|0:0,0:0:0:0:
457,144,22133,2,0,L|381:155,1,70
283,217,22672,2,0,L|206:200,1,70
401,247,23212,6,0,L|374:251,1,17.5,6|0,0:0|0:0,0:0:0:0:
111,283,23347,2,0,L|87:286,1,17.5,6|0,0:0|0:0,0:0:0:0:
168,89,23752,5,6,0:0:0:0:
201,308,23887,1,2,0:0:0:0:
251,179,24021,1,8,0:0:0:0:
251,179,24089,1,0,0:0:0:0:
251,179,24156,1,0,0:0:0:0:
95,152,24291,6,0,L|20:140,1,70
190,278,24561,1,8,0:0:0:0:
255,148,24696,1,0,0:0:0:0:
255,148,24764,1,0,0:0:0:0:
255,148,24831,5,2,0:0:0:0:
96,179,24966,1,2,0:0:0:0:
277,260,25101,1,8,0:0:0:0:
294,262,25169,1,0,0:0:0:0:
311,261,25236,1,0,0:0:0:0:
328,257,25304,1,0,0:0:0:0:
344,253,25371,5,2,0:0:0:0:
324,81,25506,1,2,0:0:0:0:
191,199,25641,1,8,0:0:0:0:
193,216,25708,1,0,0:0:0:0:
195,233,25776,1,0,0:0:0:0:
197,250,25843,1,0,0:0:0:0:
200,267,25911,5,2,0:0:0:0:
425,232,26046,1,2,0:0:0:0:
254,136,26181,1,8,0:0:0:0:
254,136,26248,1,0,0:0:0:0:
254,136,26316,1,0,0:0:0:0:
285,362,26451,6,0,L|291:288,1,70
310,75,26721,1,8,0:0:0:0:
389,186,26855,1,0,0:0:0:0:
389,186,26923,1,0,0:0:0:0:
389,186,26990,5,2,0:0:0:0:
130,157,27125,1,2,0:0:0:0:
312,58,27260,1,8,0:0:0:0:
310,75,27328,1,0,0:0:0:0:
308,92,27395,1,0,0:0:0:0:
306,109,27463,1,0,0:0:0:0:
304,126,27530,5,2,0:0:0:0:
227,25,27665,1,2,0:0:0:0:
309,296,27800,1,8,0:0:0:0:
311,279,27868,1,0,0:0:0:0:
313,262,27935,1,0,0:0:0:0:
315,245,28003,1,0,0:0:0:0:
317,228,28070,5,2,0:0:0:0:
422,139,28205,1,2,0:0:0:0:
418,291,28340,1,8,0:0:0:0:
418,291,28407,1,0,0:0:0:0:
418,291,28475,1,0,0:0:0:0:
246,175,28610,6,0,L|144:162,1,70
42,233,28880,1,8,0:0:0:0:
157,338,29015,1,0,0:0:0:0:
157,338,29082,1,0,0:0:0:0:
157,338,29150,5,2,0:0:0:0:
179,137,29285,1,2,0:0:0:0:
239,356,29420,1,8,0:0:0:0:
236,338,29487,1,0,0:0:0:0:
233,320,29555,1,0,0:0:0:0:
230,302,29622,1,0,0:0:0:0:
228,284,29689,5,2,0:0:0:0:
197,103,29824,1,2,0:0:0:0:
311,315,29959,5,8,0:0:0:0:
326,324,30027,1,0,0:0:0:0:
342,329,30094,1,0,0:0:0:0:
359,331,30162,1,0,0:0:0:0:
376,329,30229,5,10,0:0:0:0:
173,227,30364,1,2,0:0:0:0:
412,152,30499,1,8,0:0:0:0:
410,169,30567,1,0,0:0:0:0:
408,186,30634,5,0,0:0:0:0:
237,113,30769,1,8,0:0:0:0:
477,73,30904,5,2,0:0:0:0:
461,273,31039,1,10,0:0:0:0:
326,65,31174,1,0,0:0:0:0:
343,62,31241,1,0,0:0:0:0:
360,59,31309,5,8,0:0:0:0:
346,302,31444,1,2,0:0:0:0:
488,176,31579,1,10,0:0:0:0:
245,131,31714,1,0,0:0:0:0:
241,148,31781,1,0,0:0:0:0:
236,165,31849,6,0,L|242:204,1,35,10|0,0:0|0:0,0:0:0:0:
375,57,31984,2,0,L|416:52,1,35,2|0,0:0|0:0,0:0:0:0:
205,3,32119,6,0,L|210:49,1,35,10|0,0:0|0:0,0:0:0:0:
249,281,32254,2,0,L|274:247,1,35,2|0,0:0|0:0,0:0:0:0:
394,87,32389,5,2,0:0:0:0:
184,57,32523,1,2,0:0:0:0:
221,220,32658,1,8,0:0:0:0:
221,220,32726,1,0,0:0:0:0:
221,220,32793,1,0,0:0:0:0:
283,48,32928,5,0,0:0:0:0:
96,107,33063,1,0,0:0:0:0:
305,168,33198,1,8,0:0:0:0:
157,32,33333,1,0,0:0:0:0:
158,49,33401,1,0,0:0:0:0:
159,66,33468,5,2,0:0:0:0:
349,106,33603,1,2,0:0:0:0:
151,239,33738,1,8,0:0:0:0:
149,220,33806,1,0,0:0:0:0:
147,202,33873,1,0,0:0:0:0:
146,184,33940,1,0,0:0:0:0:
146,166,34008,5,2,0:0:0:0:
320,215,34143,1,2,0:0:0:0:
160,320,34278,1,8,0:0:0:0:
142,320,34345,1,0,0:0:0:0:
125,315,34413,1,0,0:0:0:0:
109,306,34480,1,0,0:0:0:0:
95,294,34548,5,2,0:0:0:0:
232,205,34683,1,2,0:0:0:0:
265,360,34818,1,8,0:0:0:0:
112,198,34953,1,0,0:0:0:0:
112,198,35020,1,0,0:0:0:0:
112,198,35088,5,8,0:0:0:0:
327,294,35223,1,2,0:0:0:0:
43,345,35358,1,2,0:0:0:0:
192,158,35492,1,0,0:0:0:0:
194,140,35560,1,0,0:0:0:0:
196,122,35627,5,8,0:0:0:0:
253,281,35762,1,2,0:0:0:0:
349,139,35897,1,2,0:0:0:0:
399,303,36032,1,0,0:0:0:0:
399,320,36100,1,0,0:0:0:0:
399,337,36167,6,0,L|368:313,1,35,10|0,0:0|0:0,0:0:0:0:
234,208,36302,2,0,L|281:195,1,35,2|0,0:0|0:0,0:0:0:0:
480,142,36437,6,0,L|467:178,1,35,10|0,0:0|0:0,0:0:0:0:
400,353,36572,2,0,L|361:325,1,35,2|0,0:0|0:0,0:0:0:0:
208,191,36707,5,2,0:0:0:0:
381,143,36842,1,2,0:0:0:0:
241,297,36977,1,8,0:0:0:0:
241,297,37044,1,0,0:0:0:0:
241,297,37112,1,0,0:0:0:0:
185,117,37247,5,0,0:0:0:0:
346,221,37382,1,0,0:0:0:0:
146,277,37517,1,8,0:0:0:0:
128,275,37584,1,0,0:0:0:0:
110,273,37652,1,0,0:0:0:0:
92,271,37719,1,0,0:0:0:0:
74,269,37787,5,2,0:0:0:0:
180,88,37922,1,2,0:0:0:0:
113,347,38057,1,8,0:0:0:0:
95,345,38124,1,0,0:0:0:0:
77,343,38192,1,0,0:0:0:0:
59,341,38259,1,0,0:0:0:0:
41,339,38327,5,2,0:0:0:0:
129,167,38461,1,2,0:0:0:0:
217,338,38596,1,8,0:0:0:0:
234,336,38664,1,0,0:0:0:0:
251,334,38731,1,0,0:0:0:0:
268,332,38799,1,0,0:0:0:0:
285,330,38866,5,2,0:0:0:0:
451,305,39001,1,2,0:0:0:0:
256,242,39136,1,0,0:0:0:0:
372,358,39271,1,0,0:0:0:0:
372,340,39339,1,0,0:0:0:0:
372,322,39406,5,8,0:0:0:0:
376,138,39541,1,2,0:0:0:0:
284,246,39676,1,2,0:0:0:0:
467,184,39811,1,0,0:0:0:0:
467,166,39878,1,0,0:0:0:0:
467,148,39946,5,8,0:0:0:0:
282,108,40081,1,2,0:0:0:0:
443,325,40216,1,2,0:0:0:0:
443,307,40283,1,0,0:0:0:0:
443,289,40351,1,0,0:0:0:0:
443,271,40418,1,0,0:0:0:0:
444,252,40486,6,0,L|445:212,1,35,10|0,0:0|0:0,0:0:0:0:
312,96,40621,2,0,L|310:141,1,35,2|0,0:0|0:0,0:0:0:0:
357,264,40756,6,0,L|359:222,1,35,10|0,0:0|0:0,0:0:0:0:
233,32,40891,2,0,L|230:74,1,35,2|0,0:0|0:0,0:0:0:0:
198,313,41026,5,2,0:0:0:0:
184,323,41093,1,0,0:0:0:0:
167,328,41160,1,0,0:0:0:0:
149,329,41228,1,0,0:0:0:0:
131,326,41295,1,8,0:0:0:0:
113,323,41363,1,0,0:0:0:0:
95,324,41430,1,0,0:0:0:0:
78,330,41498,1,0,0:0:0:0:
63,339,41565,5,0,0:0:0:0:
74,317,41633,1,0,0:0:0:0:
82,294,41700,1,0,0:0:0:0:
86,269,41768,1,0,0:0:0:0:
84,244,41835,1,8,0:0:0:0:
74,221,41903,1,0,0:0:0:0:
66,197,41970,1,0,0:0:0:0:
63,172,42038,1,0,0:0:0:0:
66,147,42105,5,6,0:0:0:0:
287,195,42240,1,8,0:0:0:0:
287,195,42308,1,8,0:0:0:0:
287,195,42375,5,8,0:0:0:0:
10,264,42510,1,2,0:0:0:0:
144,32,42645,5,0,0:0:0:0:
204,296,42780,1,0,0:0:0:0:
113,75,42915,1,8,0:0:0:0:
149,56,42982,1,8,0:0:0:0:
192,54,43050,2,8,L|241:62,1,35
401,133,43185,5,6,0:0:0:0:
418,170,43252,1,0,0:0:0:0:
425,211,43320,1,0,0:0:0:0:
410,250,43387,1,0,0:0:0:0:
384,284,43455,1,8,0:0:0:0:
344,296,43522,1,0,0:0:0:0:
302,289,43590,1,0,0:0:0:0:
261,278,43657,1,0,0:0:0:0:
219,286,43725,5,0,0:0:0:0:
190,316,43792,1,0,0:0:0:0:
153,337,43860,1,0,0:0:0:0:
111,340,43927,1,0,0:0:0:0:
72,325,43994,1,8,0:0:0:0:
44,292,44062,1,0,0:0:0:0:
35,251,44129,1,0,0:0:0:0:
44,209,44197,1,0,0:0:0:0:
71,177,44264,5,0,0:0:0:0:
112,167,44332,1,0,0:0:0:0:
151,179,44399,1,0,0:0:0:0:
180,208,44467,1,0,0:0:0:0:
216,227,44534,1,8,0:0:0:0:
258,228,44602,1,0,0:0:0:0:
297,215,44669,1,0,0:0:0:0:
328,186,44737,1,0,0:0:0:0:
335,145,44804,5,0,0:0:0:0:
325,103,44872,1,0,0:0:0:0:
299,69,44939,1,0,0:0:0:0:
258,56,45007,1,0,0:0:0:0:
217,65,45074,1,8,0:0:0:0:
187,95,45142,1,0,0:0:0:0:
181,136,45209,2,8,L|187:191,1,41.9999987182618
211,350,45344,5,6,0:0:0:0:
235,316,45411,1,0,0:0:0:0:
242,274,45479,1,0,0:0:0:0:
227,235,45546,1,0,0:0:0:0:
194,208,45614,1,8,0:0:0:0:
152,201,45681,1,0,0:0:0:0:
112,216,45749,1,0,0:0:0:0:
86,249,45816,1,0,0:0:0:0:
78,290,45884,5,0,0:0:0:0:
110,263,45951,1,0,0:0:0:0:
115,221,46019,1,0,0:0:0:0:
101,181,46086,1,0,0:0:0:0:
72,150,46154,1,8,0:0:0:0:
55,111,46221,1,0,0:0:0:0:
62,69,46289,1,0,0:0:0:0:
90,38,46356,1,0,0:0:0:0:
131,32,46424,5,14,0:0:0:0:
155,39,46491,1,8,0:0:0:0:
179,46,46559,2,0,L|224:57,1,41.9999987182618,8|0,0:0|0:0,0:0:0:0:
3,165,46694,1,8,0:0:0:0:
134,52,46828,5,14,0:0:0:0:
158,59,46895,1,8,0:0:0:0:
182,66,46963,2,0,L|225:78,1,41.9999987182618,8|0,0:0|0:0,0:0:0:0:
6,185,47098,1,8,0:0:0:0:
140,70,47233,5,14,0:0:0:0:
164,77,47300,1,8,0:0:0:0:
186,83,47368,2,8,L|229:97,1,41.9999987182618
389,220,47503,5,6,0:0:0:0:
430,210,47571,1,0,0:0:0:0:
458,179,47638,1,0,0:0:0:0:
471,138,47706,1,0,0:0:0:0:
461,97,47773,1,8,0:0:0:0:
433,65,47841,1,0,0:0:0:0:
393,51,47908,1,0,0:0:0:0:
351,58,47976,1,0,0:0:0:0:
321,87,48043,5,0,0:0:0:0:
285,110,48111,1,0,0:0:0:0:
243,115,48178,1,0,0:0:0:0:
203,102,48245,1,0,0:0:0:0:
169,76,48313,1,8,0:0:0:0:
129,62,48380,1,0,0:0:0:0:
86,65,48448,1,0,0:0:0:0:
51,88,48515,1,0,0:0:0:0:
37,128,48583,5,0,0:0:0:0:
40,169,48650,1,0,0:0:0:0:
61,205,48718,1,0,0:0:0:0:
98,223,48785,1,0,0:0:0:0:
140,228,48853,1,8,0:0:0:0:
180,218,48920,1,0,0:0:0:0:
220,228,48988,1,0,0:0:0:0:
250,256,49055,1,0,0:0:0:0:
265,295,49123,5,0,0:0:0:0:
270,253,49190,1,0,0:0:0:0:
270,210,49258,1,0,0:0:0:0:
264,168,49325,1,0,0:0:0:0:
251,127,49393,1,8,0:0:0:0:
249,85,49460,1,0,0:0:0:0:
260,44,49528,2,8,L|310:62,1,41.9999987182618
478,141,49662,5,6,0:0:0:0:
436,146,49730,1,0,0:0:0:0:
408,177,49797,1,0,0:0:0:0:
401,218,49865,1,0,0:0:0:0:
413,257,49932,1,8,0:0:0:0:
432,294,50000,1,0,0:0:0:0:
427,335,50067,1,0,0:0:0:0:
394,362,50135,1,0,0:0:0:0:
352,361,50202,5,0,0:0:0:0:
322,331,50270,1,0,0:0:0:0:
325,289,50337,1,0,0:0:0:0:
312,248,50405,1,0,0:0:0:0:
280,220,50472,1,8,0:0:0:0:
237,219,50540,1,0,0:0:0:0:
203,244,50607,1,0,0:0:0:0:
162,257,50675,1,0,0:0:0:0:
121,246,50742,5,14,0:0:0:0:
116,220,50810,1,8,0:0:0:0:
111,195,50877,2,0,L|103:150,1,41.9999987182618,8|0,0:0|0:0,0:0:0:0:
321,128,51012,1,8,0:0:0:0:
83,194,51147,5,14,0:0:0:0:
78,168,51215,1,8,0:0:0:0:
73,143,51282,2,0,L|65:99,1,41.9999987182618,8|0,0:0|0:0,0:0:0:0:
275,78,51417,1,8,0:0:0:0:
41,145,51552,5,14,0:0:0:0:
36,119,51620,1,8,0:0:0:0:
31,94,51687,2,8,L|21:50,1,41.9999987182618
213,17,51822,5,6,0:0:0:0:
233,53,51889,1,0,0:0:0:0:
248,92,51957,1,0,0:0:0:0:
250,133,52024,1,0,0:0:0:0:
239,173,52092,1,8,0:0:0:0:
224,212,52159,1,0,0:0:0:0:
221,254,52227,1,0,0:0:0:0:
229,294,52294,1,0,0:0:0:0:
250,330,52362,5,0,0:0:0:0:
265,291,52429,1,0,0:0:0:0:
265,248,52497,1,0,0:0:0:0:
246,210,52564,1,0,0:0:0:0:
214,182,52631,1,8,0:0:0:0:
173,171,52699,1,0,0:0:0:0:
132,178,52766,1,0,0:0:0:0:
99,204,52834,1,0,0:0:0:0:
81,241,52901,5,0,0:0:0:0:
121,253,52969,1,0,0:0:0:0:
162,254,53036,1,0,0:0:0:0:
202,243,53104,1,0,0:0:0:0:
238,222,53171,1,8,0:0:0:0:
278,208,53239,1,0,0:0:0:0:
319,206,53306,1,0,0:0:0:0:
360,212,53374,1,0,0:0:0:0:
399,225,53441,5,0,0:0:0:0:
426,256,53509,1,0,0:0:0:0:
438,295,53576,1,0,0:0:0:0:
427,336,53644,1,0,0:0:0:0:
391,357,53711,1,8,0:0:0:0:
348,352,53779,1,0,0:0:0:0:
320,320,53846,2,8,L|321:269,1,41.9999987182618
374,98,53981,5,6,0:0:0:0:
361,58,54048,1,0,0:0:0:0:
324,36,54116,1,0,0:0:0:0:
282,39,54183,1,0,0:0:0:0:
252,69,54251,1,8,0:0:0:0:
245,110,54318,1,0,0:0:0:0:
260,149,54386,1,0,0:0:0:0:
259,190,54453,1,0,0:0:0:0:
232,223,54521,5,0,0:0:0:0:
192,236,54588,1,0,0:0:0:0:
150,227,54656,1,0,0:0:0:0:
123,194,54723,1,0,0:0:0:0:
113,152,54791,1,8,0:0:0:0:
88,118,54858,1,0,0:0:0:0:
45,113,54926,1,0,0:0:0:0:
12,139,54993,1,0,0:0:0:0:
9,181,55061,5,14,0:0:0:0:
13,205,55128,1,8,0:0:0:0:
17,229,55196,2,0,L|26:272,1,41.9999987182618,8|0,0:0|0:0,0:0:0:0:
177,84,55331,1,8,0:0:0:0:
23,197,55465,5,14,0:0:0:0:
27,221,55532,1,8,0:0:0:0:
31,245,55600,2,0,L|41:290,1,41.9999987182618,8|0,0:0|0:0,0:0:0:0:
167,57,55735,1,8,0:0:0:0:
41,217,55870,5,14,0:0:0:0:
45,241,55937,1,8,0:0:0:0:
49,265,56005,2,8,L|58:317,1,41.9999987182618
241,112,56140,5,6,0:0:0:0:
261,74,56208,1,0,0:0:0:0:
299,57,56275,1,0,0:0:0:0:
338,70,56343,1,0,0:0:0:0:
365,101,56410,1,8,0:0:0:0:
404,115,56478,1,0,0:0:0:0:
441,96,56545,1,0,0:0:0:0:
461,59,56613,1,0,0:0:0:0:
454,17,56680,5,0,0:0:0:0:
437,55,56748,1,0,0:0:0:0:
430,96,56815,1,0,0:0:0:0:
434,137,56882,1,0,0:0:0:0:
443,178,56950,1,8,0:0:0:0:
452,218,57017,1,0,0:0:0:0:
456,260,57085,1,0,0:0:0:0:
453,301,57152,1,0,0:0:0:0:
439,341,57220,5,0,0:0:0:0:
412,308,57287,1,0,0:0:0:0:
372,291,57355,1,0,0:0:0:0:
330,293,57422,1,0,0:0:0:0:
291,310,57490,1,8,0:0:0:0:
250,318,57557,1,0,0:0:0:0:
208,307,57625,1,0,0:0:0:0:
177,279,57692,1,0,0:0:0:0:
169,237,57760,5,0,0:0:0:0:
184,198,57827,1,0,0:0:0:0:
215,169,57895,1,0,0:0:0:0:
251,147,57962,1,0,0:0:0:0:
270,109,58030,1,8,0:0:0:0:
266,67,58097,1,0,0:0:0:0:
237,35,58165,2,8,L|183:26,1,41.9999987182618
15,44,58299,5,6,0:0:0:0:
20,85,58367,1,0,0:0:0:0:
25,126,58434,1,0,0:0:0:0:
31,167,58502,1,0,0:0:0:0:
36,208,58569,1,8,0:0:0:0:
42,249,58637,1,0,0:0:0:0:
48,290,58704,1,0,0:0:0:0:
54,331,58772,1,0,0:0:0:0:
61,372,58839,5,0,0:0:0:0:
84,336,58907,1,0,0:0:0:0:
121,317,58974,1,0,0:0:0:0:
163,317,59042,1,0,0:0:0:0:
201,332,59109,1,8,0:0:0:0:
241,342,59177,1,0,0:0:0:0:
282,337,59244,1,0,0:0:0:0:
318,315,59312,1,0,0:0:0:0:
343,282,59379,5,14,0:0:0:0:
368,283,59447,1,8,0:0:0:0:
394,286,59514,2,0,L|436:289,1,41.9999987182618,8|0,0:0|0:0,0:0:0:0:
234,186,59649,1,8,0:0:0:0:
351,313,59784,5,14,0:0:0:0:
376,314,59852,1,8,0:0:0:0:
400,318,59919,2,0,L|446:322,1,41.9999987182618,8|0,0:0|0:0,0:0:0:0:
238,215,60054,1,8,0:0:0:0:
358,348,60189,5,14,0:0:0:0:
383,349,60257,1,8,0:0:0:0:
410,353,60324,2,8,L|458:356,1,41.9999987182618
481,187,60459,6,0,L|400:202,1,41.9999987182618,14|0,0:0|0:0,0:0:0:0:
230,137,60594,2,0,L|288:142,1,41.9999987182618,8|0,0:0|0:0,0:0:0:0:
484,114,60729,6,0,L|403:129,1,41.9999987182618,8|0,0:0|0:0,0:0:0:0:
233,64,60864,2,0,L|291:69,1,41.9999987182618,8|0,0:0|0:0,0:0:0:0:
430,11,60999,6,0,L|422:60,1,41.9999987182618,14|0,0:0|0:0,0:0:0:0:
337,273,61133,2,0,L|324:214,1,41.9999987182618,8|0,0:0|0:0,0:0:0:0:
356,20,61268,6,0,L|348:69,1,41.9999987182618,8|0,0:0|0:0,0:0:0:0:
262,255,61402,2,0,L|249:196,1,41.9999987182618,8|0,0:0|0:0,0:0:0:0:
211,28,61538,6,0,L|156:17,1,41.9999987182618,14|0,0:0|0:0,0:0:0:0:
322,157,61673,2,0,L|369:145,1,41.9999987182618,8|0,0:0|0:0,0:0:0:0:
164,96,61808,6,0,L|109:85,1,41.9999987182618,8|0,0:0|0:0,0:0:0:0:
296,240,61943,2,0,L|343:228,1,41.9999987182618,8|0,0:0|0:0,0:0:0:0:
117,166,62078,6,0,L|66:192,1,41.9999987182618,14|0,0:0|0:0,0:0:0:0:
239,343,62213,2,0,L|272:376,1,41.9999987182618,8|0,0:0|0:0,0:0:0:0:
318,131,62348,2,0,L|325:86,1,41.9999987182618,8|0,0:0|0:0,0:0:0:0:
147,255,62483,1,8,0:0:0:0:
136,265,62550,1,8,0:0:0:0:
126,276,62618,6,0,L|124:321,1,41.9999987182618,14|0,0:0|0:0,0:0:0:0:
386,276,62753,2,0,L|387:321,1,41.9999987182618,8|0,0:0|0:0,0:0:0:0:
92,172,62888,6,0,L|90:217,1,41.9999987182618,8|0,0:0|0:0,0:0:0:0:
417,168,63023,2,0,L|418:213,1,41.9999987182618,8|0,0:0|0:0,0:0:0:0:
143,102,63158,6,0,L|79:93,1,41.9999987182618,14|0,0:0|0:0,0:0:0:0:
369,102,63293,2,0,L|433:93,1,41.9999987182618,8|0,0:0|0:0,0:0:0:0:
101,27,63428,6,0,L|37:18,1,41.9999987182618,8|0,0:0|0:0,0:0:0:0:
407,27,63563,2,0,L|471:18,1,41.9999987182618,8|0,0:0|0:0,0:0:0:0:
186,167,63698,5,14,0:0:0:0:
190,208,63765,1,8,0:0:0:0:
194,250,63833,1,8,0:0:0:0:
198,291,63900,1,8,0:0:0:0:
203,332,63967,2,8,L|207:381,1,41.9999987182618,8|0,0:0|0:0,0:0:0:0:
306,107,64102,5,14,0:0:0:0:
282,71,64170,1,8,0:0:0:0:
244,53,64237,1,8,0:0:0:0:
201,53,64305,1,8,0:0:0:0:
163,70,64372,2,8,L|106:109,1,41.9999987182618,8|0,0:0|0:0,0:0:0:0:
310,299,64507,5,14,0:0:0:0:
335,296,64575,1,8,0:0:0:0:
359,293,64642,1,8,0:0:0:0:
384,290,64710,1,8,0:0:0:0:
408,287,64777,6,0,L|455:296,1,41.9999987182618,14|0,0:0|0:0,0:0:0:0:
245,209,64912,2,0,L|190:215,1,41.9999987182618,8|0,0:0|0:0,0:0:0:0:
417,212,65047,6,0,L|464:221,1,41.9999987182618,8|0,0:0|0:0,0:0:0:0:
254,134,65182,2,0,L|199:140,1,41.9999987182618,8|0,0:0|0:0,0:0:0:0:
436,137,65317,6,0,L|481:147,1,41.9999987182618,14|0,0:0|0:0,0:0:0:0:
246,221,65452,2,0,L|198:228,1,41.9999987182618,8|0,0:0|0:0,0:0:0:0:
415,232,65587,6,0,L|461:243,1,41.9999987182618,8|0,0:0|0:0,0:0:0:0:
251,111,65722,2,0,L|204:120,1,41.9999987182618,8|0,0:0|0:0,0:0:0:0:
397,68,65857,6,0,L|404:19,1,41.9999987182618,14|0,0:0|0:0,0:0:0:0:
293,284,65992,2,0,L|288:332,1,41.9999987182618,8|0,0:0|0:0,0:0:0:0:
317,68,66127,6,0,L|313:22,1,41.9999987182618,8|0,0:0|0:0,0:0:0:0:
365,289,66262,2,0,L|362:337,1,41.9999987182618,8|0,0:0|0:0,0:0:0:0:
242,89,66397,6,0,L|220:42,1,41.9999987182618,14|0,0:0|0:0,0:0:0:0:
360,271,66532,2,0,L|377:321,1,41.9999987182618,8|0,0:0|0:0,0:0:0:0:
188,147,66667,6,0,L|145:125,1,41.9999987182618,8|0,0:0|0:0,0:0:0:0:
356,253,66801,2,0,L|405:272,1,41.9999987182618,8|0,0:0|0:0,0:0:0:0:
154,218,66936,6,0,L|130:222,14,20.9999993591309,4|0|0|0|0|0|0|0|0|0|0|0|0|0|0,0:0|0:0|0:0|0:0|0:0|0:0|0:0|0:0|0:0|0:0|0:0|0:0|0:0|0:0|0:0,0:0:0:0:
66,240,67476,2,0,L|39:235,14,20.9999993591309,4|0|0|0|0|0|0|0|0|0|0|0|0|0|0,0:0|0:0|0:0|0:0|0:0|0:0|0:0|0:0|0:0|0:0|0:0|0:0|0:0|0:0|0:0,0:0:0:0:
128,290,68016,6,0,L|143:286,20,10.4999996795654,4|0|0|0|0|0|0|0|0|0|0|0|0|0|0|0|0|0|0|0|0,0:0|0:0|0:0|0:0|0:0|0:0|0:0|0:0|0:0|0:0|0:0|0:0|0:0|0:0|0:0|0:0|0:0|0:0|0:0|0:0|0:0,0:0:0:0:
78,338,68421,6,0,L|61:341,20,10.4999996795654,4|0|0|0|0|0|0|0|0|0|0|0|0|0|0|0|0|0|0|0|0,0:0|0:0|0:0|0:0|0:0|0:0|0:0|0:0|0:0|0:0|0:0|0:0|0:0|0:0|0:0|0:0|0:0|0:0|0:0|0:0|0:0,0:0:0:0:
145,361,68826,6,0,L|160:357,16,10.4999996795654,4|0|0|0|0|0|0|0|0|0|0|0|0|0|0|0|0,0:0|0:0|0:0|0:0|0:0|0:0|0:0|0:0|0:0|0:0|0:0|0:0|0:0|0:0|0:0|0:0|0:0,0:0:0:0:
