osu file format v14

[General]
AudioFilename: audio.mp3
AudioLeadIn: 0
PreviewTime: 69371
Countdown: 0
SampleSet: Soft
StackLeniency: 0.5
Mode: 0
LetterboxInBreaks: 0
WidescreenStoryboard: 0

[Editor]
Bookmarks: 11644,34917,40735,46553,58189,81462,104735,110553
DistanceSpacing: 1.3
BeatDivisor: 4
GridSize: 32
TimelineZoom: 1.4

[Metadata]
Title:im not mad but i know u are
TitleUnicode:im not mad but i know u are
Artist:svnth
ArtistUnicode:svnth
Creator:dakiwii
Version:need u 2 stay
Source:
Tags:english electronic dariacore daria core hyperflip hyper flip hyperpop electro pop kid laroi justin bieber stay payday tech deck sxth2
BeatmapID:4445139
BeatmapSetID:2116689

[Difficulty]
HPDrainRate:6
CircleSize:4
OverallDifficulty:8.5
ApproachRate:9
SliderMultiplier:1.8
SliderTickRate:1

[Events]
//Background and Video events
0,0,"fsh.png",0,0
//Break Periods
2,46753,51771
2,116571,120044
//Storyboard Layer 0 (Background)
//Storyboard Layer 1 (Fail)
//Storyboard Layer 2 (Pass)
//Storyboard Layer 3 (Foreground)
//Storyboard Layer 4 (Overlay)
//Storyboard Sound Samples

[TimingPoints]
8,363.636363636364,4,2,0,60,1,0
8,-125,4,2,0,60,0,0
14553,-111.111111111111,4,2,0,60,0,0
23280,-133.333333333333,4,2,0,50,0,0
35280,-111.111111111111,4,2,0,75,0,0
46553,-133.333333333333,4,2,0,55,0,0
58189,-111.111111111111,4,2,0,55,0,0
69508,-111.111111111111,4,2,0,5,0,0
69553,-111.111111111111,4,2,0,55,0,0
69826,-66.6666666666667,4,2,0,67,0,0
69871,-66.6666666666667,4,2,0,5,0,0
69917,-66.6666666666667,4,2,0,67,0,0
70235,-66.6666666666667,4,2,0,5,0,0
70280,-66.6666666666667,4,2,0,67,0,0
70598,-66.6666666666667,4,2,0,5,0,0
70644,-66.6666666666667,4,2,0,67,0,0
70962,-66.6666666666667,4,2,0,5,0,0
71008,-66.6666666666667,4,2,0,67,0,0
71326,-66.6666666666667,4,2,0,5,0,0
71371,-66.6666666666667,4,2,0,67,0,0
71689,-66.6666666666667,4,2,0,5,0,0
71735,-66.6666666666667,4,2,0,67,0,0
72053,-66.6666666666667,4,2,0,5,0,0
72098,-66.6666666666667,4,2,0,67,0,0
72417,-66.6666666666667,4,2,0,5,0,0
72462,-66.6666666666667,4,2,0,67,0,0
72780,-66.6666666666667,4,2,0,5,0,0
72826,-66.6666666666667,4,2,0,67,0,0
73144,-66.6666666666667,4,2,0,5,0,0
73189,-66.6666666666667,4,2,0,67,0,0
73508,-66.6666666666667,4,2,0,5,0,0
73553,-66.6666666666667,4,2,0,67,0,0
73871,-66.6666666666667,4,2,0,5,0,0
73917,-66.6666666666667,4,2,0,67,0,0
74235,-66.6666666666667,4,2,0,5,0,0
74280,-66.6666666666667,4,2,0,67,0,0
74598,-66.6666666666667,4,2,0,5,0,0
74644,-66.6666666666667,4,2,0,67,0,0
75326,-66.6666666666667,4,2,0,5,0,0
75371,-66.6666666666667,4,2,0,67,0,0
80008,-111.111111111111,4,2,0,67,0,0
81826,-66.6666666666667,4,2,0,85,0,0
82144,-66.6666666666667,4,2,0,5,0,0
82189,-66.6666666666667,4,2,0,85,0,0
82417,-66.6666666666667,4,2,0,5,0,0
82462,-66.6666666666667,4,2,0,85,0,0
83235,-66.6666666666667,4,2,0,5,0,0
83280,-66.6666666666667,4,2,0,85,0,0
83417,-66.6666666666667,4,2,0,5,0,0
83462,-66.6666666666667,4,2,0,85,0,0
83598,-66.6666666666667,4,2,0,5,0,0
83644,-66.6666666666667,4,2,0,85,0,0
84689,-66.6666666666667,4,2,0,5,0,0
84735,-66.6666666666667,4,2,0,85,0,0
85053,-66.6666666666667,4,2,0,5,0,0
85098,-66.6666666666667,4,2,0,85,0,0
85598,-66.6666666666667,4,2,0,5,0,0
85644,-66.6666666666667,4,2,0,85,0,0
85962,-66.6666666666667,4,2,0,5,0,0
86008,-66.6666666666667,4,2,0,85,0,0
86144,-66.6666666666667,4,2,0,5,0,0
86189,-66.6666666666667,4,2,0,85,0,0
87598,-66.6666666666667,4,2,0,5,0,0
87644,-66.6666666666667,4,2,0,85,0,0
88508,-66.6666666666667,4,2,0,5,0,0
88553,-66.6666666666667,4,2,0,85,0,0
88689,-66.6666666666667,4,2,0,5,0,0
88735,-66.6666666666667,4,2,0,85,0,0
89053,-66.6666666666667,4,2,0,5,0,0
89098,-66.6666666666667,4,2,0,85,0,0
89235,-66.6666666666667,4,2,0,5,0,0
89280,-66.6666666666667,4,2,0,85,0,0
90508,-66.6666666666667,4,2,0,5,0,0
90553,-66.6666666666667,4,2,0,85,0,0
91053,-66.6666666666667,4,2,0,5,0,0
91098,-66.6666666666667,4,2,0,85,0,0
91417,-66.6666666666667,4,2,0,5,0,0
91462,-66.6666666666667,4,2,0,85,0,0
91598,-66.6666666666667,4,2,0,5,0,0
91644,-66.6666666666667,4,2,0,85,0,0
93098,-71.4285714285714,4,2,0,75,0,0
101826,-71.4285714285714,4,2,0,69,0,0
103280,-100,4,2,0,65,0,0
104735,-133.333333333333,4,2,0,59,0,0
107644,-200,4,2,0,44,0,0
110553,-200,4,2,0,45,0,0
110644,-200,4,2,0,35,0,0
112008,-200,4,2,0,25,0,0
113462,-200,4,2,0,15,0,0
114917,-200,4,2,0,5,0,0
116371,-200,4,2,0,5,0,0
120644,-200,4,2,0,85,0,0
120826,-200,4,2,0,5,0,0
121462,-200,4,2,0,85,0,0
121644,-200,4,2,0,5,0,0

[Colours]
Combo1 : 192,192,192
Combo2 : 255,255,255

[HitObjects]
512,187,8,6,0,L|499:262,1,72,2|0,1:0|0:0,0:0:0:0:
305,120,371,2,0,L|411:181,1,108,10|0,0:0|3:0,0:0:0:0:
416,218,735,1,2,0:0:0:0:
416,218,826,1,0,3:0:0:0:
416,218,917,1,0,3:0:0:0:
477,106,1098,1,8,0:0:0:0:
236,2,1462,1,4,3:0:0:0:
236,2,1553,1,2,0:0:0:0:
236,2,1644,1,2,0:0:0:0:
166,63,1826,2,0,L|202:155,1,72,8|2,0:0|0:0,0:0:0:0:
68,310,2189,1,2,0:0:0:0:
68,310,2280,1,2,0:0:0:0:
68,310,2371,1,0,3:0:0:0:
0,254,2553,1,10,0:0:0:0:
167,89,2917,5,4,3:0:0:0:
101,141,3098,1,2,0:0:0:0:
188,223,3280,2,0,L|147:296,1,72,10|0,0:0|0:0,0:0:0:0:
164,316,3553,1,0,3:0:0:0:
149,328,3644,1,2,0:0:0:0:
126,324,3735,1,0,3:0:0:0:
107,348,3826,1,0,3:0:0:0:
241,384,4008,2,0,L|331:360,1,72,10|0,0:0|3:0,0:0:0:0:
86,186,4371,2,0,L|213:232,1,108,4|0,3:0|0:0,0:0:0:0:
199,213,4735,2,0,L|152:133,1,72,10|0,0:0|0:0,0:0:0:0:
307,31,5098,2,0,L|406:62,1,72,2|0,0:0|0:0,0:0:0:0:
418,27,5371,1,0,3:0:0:0:
465,6,5462,1,10,0:0:0:0:
227,48,5826,5,4,3:0:0:0:
257,118,6008,1,2,0:0:0:0:
395,115,6189,2,0,L|477:141,1,72,10|2,0:0|0:0,0:0:0:0:
476,135,6462,1,0,3:0:0:0:
487,126,6553,1,2,0:0:0:0:
500,123,6644,1,0,3:0:0:0:
483,112,6735,1,0,3:0:0:0:
412,272,6917,2,0,L|439:352,1,72,10|0,0:0|3:0,0:0:0:0:
502,231,7280,1,4,3:0:0:0:
402,185,7462,1,2,0:0:0:0:
322,273,7644,1,10,0:0:0:0:
254,241,7826,1,2,0:0:0:0:
231,233,7917,1,0,0:0:0:0:
185,245,8008,1,2,0:0:0:0:
218,242,8098,1,0,3:0:0:0:
207,250,8189,1,0,3:0:0:0:
158,316,8371,1,10,0:0:0:0:
107,221,8553,1,2,0:0:0:0:
312,22,8735,6,0,L|277:130,1,108,4|0,3:0|0:0,0:0:0:0:
263,144,9098,2,0,L|221:63,1,72,10|0,0:0|0:0,0:0:0:0:
359,204,9462,1,2,0:0:0:0:
359,204,9553,1,0,3:0:0:0:
359,204,9644,1,0,3:0:0:0:
259,261,9826,2,0,L|188:232,1,72,10|0,0:0|3:0,0:0:0:0:
11,149,10189,1,4,3:0:0:0:
93,193,10371,1,2,0:0:0:0:
153,144,10553,2,0,L|143:65,1,72,10|2,0:0|0:0,0:0:0:0:
143,72,10826,1,0,3:0:0:0:
160,77,10917,1,2,0:0:0:0:
164,72,11008,1,0,3:0:0:0:
168,82,11098,1,0,3:0:0:0:
225,209,11280,1,10,0:0:0:0:
225,209,11462,1,0,3:0:0:0:
320,87,11644,6,0,P|331:123|340:184,1,72,4|2,3:0|3:0,0:0:0:0:
449,288,12008,2,0,P|461:248|480:202,1,72,10|2,0:1|3:0,0:0:0:0:
363,320,12371,1,4,3:0:0:0:
469,367,12553,1,0,3:0:0:0:
445,384,12644,2,0,P|411:368|363:350,1,72,4|2,3:0|0:0,0:0:0:0:
378,355,12917,1,4,3:0:0:0:
446,251,13098,2,0,P|481:235|523:220,1,72,4|2,3:0|0:0,0:0:0:0:
344,75,13462,2,0,P|334:105|331:148,1,72,10|2,0:1|0:0,0:0:0:0:
330,145,13735,1,0,3:0:0:0:
330,145,13826,1,4,3:0:0:0:
480,211,14008,1,0,3:0:0:0:
463,186,14098,2,0,P|476:148|478:109,1,72,4|2,3:0|0:0,0:0:0:0:
478,116,14371,1,4,3:0:0:0:
346,241,14553,6,0,P|306:256|263:268,1,80.9999975280763,4|0,3:0|3:0,0:0:0:0:
74,355,14917,2,0,P|116:366|157:380,1,80.9999975280763,10|2,0:1|3:0,0:0:0:0:
197,322,15189,1,0,3:0:0:0:
226,338,15280,2,0,L|199:242,1,80.9999975280763,4|2,3:0|3:0,0:0:0:0:
173,247,15553,2,0,L|204:153,1,80.9999975280763,4|2,3:0|0:0,0:0:0:0:
198,170,15826,1,4,3:0:0:0:
347,111,16008,2,0,P|304:90|258:55,1,80.9999975280763,4|2,3:0|3:0,0:0:0:0:
127,132,16371,1,10,0:1:0:0:
217,43,16553,1,2,0:0:0:0:
238,56,16644,1,0,0:0:0:0:
248,48,16735,2,0,P|299:30|340:12,1,80.9999975280763,4|2,3:0|0:0,0:0:0:0:
351,0,17008,2,0,P|379:26|413:85,1,80.9999975280763,4|2,3:0|0:0,0:0:0:0:
402,61,17280,1,6,3:0:0:0:
512,20,17462,6,0,P|500:59|491:124,1,80.9999975280763,4|2,3:0|3:0,0:0:0:0:
408,231,17826,2,0,P|395:188|375:139,1,80.9999975280763,10|2,0:1|3:0,0:0:0:0:
331,273,18189,1,4,3:0:0:0:
144,193,18371,1,2,3:1:0:0:
180,240,18462,2,0,P|216:223|268:203,1,80.9999975280763,4|2,3:0|0:0,0:0:0:0:
274,184,18735,1,4,3:0:0:0:
180,332,18916,2,0,P|143:315|97:299,1,80.9999975280763,4|2,3:0|0:0,0:0:0:0:
20,156,19280,2,0,P|31:188|34:234,1,80.9999975280763,10|2,0:1|0:0,0:0:0:0:
0,319,19553,1,0,3:0:0:0:
32,343,19644,1,4,3:0:0:0:
172,216,19826,1,2,3:1:0:0:
133,175,19916,2,0,P|119:134|117:92,1,80.9999975280763,4|2,3:0|0:0,0:0:0:0:
151,66,20189,1,4,3:0:0:0:
18,21,20371,5,6,3:0:0:0:
119,5,20553,1,10,3:1:0:0:
0,106,20735,1,6,3:0:0:0:
179,60,20917,1,10,3:1:0:0:
0,190,21098,1,0,1:0:0:0:
198,159,21280,1,2,1:0:0:0:
229,186,21371,1,6,3:0:0:0:
508,158,21644,5,6,3:0:0:0:
408,275,21826,2,0,P|382:244|369:181,1,80.9999975280763,4|2,3:0|3:0,0:0:0:0:
277,2,22189,2,0,P|314:22|372:37,1,80.9999975280763,0|2,3:0|3:0,0:0:0:0:
491,106,22553,2,0,P|450:117|386:141,1,80.9999975280763,0|2,3:0|0:0,0:0:0:0:
331,112,22826,1,2,3:0:0:0:
318,127,22917,1,2,0:0:0:0:
340,216,23098,1,2,3:0:0:0:
289,276,23280,5,4,3:0:0:0:
289,276,23644,1,4,3:0:0:0:
226,324,24008,1,4,3:0:0:0:
118,263,24280,2,0,L|191:232,1,67.5000025749208,4|0,3:0|0:0,0:0:0:0:
193,214,24553,1,4,3:0:0:0:
104,137,24735,1,4,3:0:0:0:
104,137,25098,1,4,3:0:0:0:
155,61,25462,1,4,3:0:0:0:
314,144,25734,2,0,L|226:168,1,67.5000025749208,4|0,3:0|0:0,0:0:0:0:
228,134,26007,1,4,3:0:0:0:
408,137,26189,5,4,3:0:0:0:
408,137,26552,1,4,3:0:0:0:
357,61,26916,1,4,3:0:0:0:
498,209,27189,1,4,3:0:0:0:
475,266,27280,1,2,0:0:0:0:
406,330,27461,1,4,3:0:0:0:
468,384,27644,1,4,3:0:0:0:
468,384,28008,1,4,3:0:0:0:
375,353,28371,1,4,3:0:0:0:
303,244,28644,1,4,3:0:0:0:
339,195,28735,1,2,0:0:0:0:
298,100,28917,1,4,3:0:0:0:
232,147,29098,5,4,3:0:0:0:
232,147,29462,1,4,3:0:0:0:
60,198,29825,1,4,3:0:0:0:
139,94,30098,1,4,3:0:0:0:
117,36,30189,1,2,0:0:0:0:
41,2,30371,1,4,3:0:0:0:
0,65,30553,1,4,3:0:0:0:
0,65,30917,1,4,3:0:0:0:
95,189,31280,1,4,3:0:0:0:
10,278,31553,1,4,3:0:0:0:
37,330,31644,1,2,0:0:0:0:
124,356,31826,1,4,3:0:0:0:
212,384,32008,5,4,3:0:0:0:
212,384,32372,1,4,3:0:0:0:
298,307,32735,1,4,3:0:0:0:
502,278,33008,1,4,3:0:0:0:
475,330,33099,1,2,0:0:0:0:
388,356,33281,1,4,3:0:0:0:
312,297,33462,1,4,3:0:0:0:
312,297,33826,1,0,3:0:0:0:
312,297,34189,2,0,L|338:182,1,101.250003862381,0|0,3:0|0:0,0:0:0:0:
401,270,34553,1,8,0:0:0:0:
459,221,34735,1,8,0:0:0:0:
459,221,34826,1,0,3:0:0:0:
459,221,34917,1,2,0:0:0:0:
499,153,35098,1,2,0:0:0:0:
283,0,35280,6,0,P|277:53|305:87,1,80.9999975280763,8|2,0:1|3:0,0:0:0:0:
419,184,35644,2,0,P|372:171|332:163,1,80.9999975280763,4|2,3:0|0:0,0:0:0:0:
253,193,35917,1,4,3:0:0:0:
218,132,36008,1,8,0:1:0:0:
90,228,36189,1,4,3:0:0:0:
107,32,36371,2,0,P|129:65|133:126,1,80.9999975280763,4|2,3:0|3:0,0:0:0:0:
38,165,36644,1,2,0:0:0:0:
35,105,36735,2,0,P|9:134|3:198,1,80.9999975280763,8|2,0:1|3:0,0:0:0:0:
211,373,37098,2,0,P|170:359|123:347,1,80.9999975280763,4|2,3:0|3:0,0:0:0:0:
56,282,37371,1,4,3:0:0:0:
90,221,37462,1,8,0:1:0:0:
25,94,37644,1,4,3:0:0:0:
251,4,37826,6,0,L|240:47,1,40.4999987640381,4|0,3:0|0:0,0:0:0:0:
175,94,38008,1,2,3:0:0:0:
118,23,38189,1,8,0:1:0:0:
21,169,38371,1,2,3:0:0:0:
214,247,38553,2,0,P|192:210|191:170,1,80.9999975280763,4|2,3:0|3:0,0:0:0:0:
271,110,38826,1,4,3:0:0:0:
336,141,38917,1,8,0:1:0:0:
440,75,39098,1,4,3:0:0:0:
245,34,39280,2,0,P|286:21|328:-4,1,80.9999975280763,4|2,3:0|3:0,0:0:0:0:
511,218,39644,2,0,P|474:196|437:187,1,80.9999975280763,8|2,0:1|3:0,0:0:0:0:
303,133,40008,1,4,3:0:0:0:
280,156,40098,1,2,0:0:0:0:
275,216,40189,1,2,3:0:0:0:
293,238,40280,1,4,3:0:0:0:
269,276,40371,1,8,0:1:0:0:
160,227,40553,1,4,3:0:0:0:
385,287,40735,5,4,3:0:0:0:
338,367,40917,1,2,3:0:0:0:
495,265,41098,2,0,P|480:220|473:178,1,80.9999975280763,8|2,0:1|3:0,0:0:0:0:
256,301,41462,2,0,P|248:343|229:400,1,80.9999975280763,4|2,3:0|0:0,0:0:0:0:
343,314,41735,1,4,3:0:0:0:
320,244,41826,1,8,0:1:0:0:
404,169,42007,1,4,3:0:0:0:
506,379,42189,2,0,P|484:346|480:285,1,80.9999975280763,4|2,3:0|3:0,0:0:0:0:
394,219,42462,1,2,0:0:0:0:
467,178,42553,2,0,P|493:149|499:85,1,80.9999975280763,8|2,0:1|3:0,0:0:0:0:
286,18,42916,2,0,P|324:27|376:47,1,80.9999975280763,4|2,3:0|3:0,0:0:0:0:
415,126,43189,1,4,3:0:0:0:
374,186,43280,1,8,0:1:0:0:
277,114,43462,1,4,3:0:0:0:
173,257,43644,6,0,L|184:214,1,40.4999987640381,4|0,3:0|0:0,0:0:0:0:
276,201,43826,1,2,3:0:0:0:
329,296,44007,1,8,0:1:0:0:
226,264,44189,1,2,3:0:0:0:
114,384,44371,2,0,P|92:351|101:296,1,80.9999975280763,4|2,3:0|3:0,0:0:0:0:
189,281,44644,1,4,3:0:0:0:
217,345,44735,1,8,0:1:0:0:
314,384,44916,1,4,3:0:0:0:
146,198,45098,2,0,P|105:211|63:236,1,80.9999975280763,4|2,3:0|3:0,0:0:0:0:
0,46,45462,2,0,P|37:68|74:77,1,80.9999975280763,8|2,0:1|3:0,0:0:0:0:
192,71,45826,1,4,3:0:0:0:
217,58,45916,1,2,0:0:0:0:
256,89,46007,1,2,3:0:0:0:
294,48,46098,1,4,3:0:0:0:
337,79,46189,1,8,0:1:0:0:
451,26,46371,1,4,3:0:0:0:
512,105,46553,5,0,3:1:0:0:
454,9,52371,6,0,P|474:35|485:82,1,67.5000025749208,4|2,3:0|0:0,0:0:0:0:
366,14,52735,1,8,0:0:0:0:
332,220,53008,1,0,3:0:0:0:
332,220,53098,2,0,P|334:196|349:139,1,67.5000025749208,4|0,3:0|3:0,0:0:0:0:
423,277,53462,1,8,0:0:0:0:
478,221,53644,1,0,0:0:0:0:
357,356,53826,2,0,P|324:341|287:329,1,67.5000025749208,4|2,3:0|0:0,0:0:0:0:
406,267,54189,1,10,0:0:0:0:
218,166,54462,1,0,3:0:0:0:
218,166,54553,2,0,P|197:194|197:245,1,67.5000025749208,4|0,3:0|3:0,0:0:0:0:
302,124,54917,1,8,0:0:0:0:
244,62,55098,1,0,0:0:0:0:
300,215,55280,6,0,L|332:298,1,67.5000025749208,4|0,3:0|0:0,0:0:0:0:
228,183,55644,2,0,L|211:256,1,67.5000025749208,8|0,0:0|0:0,0:0:0:0:
138,129,55917,1,0,3:0:0:0:
172,115,56008,2,0,L|138:176,1,67.5000025749208,4|0,3:0|0:0,0:0:0:0:
47,12,56371,2,0,L|77:78,1,67.5000025749208,8|0,0:0|3:0,0:0:0:0:
0,253,56735,1,8,0:0:0:0:
0,253,57098,1,8,0:0:0:0:
0,253,57462,1,8,0:0:0:0:
0,253,57826,1,8,0:0:0:0:
85,295,58008,1,0,3:0:0:0:
206,174,58189,6,0,P|221:143|211:89,1,80.9999975280763,4|0,3:0|3:0,0:0:0:0:
298,4,58462,1,2,3:0:0:0:
358,54,58553,2,0,P|391:68|436:78,1,80.9999975280763,2|2,1:2|3:0,0:0:0:0:
503,47,58917,1,4,3:0:0:0:
478,121,59098,1,2,3:0:0:0:
511,225,59280,1,2,1:2:0:0:
511,225,59462,1,0,3:0:0:0:
354,186,59644,2,0,P|319:171|281:147,1,80.9999975280763,2|0,1:2|3:0,0:0:0:0:
188,204,59917,1,2,3:0:0:0:
137,257,60008,2,0,P|137:294|156:340,1,80.9999975280763,2|2,1:2|3:0,0:0:0:0:
227,379,60371,1,4,3:0:0:0:
286,332,60553,1,2,3:0:0:0:
402,280,60735,1,2,1:2:0:0:
402,280,60917,1,0,3:0:0:0:
329,150,61098,5,2,1:2:0:0:
252,198,61280,1,0,3:0:0:0:
244,193,61371,1,2,3:0:0:0:
252,205,61462,1,2,1:2:0:0:
177,238,61644,1,2,3:0:0:0:
114,177,61826,1,4,3:0:0:0:
112,185,61917,1,0,3:0:0:0:
119,180,62008,1,2,3:0:0:0:
177,120,62189,1,2,1:2:0:0:
166,41,62371,1,4,3:0:0:0:
0,200,62553,1,2,3:0:0:0:
71,265,62735,1,2,0:0:0:0:
65,271,62826,1,2,3:0:0:0:
71,273,62917,1,2,1:2:0:0:
90,346,63098,1,2,3:0:0:0:
181,312,63280,1,4,3:0:0:0:
225,241,63462,1,2,3:0:0:0:
233,247,63553,1,0,3:0:0:0:
227,250,63644,1,2,1:2:0:0:
153,155,63826,1,4,3:0:0:0:
304,33,64008,6,0,P|306:69|281:122,1,80.9999975280763,10|2,3:0|0:0,0:0:0:0:
175,67,64280,1,2,3:0:0:0:
208,18,64371,2,0,P|246:32|280:68,1,80.9999975280763,2|2,1:3|3:0,0:0:0:0:
107,18,64735,1,4,3:0:0:0:
53,78,64917,1,2,3:0:0:0:
45,71,65008,1,4,3:0:0:0:
42,82,65098,1,2,1:3:0:0:
98,147,65280,1,4,3:0:0:0:
0,278,65462,2,0,P|2:316|33:365,1,80.9999975280763,10|2,3:0|0:0,0:0:0:0:
136,372,65735,1,2,3:0:0:0:
110,337,65826,2,0,P|70:324|27:292,1,80.9999975280763,2|2,1:3|3:0,0:0:0:0:
210,261,66189,1,4,3:0:0:0:
264,335,66371,1,2,3:0:0:0:
274,323,66462,1,4,3:0:0:0:
273,342,66553,1,2,1:3:0:0:
343,301,66735,1,4,3:0:0:0:
293,104,66917,6,0,P|274:146|269:233,1,121.499996292114,2|2,1:0|3:0,0:0:0:0:
297,229,67280,2,0,P|325:203|328:152,1,80.9999975280763,2|2,1:0|3:0,0:0:0:0:
398,0,67644,2,0,P|405:22|416:78,1,80.9999975280763,4|2,3:0|3:0,0:0:0:0:
487,19,68008,2,0,P|496:54|503:109,1,80.9999975280763,8|4,0:0|3:0,0:0:0:0:
357,316,68371,2,0,P|319:275|325:197,1,121.499996292114,2|2,1:0|3:0,0:0:0:0:
337,189,68735,2,0,P|381:199|401:243,1,80.9999975280763,2|2,1:0|3:0,0:0:0:0:
231,384,69098,2,0,P|240:349|251:292,1,80.9999975280763,4|2,3:0|3:0,0:0:0:0:
256,2,69462,5,8,0:1:0:0:
75,99,69644,1,0,3:0:0:0:
75,99,69735,1,8,0:0:0:0:
75,99,69826,6,0,L|108:82,1,33.7500012874604,8|0,0:1|0:0,0:0:0:0:
169,46,70189,2,0,L|218:65,1,33.7500012874604,8|0,0:1|0:0,0:0:0:0:
251,120,70553,2,0,L|293:97,1,33.7500012874604,8|0,0:1|0:0,0:0:0:0:
86,273,70826,5,8,0:0:0:0:
86,273,70917,2,0,L|96:310,1,33.7500012874604,8|0,0:1|0:0,0:0:0:0:
153,205,71098,1,8,0:0:0:0:
254,381,71280,6,0,L|269:346,1,33.7500012874604,8|0,0:1|0:0,0:0:0:0:
324,300,71643,2,0,L|307:267,1,33.7500012874604,8|0,0:1|0:0,0:0:0:0:
334,199,72007,2,0,L|295:168,1,33.7500012874604,8|0,0:1|0:0,0:0:0:0:
209,55,72280,5,8,0:0:0:0:
209,55,72371,2,0,L|199:92,1,33.7500012874604,8|0,0:1|0:0,0:0:0:0:
512,10,72552,5,4,3:0:0:0:
460,72,72735,6,0,L|469:104,1,33.7500012874604,8|0,0:1|0:0,0:0:0:0:
357,78,73098,2,0,L|406:97,1,33.7500012874604,8|0,0:1|0:0,0:0:0:0:
303,168,73462,2,0,L|345:145,1,33.7500012874604,8|0,0:1|0:0,0:0:0:0:
502,302,73735,5,8,0:0:0:0:
502,302,73826,2,0,L|487:338,1,33.7500012874604,8|0,0:1|0:0,0:0:0:0:
426,249,74007,1,8,0:0:0:0:
333,384,74189,6,0,L|298:364,1,33.7500012874604,8|0,0:1|0:0,0:0:0:0:
217,372,74552,2,0,L|238:333,1,33.7500012874604,8|0,0:1|0:0,0:0:0:0:
189,219,74916,2,0,L|305:288,1,135.000005149842,8|0,0:1|0:0,0:0:0:0:
360,215,75189,5,8,0:0:0:0:
360,215,75280,2,0,L|345:179,1,33.7500012874604,8|0,0:1|0:0,0:0:0:0:
305,288,75461,1,8,0:0:0:0:
425,107,75644,5,8,0:1:0:0:
343,45,76008,1,8,0:1:0:0:
250,79,76371,1,8,0:1:0:0:
75,2,76644,1,8,0:0:0:0:
30,50,76735,1,8,0:1:0:0:
87,146,76917,1,8,0:0:0:0:
0,321,77098,1,8,0:1:0:0:
97,297,77462,1,8,0:1:0:0:
202,273,77826,1,8,0:1:0:0:
442,377,78098,1,8,0:0:0:0:
479,325,78189,1,8,0:1:0:0:
396,233,78371,1,8,0:0:0:0:
343,258,78462,1,8,0:0:0:0:
283,217,78553,1,8,0:1:0:0:
232,139,78916,1,8,0:1:0:0:
281,62,79280,1,8,0:1:0:0:
76,0,79553,1,8,0:0:0:0:
28,37,79644,1,8,0:1:0:0:
146,141,79826,1,8,0:0:0:0:
175,192,79917,1,8,0:0:0:0:
136,259,80008,1,8,0:1:0:0:
54,310,80189,6,0,P|107:325|178:363,1,121.499996292114,2|0,0:1|0:0,0:0:0:0:
201,340,80553,2,0,L|225:298,1,40.4999987640381,8|0,0:1|0:0,0:0:0:0:
134,222,80735,2,0,L|103:171,1,40.4999987640381,8|0,0:1|0:0,0:0:0:0:
286,204,80917,1,8,0:0:0:0:
333,238,81008,1,8,0:0:0:0:
316,317,81098,1,8,0:1:0:0:
409,296,81280,2,0,L|420:248,1,40.4999987640381,8|8,0:0|0:0,0:0:0:0:
322,331,81462,1,8,0:1:0:0:
322,331,81644,1,2,3:0:0:0:
301,42,81826,6,0,B|336:160|336:160|298:130|298:130|288:41,1,236.250009012223,10|0,0:1|0:0,0:0:0:0:
367,116,82189,2,0,P|246:77|199:68,1,168.750006437302,10|0,0:1|0:0,0:0:0:0:
151,29,82462,1,4,3:0:0:0:
186,98,82553,1,8,0:1:0:0:
16,64,82735,2,0,P|3:31|18:-23,1,67.5000025749208,4|0,3:0|0:0,0:0:0:0:
91,125,82917,2,0,B|130:236|130:236|86:295|86:295|57:241,1,236.250009012223,10|0,0:1|0:0,0:0:0:0:
60,244,83280,2,0,L|182:284,1,101.250003862381,10|0,0:1|0:0,0:0:0:0:
218,227,83462,2,0,P|251:263|255:329,1,101.250003862381,2|0,3:0|0:0,0:0:0:0:
224,352,83644,1,8,0:1:0:0:
352,203,83826,1,2,3:0:0:0:
333,211,83917,1,4,3:0:0:0:
346,223,84008,1,8,0:1:0:0:
422,169,84189,1,4,3:0:0:0:
382,377,84371,6,0,B|329:309|329:309|379:270|379:270|390:385,1,236.250009012223,10|0,0:1|0:0,0:0:0:0:
375,382,84734,2,0,L|314:149,1,236.250009012223,10|0,0:1|0:0,0:0:0:0:
260,127,85098,1,8,0:1:0:0:
446,1,85280,1,2,3:0:0:0:
453,43,85371,1,4,3:0:0:0:
383,62,85462,2,0,P|378:115|413:170,1,101.250003862381,10|0,0:1|0:0,0:0:0:0:
420,172,85644,2,0,P|448:148|456:110,1,67.5000025749208,10|0,0:1|0:0,0:0:0:0:
295,31,85826,2,0,L|196:57,1,101.250003862381,10|0,0:1|0:0,0:0:0:0:
134,50,86007,2,0,P|186:65|232:102,1,101.250003862381,2|0,3:0|0:0,0:0:0:0:
271,79,86189,1,10,0:1:0:0:
117,155,86371,1,2,3:0:0:0:
64,126,86462,1,4,3:0:0:0:
21,144,86553,1,10,0:1:0:0:
119,68,86735,2,0,L|106:1,1,67.5000025749208,2|4,3:0|3:0,0:0:0:0:
119,68,86917,1,10,0:1:0:0:
35,40,87098,1,8,3:1:0:0:
267,4,87280,6,0,B|315:39|315:39|259:99|259:99|234:52|234:52|265:3,1,236.250009012223,10|0,0:1|0:0,0:0:0:0:
222,25,87644,1,8,0:1:0:0:
269,123,87826,1,2,3:0:0:0:
394,0,88008,2,0,P|378:41|350:143,1,135.000005149842,10|2,0:1|3:0,0:0:0:0:
310,77,88280,1,4,3:0:0:0:
386,110,88371,2,0,P|417:147|425:207,1,101.250003862381,10|0,0:1|0:0,0:0:0:0:
383,165,88553,2,0,P|350:201|346:267,1,101.250003862381,4|0,3:0|0:0,0:0:0:0:
429,269,88735,2,0,B|313:312|313:312|360:324|360:324|417:273,1,236.250009012223,10|0,0:1|0:0,0:0:0:0:
409,281,89098,2,0,P|411:323|351:369,1,101.250003862381,10|0,0:1|0:0,0:0:0:0:
320,384,89280,1,2,3:0:0:0:
271,324,89371,1,2,3:0:0:0:
312,288,89462,1,10,0:1:0:0:
228,135,89644,1,6,3:0:0:0:
169,170,89735,1,4,3:0:0:0:
180,204,89826,1,10,0:1:0:0:
76,123,90008,1,4,3:0:0:0:
168,375,90188,6,0,P|239:297|208:158,1,236.250009012223,10|0,0:1|0:0,0:0:0:0:
234,127,90552,1,10,0:1:0:0:
26,0,90734,1,2,3:0:0:0:
75,23,90825,1,4,3:0:0:0:
0,89,90916,2,0,P|-5:141|24:199,1,101.250003862381,10|0,0:1|0:0,0:0:0:0:
107,157,91098,1,2,3:0:0:0:
136,210,91189,1,4,3:0:0:0:
192,183,91280,2,0,P|217:149|214:82,1,101.250003862381,10|0,0:1|0:0,0:0:0:0:
179,59,91461,2,0,L|213:164,1,101.250003862381,2|0,3:0|0:0,0:0:0:0:
255,185,91643,5,10,0:1:0:0:
135,317,91825,1,2,3:0:0:0:
294,384,92007,1,10,0:1:0:0:
452,281,92189,2,0,L|465:214,1,67.5000025749208,2|4,3:0|3:0,0:0:0:0:
359,327,92371,1,10,0:1:0:0:
497,144,92552,1,2,3:0:0:0:
430,101,92644,1,4,3:0:0:0:
512,119,92735,1,10,0:1:0:0:
376,183,92917,1,8,0:1:0:0:
254,0,93098,5,8,0:1:0:0:
254,0,93462,1,8,0:1:0:0:
254,0,93825,1,8,0:1:0:0:
179,164,94008,5,4,3:0:0:0:
120,120,94098,1,8,0:0:0:0:
149,61,94189,2,0,P|169:85|181:139,1,62.9999980773926,8|0,0:1|0:0,0:0:0:0:
25,83,94371,1,8,0:1:0:0:
11,54,94462,1,2,3:0:0:0:
89,0,94553,5,8,0:1:0:0:
55,76,94735,1,2,3:0:0:0:
122,147,94917,1,8,0:1:0:0:
86,220,95099,1,2,3:0:0:0:
165,302,95281,1,8,0:1:0:0:
13,382,95462,5,2,3:0:0:0:
86,358,95553,1,8,0:0:0:0:
125,297,95644,2,0,P|116:258|98:230,1,62.9999980773926,8|0,0:1|0:1,0:1:0:0:
18,290,95826,1,8,0:0:0:0:
255,194,96008,5,8,0:1:0:0:
255,194,96372,1,8,0:1:0:0:
255,194,96735,1,8,0:1:0:0:
377,320,96918,5,4,3:0:0:0:
415,265,97008,1,8,0:0:0:0:
366,185,97099,2,0,P|346:209|334:263,1,62.9999980773926,8|0,0:1|0:0,0:0:0:0:
466,359,97281,1,8,0:1:0:0:
454,328,97372,1,2,3:0:0:0:
368,359,97463,5,8,0:1:0:0:
292,326,97645,1,2,3:0:0:0:
216,257,97827,1,8,0:1:0:0:
138,290,98009,1,2,3:0:0:0:
43,212,98189,1,8,0:1:0:0:
150,96,98372,5,2,3:0:0:0:
211,138,98463,1,8,0:0:0:0:
285,83,98554,2,0,P|294:44|312:16,1,62.9999980773926,8|0,0:1|0:1,0:1:0:0:
217,25,98736,1,8,0:0:0:0:
489,1,98917,5,8,0:1:0:0:
489,1,99281,1,8,0:1:0:0:
489,1,99644,1,8,0:1:0:0:
392,173,99827,5,4,3:0:0:0:
356,125,99917,1,8,0:0:0:0:
431,62,100008,2,0,P|461:67|505:101,1,62.9999980773926,8|0,0:1|0:0,0:0:0:0:
373,211,100190,1,8,0:1:0:0:
389,245,100281,1,2,3:0:0:0:
458,284,100372,5,8,0:1:0:0:
494,210,100554,1,2,3:0:0:0:
441,109,100736,1,8,0:1:0:0:
364,135,100918,1,2,3:0:0:0:
310,248,101098,1,8,0:1:0:0:
187,356,101281,5,2,3:0:0:0:
118,321,101372,1,8,0:0:0:0:
197,306,101463,2,0,P|188:267|170:239,1,62.9999980773926,8|0,0:1|0:1,0:1:0:0:
218,118,101645,1,8,0:0:0:0:
82,199,101826,5,8,0:1:0:0:
82,199,102189,1,8,0:1:0:0:
82,199,102553,1,8,0:1:0:0:
21,100,102735,1,4,3:0:0:0:
1,107,102826,1,2,3:0:0:0:
19,116,102917,1,8,0:1:0:0:
86,57,103098,1,8,0:0:0:0:
0,193,103280,6,0,P|41:202|90:224,1,90,8|2,0:1|3:0,0:0:0:0:
271,86,103644,2,0,P|229:108|174:121,1,90,8|2,0:1|3:0,0:0:0:0:
231,187,104008,2,0,P|271:199|322:221,1,90,8|0,0:1|3:0,0:0:0:0:
380,185,104280,1,8,0:1:0:0:
388,165,104371,2,0,P|386:137|375:117,1,45,0|0,3:0|0:0,0:0:0:0:
309,80,104553,1,8,0:1:0:0:
500,7,104735,6,0,L|513:74,1,67.5000025749208,8|0,0:0|0:0,0:0:0:0:
432,60,105098,2,0,L|442:130,1,67.5000025749208,8|0,0:0|0:0,0:0:0:0:
357,111,105462,2,0,L|356:181,1,67.5000025749208,8|4,0:0|3:0,0:0:0:0:
282,219,105735,1,0,3:0:0:0:
282,219,105826,2,0,L|278:186,1,33.7500012874604,8|0,0:0|0:0,0:0:0:0:
217,138,106008,1,8,0:0:0:0:
163,243,106189,6,0,L|225:274,1,67.5000025749208,8|0,0:0|0:0,0:0:0:0:
105,186,106552,2,0,L|171:150,1,67.5000025749208,8|0,0:0|0:0,0:0:0:0:
27,167,106916,2,0,L|51:103,1,67.5000025749208,8|4,0:0|3:0,0:0:0:0:
122,54,107189,1,0,3:0:0:0:
122,54,107280,2,0,L|90:31,1,33.7500012874604,8|0,0:0|0:0,0:0:0:0:
1,45,107462,1,8,0:0:0:0:
198,1,107644,6,0,L|242:23,1,45,8|0,0:0|0:0,0:0:0:0:
206,28,108007,2,0,L|249:44,1,45,8|0,0:0|0:0,0:0:0:0:
216,53,108371,2,0,L|258:72,1,45,8|0,0:0|3:0,0:0:0:0:
314,127,108644,1,0,3:0:0:0:
314,127,108735,2,0,L|332:84,1,45,8|0,0:0|0:0,0:0:0:0:
497,10,109098,6,0,L|511:59,1,45,8|0,0:0|0:0,0:0:0:0:
491,27,109461,2,0,L|485:73,1,45,8|0,0:0|0:0,0:0:0:0:
469,47,109826,2,0,L|454:98,1,45,8|0,0:0|3:0,0:0:0:0:
399,144,110098,1,0,3:0:0:0:
399,144,110189,2,0,L|413:188,1,45,8|0,0:0|0:0,0:0:0:0:
496,272,110553,5,0,3:0:0:0:
256,192,110644,12,0,116371,0:0:0:0:
512,384,120644,6,0,L|468:365,1,45,2|0,0:1|0:0,0:0:0:0:
393,329,121462,2,0,L|341:341,1,45,2|0,0:1|0:0,0:0:0:0:
