osu file format v14

[General]
AudioFilename: audio.mp3
AudioLeadIn: 0
PreviewTime: 69371
Countdown: 0
SampleSet: Soft
StackLeniency: 0.5
Mode: 0
LetterboxInBreaks: 0
WidescreenStoryboard: 1

[Editor]
Bookmarks: 11644,34917,40735,46553,58189,81462,104735,110553
DistanceSpacing: 1
BeatDivisor: 4
GridSize: 32
TimelineZoom: 0.7999999

[Metadata]
Title:im not mad but i know u are
TitleUnicode:im not mad but i know u are
Artist:svnth
ArtistUnicode:svnth
Creator:dakiwii
Version:Normal
Source:
Tags:english electronic dariacore daria core hyperflip hyper flip hyperpop electro pop kid laroi justin bieber stay payday tech deck sxth2
BeatmapID:4454301
BeatmapSetID:2116689

[Difficulty]
HPDrainRate:3
CircleSize:3.5
OverallDifficulty:4
ApproachRate:5.5
SliderMultiplier:1
SliderTickRate:1

[Events]
//Background and Video events
0,0,"fsh.png",0,0
//Break Periods
2,23280,27973
2,46553,51246
2,116571,119610
//Storyboard Layer 0 (Background)
//Storyboard Layer 1 (Fail)
//Storyboard Layer 2 (Pass)
//Storyboard Layer 3 (Foreground)
//Storyboard Layer 4 (Overlay)
//Storyboard Sound Samples

[TimingPoints]
8,363.636363636364,4,2,0,60,1,0
8,-100,4,2,0,60,0,0
11644,-100,4,2,0,60,0,0
14553,-100,4,2,0,60,0,0
23280,-105.263157894737,4,2,0,50,0,0
24371,-105.263157894737,4,2,0,60,0,0
24735,-105.263157894737,4,2,0,50,0,0
35280,-100,4,2,0,75,0,0
46553,-111.111111111111,4,2,0,55,0,0
58189,-100,4,2,0,55,0,0
69826,-100,4,2,0,67,0,0
80008,-100,4,2,0,67,0,0
81826,-90.9090909090909,4,2,0,85,0,0
93098,-95.2380952380952,4,2,0,75,0,0
101826,-111.111111111111,4,2,0,69,0,0
103280,-117.647058823529,4,2,0,65,0,0
104735,-111.111111111111,4,2,0,59,0,0
107644,-111.111111111111,4,2,0,44,0,0
110553,-200,4,2,0,45,0,0
110644,-200,4,2,0,35,0,0
112008,-200,4,2,0,25,0,0
113462,-200,4,2,0,15,0,0
114917,-200,4,2,0,5,0,0
116371,-200,4,2,0,5,0,0
120644,-100,4,2,0,85,0,0
120826,-100,4,2,0,5,0,0
121462,-100,4,2,0,85,0,0
121644,-100,4,2,0,5,0,0

[Colours]
Combo1 : 192,192,192
Combo2 : 255,255,255

[HitObjects]
56,17,8,6,0,P|66:44|70:71,1,50,2|0,1:0|0:0,0:0:0:0:
113,88,371,2,0,P|156:70|217:51,2,100,10|2|8,0:0|0:0|0:0,0:0:0:0:
43,159,1462,2,0,P|42:186|58:215,1,50,4|2,3:0|0:0,0:0:0:0:
89,238,1826,2,0,P|133:222|190:209,1,100,8|2,0:0|0:0,0:0:0:0:
255,139,2553,1,10,0:0:0:0:
330,204,2917,6,0,P|325:228|304:266,1,50,4|2,3:0|0:0,0:0:0:0:
277,284,3280,1,10,0:0:0:0:
240,377,3644,1,2,0:0:0:0:
340,381,4008,2,0,P|366:371|392:363,1,50,10|0,0:0|3:0,0:0:0:0:
435,378,4371,2,0,P|473:353|461:279,1,100,4|10,3:0|0:0,0:0:0:0:
447,268,4917,1,0,0:0:0:0:
447,268,5098,2,0,L|470:153,1,100,2|10,0:0|0:0,0:0:0:0:
399,95,5826,5,4,3:0:0:0:
312,144,6189,2,0,P|309:180|325:211,1,50,10|2,0:0|0:0,0:0:0:0:
342,233,6553,1,2,0:0:0:0:
284,315,6917,2,0,L|229:334,1,50,10|0,0:0|3:0,0:0:0:0:
223,379,7280,2,0,L|113:338,2,100,4|10|2,3:0|0:0|0:0,0:0:0:0:
323,381,8371,1,10,0:0:0:0:
386,304,8735,6,0,P|415:262|409:190,1,100,4|10,3:0|0:0,0:0:0:0:
342,148,9462,2,0,P|287:161|212:174,1,100,2|10,0:0|0:0,0:0:0:0:
153,212,10189,2,0,B|137:162,1,50,4|2,3:0|0:0,0:0:0:0:
146,114,10553,2,0,P|92:96|40:72,2,100,10|2|10,0:0|0:0|0:0,0:0:0:0:
225,53,11644,6,0,L|334:81,1,100,4|10,3:0|0:1,0:0:0:0:
414,116,12371,2,0,P|450:103|491:96,2,75,4|4|4,3:0|3:0|3:0,0:0:0:0:
387,157,13098,1,4,3:0:0:0:
438,243,13462,1,10,0:1:0:0:
351,293,13826,2,0,P|315:279|279:258,2,75,4|4|4,3:0|3:0|3:0,0:0:0:0:
398,276,14553,6,0,P|431:312|431:363,1,100,4|10,3:0|0:1,0:0:0:0:
333,379,15280,2,0,L|247:352,1,75,4|4,3:0|3:0,0:0:0:0:
205,305,15826,1,4,3:0:0:0:
205,305,16008,2,0,P|228:265|240:204,1,100,4|10,3:0|0:1,0:0:0:0:
169,141,16735,2,0,P|134:151|87:160,2,75,4|4|6,3:0|3:0|3:0,0:0:0:0:
204,105,17462,5,4,3:0:0:0:
296,142,17826,1,10,0:1:0:0:
383,93,18189,2,0,P|385:57|362:14,1,75,4|4,3:0|3:0,0:0:0:0:
294,13,18735,1,4,3:0:0:0:
294,13,18917,2,0,L|184:43,1,100,4|10,3:0|0:1,0:0:0:0:
101,10,19644,2,0,P|96:45|80:91,1,75,4|4,3:0|3:0,0:0:0:0:
32,137,20189,1,4,3:0:0:0:
32,137,20371,5,6,3:0:0:0:
75,226,20735,1,6,3:0:0:0:
44,321,21098,1,0,1:0:0:0:
125,379,21462,1,0,0:0:0:0:
206,321,21826,6,0,P|234:329|265:340,1,50,4|2,3:0|3:0,0:0:0:0:
289,371,22189,2,0,P|317:365|357:347,1,50,0|2,3:0|3:0,0:0:0:0:
378,328,22553,2,0,P|431:334|477:349,1,100,0|2,3:0|0:0,0:0:0:0:
202,281,29098,6,0,P|157:287|107:310,1,94.9999974632264,4|4,3:0|3:0,0:0:0:0:
20,278,29826,2,0,P|7:323|-8:363,2,71.2499980974198,4|4|4,3:0|3:0|3:0,0:0:0:0:
50,241,30553,1,4,3:0:0:0:
7,156,30916,1,4,3:0:0:0:
99,135,31280,2,0,P|146:157|247:175,1,142.49999619484,4|4,3:0|3:0,0:0:0:0:
274,148,32007,6,0,P|319:158|360:192,1,94.9999974632264,4|4,3:0|3:0,0:0:0:0:
400,272,32735,2,0,P|435:261|481:251,2,71.2499980974198,4|4|4,3:0|3:0|3:0,0:0:0:0:
373,311,33462,1,4,3:0:0:0:
290,358,33826,1,0,3:0:0:0:
240,277,34189,1,0,3:0:0:0:
318,222,34553,2,0,L|365:206,2,47.4999987316132,8|8|2,0:0|0:0|0:0,0:0:0:0:
289,138,35280,6,0,P|238:124|182:86,1,100,8|4,0:1|3:0,0:0:0:0:
113,45,36008,2,0,L|63:61,1,50,8|4,0:1|3:0,0:0:0:0:
32,97,36371,1,4,3:0:0:0:
63,191,36735,1,8,0:1:0:0:
12,277,37098,1,4,3:0:0:0:
87,342,37462,1,8,0:1:0:0:
87,342,37644,1,4,3:0:0:0:
87,342,37826,6,0,P|103:294|120:240,2,100,4|8|4,3:0|0:1|3:0,0:0:0:0:
190,322,38917,1,8,0:1:0:0:
190,322,39098,1,4,3:0:0:0:
190,322,39280,1,4,3:0:0:0:
241,235,39644,1,8,0:1:0:0:
214,142,40008,1,4,3:0:0:0:
302,87,40371,2,0,P|331:96|365:108,1,50,8|4,0:1|3:0,0:0:0:0:
384,138,40735,5,4,3:0:0:0:
480,112,41098,2,0,P|467:156|452:220,1,100,8|4,0:1|3:0,0:0:0:0:
361,245,41826,2,0,P|367:268|372:296,1,50,8|4,0:1|3:0,0:0:0:0:
410,325,42189,1,4,3:0:0:0:
327,382,42553,1,8,0:1:0:0:
233,347,42917,1,4,3:0:0:0:
166,287,43280,1,8,0:1:0:0:
166,287,43462,1,4,3:0:0:0:
166,287,43644,6,0,P|109:305|54:319,2,100,4|8|4,3:0|0:1|3:0,0:0:0:0:
226,207,44735,1,8,0:1:0:0:
226,207,44917,1,4,3:0:0:0:
226,207,45098,2,0,P|165:178|126:150,1,100,4|8,3:0|0:1,0:0:0:0:
65,90,45826,2,0,P|53:144|34:199,1,100,4|8,3:0|0:1,0:0:0:0:
1,22,52371,6,0,P|46:34|98:45,1,89.9999972534181,4|8,3:0|0:0,0:0:0:0:
151,107,53098,1,4,3:0:0:0:
226,58,53462,1,8,0:0:0:0:
274,133,53826,2,0,P|261:174|246:239,1,89.9999972534181,4|10,3:0|0:0,0:0:0:0:
173,266,54553,1,4,3:0:0:0:
198,352,54917,1,8,0:0:0:0:
256,192,55280,12,8,57462,0:0:0:0:
368,351,58189,6,0,P|411:332|424:269,1,100,4|2,3:0|1:2,0:0:0:0:
398,243,58735,1,2,3:0:0:0:
398,243,58917,2,0,P|406:203|421:138,1,100,4|2,3:0|1:2,0:0:0:0:
335,90,59644,2,0,P|281:77|234:53,1,100,2|2,1:2|1:2,0:0:0:0:
206,29,60189,1,2,3:0:0:0:
206,29,60371,2,0,P|156:58|150:102,1,100,4|2,3:0|1:2,0:0:0:0:
205,178,61098,5,2,1:2:0:0:
126,240,61462,2,0,P|99:232|65:224,1,50,2|2,1:2|3:0,0:0:0:0:
43,190,61826,1,4,3:0:0:0:
14,285,62189,1,2,1:2:0:0:
92,347,62553,2,0,P|137:330|204:312,2,100,2|2|4,3:0|1:2|3:0,0:0:0:0:
14,285,63644,1,2,1:2:0:0:
14,285,63826,1,4,3:0:0:0:
14,285,64008,6,0,P|31:232|42:183,1,100,10|2,3:0|1:3,0:0:0:0:
76,154,64553,1,2,3:0:0:0:
76,154,64735,1,4,3:0:0:0:
19,71,65098,1,2,1:3:0:0:
99,11,65462,2,0,P|152:31|207:45,1,100,10|2,3:0|1:3,0:0:0:0:
231,83,66008,1,2,3:0:0:0:
231,83,66189,1,4,3:0:0:0:
319,36,66553,1,2,1:3:0:0:
256,192,66917,12,4,69098,3:0:0:0:
431,31,69826,5,8,0:1:0:0:
414,129,70189,1,8,0:1:0:0:
397,227,70553,1,8,0:1:0:0:
242,354,71280,5,8,0:1:0:0:
259,256,71643,1,8,0:1:0:0:
276,158,72007,1,8,0:1:0:0:
80,115,72735,5,8,0:1:0:0:
173,82,73098,1,8,0:1:0:0:
266,45,73462,1,8,0:1:0:0:
389,205,74189,5,8,0:1:0:0:
294,174,74552,1,8,0:1:0:0:
201,136,74916,1,8,0:1:0:0:
59,278,75644,6,0,P|68:325|74:400,2,100,8|8|8,0:1|0:1|0:1,0:0:0:0:
151,232,76735,1,8,0:1:0:0:
151,232,76917,1,8,0:0:0:0:
151,232,77098,2,0,P|163:183|183:119,2,100,8|8|8,0:1|0:1|0:1,0:0:0:0:
70,172,78189,1,8,0:1:0:0:
70,172,78371,1,8,0:0:0:0:
70,172,78553,2,0,P|55:224|38:278,2,100,8|8|8,0:1|0:1|0:1,0:0:0:0:
150,112,79644,2,0,P|141:87|136:63,1,50,8|8,0:1|0:0,0:0:0:0:
111,20,80008,6,0,B|327:45|242:179|463:186,1,400,8|8,0:1|0:1,1:0:0:0:
507,285,81826,6,0,P|498:306|490:343,1,55.0000016784668,10|0,0:1|0:0,0:0:0:0:
450,374,82189,2,0,P|400:358|336:340,1,110.000003356934,10|8,0:1|0:1,0:0:0:0:
304,304,82735,1,4,3:0:0:0:
249,313,82917,1,10,0:1:0:0:
182,225,83280,1,10,0:1:0:0:
271,159,83644,1,8,0:1:0:0:
271,159,83826,2,0,P|273:127|269:94,1,55.0000016784668,2|8,3:0|0:1,0:0:0:0:
298,56,84189,1,4,3:0:0:0:
300,0,84371,5,10,0:1:0:0:
192,21,84735,1,10,0:1:0:0:
148,123,85098,1,8,0:1:0:0:
39,105,85462,1,10,0:1:0:0:
25,158,85644,1,10,0:1:0:0:
36,211,85826,1,10,0:1:0:0:
120,281,86189,1,10,0:1:0:0:
231,261,86553,1,10,0:1:0:0:
231,261,86735,2,0,P|263:270|287:283,1,55.0000016784668,2|10,3:0|0:1,0:0:0:0:
325,313,87098,1,8,3:1:0:0:
351,361,87280,1,10,0:1:0:0:
458,336,87644,6,0,P|470:309|475:272,1,55.0000016784668,8|2,0:1|3:0,0:0:0:0:
452,233,88008,2,0,P|391:209|342:174,1,110.000003356934,10|10,0:1|0:1,0:0:0:0:
324,138,88553,1,4,3:0:0:0:
333,83,88735,1,10,0:1:0:0:
238,26,89098,1,10,0:1:0:0:
136,68,89462,1,10,0:1:0:0:
82,56,89644,1,6,3:0:0:0:
30,76,89826,2,0,P|12:107|9:144,1,55.0000016784668,10|4,0:1|3:0,0:0:0:0:
31,175,90189,5,10,0:1:0:0:
129,225,90553,2,0,P|120:256|114:292,1,55.0000016784668,10|2,0:1|3:0,0:0:0:0:
63,296,90917,2,0,P|73:324|80:353,1,55.0000016784668,10|2,0:1|3:0,0:0:0:0:
122,382,91280,2,0,P|150:371|183:360,1,55.0000016784668,10|2,0:1|3:0,0:0:0:0:
213,324,91644,1,10,0:1:0:0:
311,373,92008,1,10,0:1:0:0:
404,316,92371,2,0,P|444:331|492:347,2,82.5000025177003,10|4|8,0:1|3:0|0:1,0:0:0:0:
371,274,93098,5,8,0:1:0:0:
401,173,93462,1,8,0:1:0:0:
429,71,93826,1,8,0:1:0:0:
326,91,94189,2,0,P|299:80|270:70,1,52.4999983978272,8|8,0:1|0:1,0:0:0:0:
244,30,94553,5,8,0:1:0:0:
184,116,94917,2,0,P|192:137|199:168,1,52.4999983978272,8|2,0:1|3:0,0:0:0:0:
240,197,95280,2,0,P|227:221|218:251,1,52.4999983978272,8|2,0:1|3:0,0:0:0:0:
238,294,95644,1,8,0:1:0:0:
149,351,96008,5,8,0:1:0:0:
101,257,96371,1,8,0:1:0:0:
57,161,96735,1,8,0:1:0:0:
160,176,97098,2,0,P|185:170|210:154,1,52.4999983978272,8|8,0:1|0:1,0:0:0:0:
238,113,97462,5,8,0:1:0:0:
326,56,97826,2,0,P|349:69|386:82,1,52.4999983978272,8|2,0:1|3:0,0:0:0:0:
402,121,98189,2,0,P|433:104|477:85,2,78.7499975967408,8|8|8,0:1|0:0|0:0,0:0:0:0:
372,165,98917,5,8,0:1:0:0:
402,265,99281,1,8,0:1:0:0:
433,365,99645,1,8,0:1:0:0:
329,379,100008,2,0,P|302:368|273:358,1,52.4999983978272,8|8,0:1|0:1,0:0:0:0:
248,318,100372,5,8,0:1:0:0:
158,373,100736,2,0,P|128:362|99:353,1,52.4999983978272,8|2,0:1|3:0,0:0:0:0:
70,319,101099,2,0,P|83:295|92:265,1,52.4999983978272,8|2,0:1|3:0,0:0:0:0:
136,244,101463,1,8,0:1:0:0:
202,169,101826,6,0,P|244:198|298:219,2,89.9999972534181,8|8|8,0:1|0:1|0:1,0:0:0:0:
149,95,102917,1,8,0:1:0:0:
74,136,103280,2,0,P|63:170|42:232,2,85.0000016212464,8|8|8,0:1|0:1|0:1,0:0:0:0:
16,73,104371,2,0,P|6:52|5:27,1,42.5000008106232,0|8,3:0|0:1,0:0:0:0:
256,192,104735,12,8,106917,0:0:0:0:
256,192,107644,12,8,109826,0:0:0:0:
256,192,110553,12,0,116371,0:0:0:0:
495,173,120735,6,0,B|406:162|436:62|323:65,1,200,2|2,0:1|0:1,0:0:0:0:
