osu file format v14

[General]
AudioFilename: audio.mp3
AudioLeadIn: 0
PreviewTime: 69371
Countdown: 0
SampleSet: Soft
StackLeniency: 0.4
Mode: 0
LetterboxInBreaks: 0
WidescreenStoryboard: 1

[Editor]
Bookmarks: 11644,34917,40735,46553,58189,81462,104735,110553
DistanceSpacing: 1.2
BeatDivisor: 4
GridSize: 32
TimelineZoom: 1.3

[Metadata]
Title:im not mad but i know u are
TitleUnicode:im not mad but i know u are
Artist:svnth
ArtistUnicode:svnth
Creator:dakiwii
Version:Hard
Source:
Tags:english electronic dariacore daria core hyperflip hyper flip hyperpop electro pop kid laroi justin bieber stay payday tech deck sxth2
BeatmapID:4458150
BeatmapSetID:2116689

[Difficulty]
HPDrainRate:4
CircleSize:3.8
OverallDifficulty:6
ApproachRate:8
SliderMultiplier:1.4
SliderTickRate:1

[Events]
//Background and Video events
0,0,"fsh.png",0,0
//Break Periods
2,23480,28530
2,46753,51621
2,116571,119894
//Storyboard Layer 0 (Background)
//Storyboard Layer 1 (Fail)
//Storyboard Layer 2 (Pass)
//Storyboard Layer 3 (Foreground)
//Storyboard Layer 4 (Overlay)
//Storyboard Sound Samples

[TimingPoints]
8,363.636363636364,4,2,0,60,1,0
8,-105.263157894737,4,2,0,60,0,0
11644,-105.263157894737,4,2,0,60,0,0
14553,-105.263157894737,4,2,0,60,0,0
23280,-105.263157894737,4,2,0,50,0,0
29280,-105.263157894737,4,2,0,60,0,0
29462,-105.263157894737,4,2,0,50,0,0
35280,-100,4,2,0,75,0,0
46553,-111.111111111111,4,2,0,55,0,0
58189,-95.2380952380952,4,2,0,55,0,0
69826,-100,4,2,0,67,0,0
80008,-100,4,2,0,67,0,0
81826,-86.9565217391304,4,2,0,85,0,0
93098,-95.2380952380952,4,2,0,75,0,0
101826,-111.111111111111,4,2,0,69,0,0
103280,-117.647058823529,4,2,0,65,0,0
104735,-111.111111111111,4,2,0,59,0,0
107644,-111.111111111111,4,2,0,44,0,0
110553,-200,4,2,0,45,0,0
110644,-200,4,2,0,35,0,0
112008,-200,4,2,0,25,0,0
113462,-200,4,2,0,15,0,0
114917,-200,4,2,0,5,0,0
116371,-200,4,2,0,5,0,0
120644,-133.333333333333,4,2,0,85,0,0
120826,-133.333333333333,4,2,0,5,0,0
121462,-133.333333333333,4,2,0,85,0,0
121644,-133.333333333333,4,2,0,5,0,0

[Colours]
Combo1 : 192,192,192
Combo2 : 255,255,255

[HitObjects]
28,23,8,6,0,P|58:38|91:46,1,66.4999982242585,2|0,1:0|0:0,0:0:0:0:
145,103,371,2,0,P|201:85|276:66,2,132.999996448517,10|2|8,0:0|0:0|0:0,0:0:0:0:
38,222,1462,1,4,3:0:0:0:
38,222,1644,1,2,0:0:0:0:
101,270,1826,2,0,P|83:206|68:115,2,132.999996448517,8|2|10,0:0|0:0|0:0,0:0:0:0:
229,365,2917,6,0,P|267:373|307:385,1,66.4999982242585,4|2,3:0|0:0,0:0:0:0:
365,344,3280,2,0,P|371:310|381:277,1,66.4999982242585,10|0,0:0|0:0,0:0:0:0:
325,226,3644,1,2,0:0:0:0:
325,226,3735,1,0,3:0:0:0:
325,226,3826,1,0,3:0:0:0:
252,260,4008,2,0,P|219:240|199:187,1,66.4999982242585,10|0,0:0|3:0,0:0:0:0:
259,159,4371,2,0,P|323:188|393:202,2,132.999996448517,4|10|2,3:0|0:0|0:0,0:0:0:0:
142,50,5462,1,10,0:0:0:0:
298,6,5826,5,4,3:0:0:0:
298,6,6008,1,2,0:0:0:0:
240,61,6189,2,0,P|257:92|266:131,1,66.4999982242585,10|2,0:0|0:0,0:0:0:0:
332,165,6553,2,0,P|386:143|387:64,1,132.999996448517,2|10,0:0|0:0,0:0:0:0:
393,75,7098,1,0,3:0:0:0:
456,123,7280,2,0,P|456:156|470:193,1,66.4999982242585,4|2,3:0|0:0,0:0:0:0:
404,238,7644,2,0,P|428:264|441:296,1,66.4999982242585,10|2,0:0|0:0,0:0:0:0:
499,346,8008,1,2,0:0:0:0:
499,346,8371,1,10,0:0:0:0:
342,378,8735,6,0,P|276:348|215:330,2,132.999996448517,4|10|2,3:0|0:0|0:0,0:0:0:0:
439,251,9826,2,0,P|428:218|419:160,1,66.4999982242585,10|0,0:0|3:0,0:0:0:0:
354,228,10189,1,4,3:0:0:0:
354,228,10371,1,2,0:0:0:0:
290,179,10553,2,0,P|323:137|343:45,1,132.999996448517,10|2,0:0|0:0,0:0:0:0:
497,17,11280,1,10,0:0:0:0:
339,41,11644,6,0,P|302:22|256:9,1,66.4999982242585,4|2,3:0|3:0,0:0:0:0:
198,16,12008,2,0,P|167:30|136:39,1,66.4999982242585,10|2,0:1|3:0,0:0:0:0:
99,109,12371,2,0,P|125:153|138:217,2,99.7499973363877,4|4|4,3:0|3:0|3:0,0:0:0:0:
22,130,13098,2,0,P|7:162|3:214,1,66.4999982242585,4|2,3:0|0:0,0:0:0:0:
51,255,13462,1,10,0:1:0:0:
51,255,13826,5,4,3:0:0:0:
158,306,14098,5,4,3:0:0:0:
63,379,14371,5,4,3:0:0:0:
125,329,14553,6,0,P|236:347|322:383,1,199.499994672775,4|2,3:0|3:0,0:0:0:0:
375,326,15280,2,0,P|349:261|338:213,2,99.7499973363877,4|4|4,3:0|3:0|3:0,0:0:0:0:
446,362,16008,2,0,P|477:347|492:308,1,66.4999982242585,4|2,3:0|3:0,0:0:0:0:
449,251,16371,2,0,P|460:205|462:179,1,66.4999982242585,10|2,0:1|0:0,0:0:0:0:
503,117,16735,5,4,3:0:0:0:
418,31,17008,5,4,3:0:0:0:
384,145,17280,5,6,3:0:0:0:
329,86,17462,6,0,P|300:101|254:118,1,66.4999982242585,4|2,3:0|3:0,0:0:0:0:
208,166,17826,2,0,P|172:152|130:145,1,66.4999982242585,10|2,0:1|3:0,0:0:0:0:
184,77,18189,1,4,3:0:0:0:
112,53,18371,1,2,3:1:0:0:
112,53,18462,2,0,P|73:79|17:97,1,99.7499973363877,4|4,3:0|3:0,0:0:0:0:
59,167,18917,6,0,P|77:199|79:239,1,66.4999982242585,4|2,3:0|0:0,0:0:0:0:
153,259,19280,2,0,P|134:287|124:326,1,66.4999982242585,10|2,0:1|0:0,0:0:0:0:
73,377,19644,1,4,3:0:0:0:
13,332,19826,1,2,3:1:0:0:
13,332,19917,2,0,P|44:296|56:226,1,99.7499973363877,4|4,3:0|3:0,0:0:0:0:
125,204,20371,6,0,P|164:212|203:248,1,66.4999982242585,6|10,3:0|3:1,0:0:0:0:
253,269,20735,2,0,P|277:245|293:205,1,66.4999982242585,6|10,3:0|3:1,0:0:0:0:
314,140,21098,1,0,1:0:0:0:
372,85,21280,1,2,1:0:0:0:
372,85,21371,2,0,P|408:105|473:125,1,99.7499973363877,6|6,3:0|3:0,0:0:0:0:
484,200,21826,6,0,P|475:230|471:275,1,66.4999982242585,4|2,3:0|3:0,0:0:0:0:
400,301,22189,2,0,P|391:261|379:230,1,66.4999982242585,0|2,3:0|3:0,0:0:0:0:
414,163,22553,2,0,P|406:319|299:324,1,265.999992897034,0|4,3:0|3:0,0:0:0:0:
4,365,29280,5,0,0:0:0:0:
4,365,29462,2,0,P|71:346|59:269,1,132.999996448517,4|4,3:0|3:0,0:0:0:0:
76,291,30189,2,0,P|107:307|143:315,1,66.4999982242585,2|4,0:0|3:0,0:0:0:0:
196,260,30553,2,0,P|166:208|145:132,2,132.999996448517,4|4|4,3:0|3:0|3:0,0:0:0:0:
450,383,32008,6,0,P|465:301|488:236,2,132.999996448517,4|4|4,3:0|3:0|3:0,0:0:0:0:
450,383,33098,2,0,L|413:302,1,66.4999982242585,2|4,0:0|3:0,0:0:0:0:
350,291,33462,2,0,P|401:273|481:222,2,132.999996448517,4|0|0,3:0|0:0|0:0,0:0:0:0:
350,291,34553,5,8,0:0:0:0:
283,343,34735,1,8,0:0:0:0:
283,343,34826,1,0,3:0:0:0:
283,343,34917,2,0,L|259:251,1,66.4999982242585,2|2,0:0|0:0,0:0:0:0:
230,202,35280,6,0,P|273:196|319:176,1,70,8|2,0:1|3:0,0:0:0:0:
381,180,35644,2,0,P|414:125|355:52,1,140,4|8,3:0|0:1,0:0:0:0:
302,40,36189,1,4,3:0:0:0:
251,107,36371,2,0,L|169:124,1,70,4|2,3:0|3:0,0:0:0:0:
156,40,36735,2,0,P|121:59|76:77,1,70,8|2,0:1|3:0,0:0:0:0:
75,152,37098,2,0,P|145:169|197:203,1,105,4|0,3:0|0:0,0:0:0:0:
173,184,37462,1,8,0:1:0:0:
171,268,37644,1,4,3:0:0:0:
256,303,37826,6,0,P|290:293|342:281,1,70,4|2,3:0|3:0,0:0:0:0:
392,237,38189,2,0,P|400:262|423:309,1,70,8|2,0:1|3:0,0:0:0:0:
492,337,38553,2,0,P|499:301|517:261,2,70,4|2|8,3:0|3:0|0:1,0:0:0:0:
421,382,39098,1,4,3:0:0:0:
390,303,39280,2,0,P|406:266|416:213,1,70,4|2,3:0|3:0,0:0:0:0:
335,204,39644,2,0,P|315:179|296:130,1,70,8|2,0:1|3:0,0:0:0:0:
315,61,40008,2,0,P|364:91|451:109,1,140,4|8,3:0|0:1,0:0:0:0:
511,158,40553,2,0,P|494:184|481:225,1,70,4|4,3:0|3:0,0:0:0:0:
405,184,40917,5,2,3:0:0:0:
434,105,41098,2,0,P|455:66|459:11,1,70,8|2,0:1|3:0,0:0:0:0:
376,54,41462,2,0,P|324:25|236:-4,1,140,4|8,3:0|0:1,0:0:0:0:
177,45,42007,1,4,3:0:0:0:
235,105,42189,2,0,P|249:133|249:181,1,70,4|2,3:0|3:0,0:0:0:0:
317,223,42553,2,0,P|280:239|237:260,1,70,8|2,0:1|3:0,0:0:0:0:
181,295,42916,2,0,P|251:312|297:338,1,105,4|0,3:0|0:0,0:0:0:0:
280,326,43280,1,8,0:1:0:0:
332,270,43462,1,4,3:0:0:0:
313,351,43644,6,0,P|276:359|236:377,1,70,4|2,3:0|3:0,0:0:0:0:
187,311,44007,2,0,P|179:336|156:383,1,70,8|2,0:1|3:0,0:0:0:0:
99,316,44371,2,0,P|94:282|82:241,2,70,4|2|8,3:0|3:0|0:1,0:0:0:0:
27,360,44916,1,4,3:0:0:0:
78,298,45098,2,0,P|94:261|104:208,1,70,4|2,3:0|3:0,0:0:0:0:
196,223,45462,2,0,P|176:198|157:149,1,70,8|2,0:1|3:0,0:0:0:0:
82,131,45826,2,0,P|177:113|314:70,1,210,4|4,3:0|3:0,0:0:0:0:
339,27,46553,5,0,3:1:0:0:
18,0,52371,6,0,P|45:17|81:28,1,62.9999980773926,4|2,3:0|0:0,0:0:0:0:
121,86,52735,1,8,0:0:0:0:
177,190,53008,1,0,3:0:0:0:
177,190,53098,2,0,P|193:149|192:118,1,62.9999980773926,4|0,3:0|3:0,0:0:0:0:
262,97,53462,1,8,0:0:0:0:
386,11,53826,6,0,P|400:35|429:76,1,62.9999980773926,4|2,3:0|0:0,0:0:0:0:
379,127,54189,1,10,0:0:0:0:
451,220,54462,1,0,3:0:0:0:
451,220,54553,2,0,P|488:232|514:252,1,62.9999980773926,4|0,3:0|3:0,0:0:0:0:
505,321,54917,1,8,0:0:0:0:
256,192,55280,12,8,57826,0:0:0:0:
26,354,58189,6,0,P|76:339|162:326,1,110.249996635437,4|2,3:0|3:0,0:0:0:0:
160,338,58553,2,0,P|191:312|193:256,1,73.4999977569581,2|2,1:2|3:0,0:0:0:0:
146,215,58917,1,4,3:0:0:0:
146,215,59098,1,2,3:0:0:0:
210,154,59280,2,0,P|246:168|305:175,1,73.4999977569581,2|0,1:2|3:0,0:0:0:0:
365,150,59644,6,0,P|329:91|319:35,1,110.249996635437,2|2,1:2|3:0,0:0:0:0:
295,54,60008,2,0,P|257:46|208:26,1,73.4999977569581,2|2,1:2|3:0,0:0:0:0:
136,31,60371,2,0,L|114:-8,2,36.749998878479,4|0|2,3:0|0:0|3:0,0:0:0:0:
85,104,60735,1,2,1:2:0:0:
85,104,60917,1,0,3:0:0:0:
165,68,61098,6,0,P|141:105|118:180,1,110.249996635437,2|2,1:2|3:0,0:0:0:0:
99,184,61462,2,0,P|104:213|145:248,1,73.4999977569581,2|2,1:2|3:0,0:0:0:0:
215,208,61826,2,0,L|237:150,2,36.749998878479,4|0|2,3:0|3:0|3:0,0:0:0:0:
286,259,62189,2,0,P|322:236|374:218,1,73.4999977569581,2|4,1:2|3:0,0:0:0:0:
309,145,62553,6,0,P|353:172|437:189,1,110.249996635437,2|2,3:0|3:0,0:0:0:0:
429,207,62917,2,0,P|460:183|469:134,1,73.4999977569581,2|2,1:2|3:0,0:0:0:0:
413,83,63280,2,0,P|446:70|479:50,1,73.4999977569581,4|2,3:0|3:0,0:0:0:0:
478,50,63553,1,0,3:0:0:0:
478,50,63644,1,2,1:2:0:0:
307,3,64008,6,0,P|257:32|184:44,1,110.249996635437,10|2,3:0|3:0,0:0:0:0:
190,65,64371,2,0,P|201:87|218:139,1,73.4999977569581,2|2,1:3|3:0,0:0:0:0:
292,188,64735,1,4,3:0:0:0:
292,188,64917,1,2,3:0:0:0:
214,229,65098,2,0,P|188:215|128:192,1,73.4999977569581,2|4,1:3|3:0,0:0:0:0:
91,267,65462,6,0,P|88:329|135:371,1,110.249996635437,10|2,3:0|3:0,0:0:0:0:
140,357,65826,2,0,P|180:362|229:388,1,73.4999977569581,2|2,1:3|3:0,0:0:0:0:
280,320,66189,1,4,3:0:0:0:
280,320,66371,1,2,3:0:0:0:
367,331,66553,2,0,P|350:290|341:240,1,73.4999977569581,2|4,1:3|3:0,0:0:0:0:
257,212,66917,6,0,P|315:194|367:160,1,110.249996635437,2|2,1:0|3:0,0:0:0:0:
379,148,67280,2,0,P|416:162|449:186,1,73.4999977569581,2|2,1:0|3:0,0:0:0:0:
510,240,67644,2,0,P|496:273|486:328,1,73.4999977569581,4|2,3:0|3:0,0:0:0:0:
418,365,68008,2,0,P|409:327|398:289,1,73.4999977569581,8|4,0:0|3:0,0:0:0:0:
429,210,68371,6,0,P|385:183|378:102,1,110.249996635437,2|2,1:0|3:0,0:0:0:0:
357,110,68735,2,0,P|323:99|289:82,1,73.4999977569581,2|2,1:0|3:0,0:0:0:0:
242,7,69098,2,0,P|182:56|105:77,1,146.999995513916,4|8,3:0|0:1,0:0:0:0:
27,216,69826,5,8,0:1:0:0:
161,244,70189,1,8,0:1:0:0:
297,265,70553,1,8,0:1:0:0:
240,182,70826,1,8,0:0:0:0:
240,182,70917,2,0,P|250:143|258:98,1,70,8|8,0:1|0:0,0:0:0:0:
297,265,71280,5,8,0:1:0:0:
366,143,71644,1,8,0:1:0:0:
438,23,72008,1,8,0:1:0:0:
340,55,72280,1,8,0:0:0:0:
340,55,72371,1,8,0:1:0:0:
265,33,72553,1,4,3:0:0:0:
198,90,72735,5,8,0:1:0:0:
220,228,73098,1,8,0:1:0:0:
244,365,73462,1,8,0:1:0:0:
151,325,73735,1,8,0:0:0:0:
151,325,73826,2,0,P|110:345|79:373,1,70,8|8,0:1|0:0,0:0:0:0:
13,300,74189,5,8,0:1:0:0:
132,233,74553,1,8,0:1:0:0:
247,154,74917,2,0,P|276:93|260:57,1,105,8|8,0:1|0:0,0:0:0:0:
237,38,75280,1,8,0:1:0:0:
177,84,75462,1,8,0:0:0:0:
104,25,75644,5,8,0:1:0:0:
238,63,76008,1,8,0:1:0:0:
373,98,76371,1,8,0:1:0:0:
480,120,76644,1,8,0:0:0:0:
480,120,76735,2,0,P|470:82|467:46,1,70,8|8,0:1|0:0,0:0:0:0:
430,193,77098,5,8,0:1:0:0:
295,233,77462,1,8,0:1:0:0:
160,273,77826,1,8,0:1:0:0:
74,221,78098,1,8,0:0:0:0:
74,221,78189,1,8,0:1:0:0:
21,281,78371,1,8,0:0:0:0:
19,292,78462,1,8,0:0:0:0:
18,303,78553,5,8,0:1:0:0:
155,331,78917,1,8,0:1:0:0:
292,353,79280,1,8,0:1:0:0:
378,293,79553,1,8,0:0:0:0:
378,293,79644,1,8,0:1:0:0:
444,334,79826,1,8,0:0:0:0:
454,327,79917,1,8,0:0:0:0:
464,321,80008,1,8,0:1:0:0:
256,192,80098,12,8,81462,0:1:0:0:
34,377,81826,6,0,P|84:357|106:294,1,120.750002303124,10|0,0:1|0:0,0:0:0:0:
105,274,82189,2,0,P|141:295|183:312,1,80.5000015354157,10|0,0:1|0:0,0:0:0:0:
176,309,82462,1,4,3:0:0:0:
176,309,82553,1,8,0:1:0:0:
258,275,82735,1,4,3:0:0:0:
190,218,82917,6,0,P|169:183|162:120,1,80.5000015354157,10|0,0:1|0:0,0:0:0:0:
84,186,83280,1,10,0:1:0:0:
84,186,83462,1,2,3:0:0:0:
99,98,83644,2,0,P|118:53|130:-7,1,80.5000015354157,8|2,0:1|3:0,0:0:0:0:
125,22,83917,1,4,3:0:0:0:
125,22,84008,1,8,0:1:0:0:
204,68,84189,1,4,3:0:0:0:
273,13,84371,6,0,P|316:31|381:39,1,80.5000015354157,10|0,0:1|0:0,0:0:0:0:
344,126,84735,2,0,P|399:103|464:87,1,120.750002303124,10|0,0:1|0:0,0:0:0:0:
474,105,85098,2,0,P|456:142|442:197,1,80.5000015354157,8|2,0:1|3:0,0:0:0:0:
444,179,85371,1,4,3:0:0:0:
444,179,85462,1,10,0:1:0:0:
483,258,85644,1,10,0:1:0:0:
430,329,85826,1,10,0:1:0:0:
352,285,86008,1,2,3:0:0:0:
282,339,86189,6,0,P|245:322|202:305,1,80.5000015354157,10|2,0:1|3:0,0:0:0:0:
185,220,86553,2,0,P|150:234|92:248,1,80.5000015354157,10|2,0:1|3:0,0:0:0:0:
108,245,86826,1,4,3:0:0:0:
108,245,86917,1,10,0:1:0:0:
43,304,87098,1,8,3:1:0:0:
19,218,87280,6,0,P|41:170|49:121,1,80.5000015354157,10|0,0:1|0:0,0:0:0:0:
96,69,87644,2,0,P|149:109|219:138,1,120.750002303124,8|0,0:1|0:0,0:0:0:0:
215,153,88007,2,0,P|247:141|303:124,1,80.5000015354157,10|2,0:1|3:0,0:0:0:0:
291,127,88280,1,4,3:0:0:0:
291,127,88371,1,10,0:1:0:0:
234,58,88553,1,4,3:0:0:0:
306,7,88735,6,0,P|345:23|391:36,1,80.5000015354157,10|0,0:1|0:0,0:0:0:0:
446,101,89098,1,10,0:1:0:0:
446,101,89280,1,2,3:0:0:0:
387,167,89462,2,0,P|406:212|418:272,1,80.5000015354157,10|6,0:1|3:0,0:0:0:0:
413,242,89735,1,4,3:0:0:0:
413,242,89826,1,10,0:1:0:0:
488,295,90007,1,4,3:0:0:0:
444,373,90189,5,10,0:1:0:0:
444,373,90371,1,0,0:0:0:0:
367,327,90553,2,0,P|329:343|284:353,1,80.5000015354157,10|2,0:1|3:0,0:0:0:0:
223,293,90917,2,0,P|180:283|130:253,1,80.5000015354157,10|2,0:1|3:0,0:0:0:0:
147,266,91189,1,4,3:0:0:0:
147,266,91280,1,10,0:1:0:0:
94,337,91462,1,2,3:0:0:0:
21,285,91644,5,10,0:1:0:0:
21,285,91826,1,2,3:0:0:0:
75,214,92008,1,10,0:1:0:0:
75,214,92189,1,2,3:0:0:0:
22,142,92371,2,0,P|1:111|3:59,1,80.5000015354157,10|2,0:1|3:0,0:0:0:0:
0,69,92644,1,4,3:0:0:0:
0,69,92735,1,10,0:1:0:0:
78,28,92917,1,8,0:1:0:0:
145,82,93098,6,0,P|212:55|300:25,2,146.999995513916,8|8|8,0:1|0:1|0:1,0:0:0:0:
99,160,94008,1,4,3:0:0:0:
99,160,94098,1,8,0:0:0:0:
99,160,94189,2,0,P|119:199|126:232,1,73.4999977569581,8|8,0:1|0:1,0:0:0:0:
195,173,94552,5,8,0:1:0:0:
195,173,94916,1,8,0:1:0:0:
195,173,95280,1,8,0:1:0:0:
263,244,95462,1,2,3:0:0:0:
263,244,95553,1,8,0:0:0:0:
263,244,95644,2,0,P|279:278|281:329,1,73.4999977569581,8|8,0:1|0:0,0:1:0:0:
222,378,96008,6,0,P|153:350|84:326,2,146.999995513916,8|8|8,0:1|0:1|0:1,0:0:0:0:
290,321,96917,1,4,3:0:0:0:
290,321,97008,1,8,0:0:0:0:
290,321,97099,2,0,P|323:336|358:346,1,73.4999977569581,8|8,0:1|0:1,0:0:0:0:
418,281,97462,5,8,0:1:0:0:
418,281,97826,1,8,0:1:0:0:
418,281,98190,1,8,0:1:0:0:
375,216,98371,1,2,3:0:0:0:
375,216,98462,1,8,0:0:0:0:
375,216,98553,2,0,P|341:231|306:241,1,73.4999977569581,8|8,0:1|0:0,0:1:0:0:
236,295,98917,6,0,P|224:202|211:141,2,146.999995513916,8|8|8,0:1|0:1|0:1,0:0:0:0:
314,249,99826,1,4,3:0:0:0:
314,249,99917,1,8,0:0:0:0:
314,249,100008,2,0,P|335:212|335:160,1,73.4999977569581,8|8,0:1|0:1,0:0:0:0:
284,112,100371,5,8,0:1:0:0:
284,112,100735,1,8,0:1:0:0:
284,112,101098,1,8,0:1:0:0:
355,58,101280,1,2,3:0:0:0:
355,58,101371,1,8,0:0:0:0:
355,58,101462,2,0,P|385:71|437:85,1,73.4999977569581,8|8,0:1|0:0,0:1:0:0:
450,153,101826,6,0,P|471:97|500:34,2,125.999996154785,8|8|8,0:1|0:1|0:1,0:0:0:0:
392,205,102735,1,4,3:0:0:0:
392,205,102826,1,2,3:0:0:0:
392,205,102917,2,0,P|403:236|411:275,1,62.9999980773926,8|8,0:1|0:0,0:0:0:0:
447,334,103280,6,0,P|385:299|323:279,2,119.000002269745,8|8|8,0:1|0:1|0:1,0:0:0:0:
512,250,104280,1,8,0:1:0:0:
512,250,104371,2,0,P|503:209|492:181,1,59.5000011348725,0|8,3:0|0:1,0:0:0:0:
443,138,104735,5,8,0:0:0:0:
256,192,104826,12,8,107280,0:0:0:0:
256,192,107644,12,8,110189,0:0:0:0:
256,192,110553,12,0,116371,0:0:0:0:
382,119,120644,5,2,0:1:0:0:
131,251,121462,1,2,0:1:0:0:
