osu file format v14

[General]
AudioFilename: Zetsubousei Hero Chiryouyaku.mp3
AudioLeadIn: 0
PreviewTime: 56077
Countdown: 0
SampleSet: Normal
StackLeniency: 0.7
Mode: 1
LetterboxInBreaks: 0
WidescreenStoryboard: 1

[Editor]
DistanceSpacing: 1.4
BeatDivisor: 4
GridSize: 4
TimelineZoom: 3.2

[Metadata]
Title:Zetsubousei: Hero Chiryouyaku The Animation
TitleUnicode:絶望性:ヒーロー治療薬 The Animation
Artist:suzumu feat.soraru
ArtistUnicode:スズム feat.そらる
Creator:Stefan
Version:Muzukashii
Source:ダンガンロンパ The Animation
Tags:希望の学園と絶望の高校生 danganronpa kibou no gakuen to zetsubou no koukousei ending thenutritiousguy tng vulkin
BeatmapID:902307
BeatmapSetID:416567

[Difficulty]
HPDrainRate:5
CircleSize:5
OverallDifficulty:5
ApproachRate:5
SliderMultiplier:1.4
SliderTickRate:1

[Events]
//Background and Video events
0,0,"BG.jpg",0,65
//Break Periods
//Storyboard Layer 0 (Background)
//Storyboard Layer 1 (Fail)
//Storyboard Layer 2 (Pass)
//Storyboard Layer 3 (Foreground)
//Storyboard Sound Samples

[TimingPoints]
614,292.682926829268,4,1,0,40,1,0
614,-111.111111111111,4,1,0,40,0,0
9979,-100,4,1,0,80,0,0
28711,-100,4,1,0,70,0,0
56809,-100,4,1,0,80,0,1
74370,-100,4,1,0,70,0,0

[Colours]
Combo1 : 255,255,128
Combo2 : 255,128,128
Combo3 : 128,255,255
Combo4 : 128,255,128

[HitObjects]
256,192,614,5,0,0:0:0:0:
256,192,906,1,0,0:0:0:0:
256,192,1053,1,8,0:0:0:0:
256,192,1345,1,8,0:0:0:0:
256,192,1492,1,0,0:0:0:0:
256,192,1784,1,8,0:0:0:0:
256,192,2223,1,8,0:0:0:0:
256,192,2516,1,8,0:0:0:0:
256,192,2662,1,0,0:0:0:0:
256,192,2955,1,8,0:0:0:0:
256,192,3248,1,0,0:0:0:0:
256,192,3394,1,8,0:0:0:0:
256,192,3687,1,8,0:0:0:0:
256,192,3833,1,0,0:0:0:0:
256,192,4126,1,8,0:0:0:0:
256,192,4565,1,8,0:0:0:0:
256,192,4857,1,8,0:0:0:0:
256,192,5004,1,8,0:0:0:0:
256,192,5296,1,8,0:0:0:0:
256,192,5589,1,0,0:0:0:0:
256,192,5735,1,8,0:0:0:0:
256,192,6028,1,8,0:0:0:0:
256,192,6174,1,8,0:0:0:0:
256,192,6321,1,0,0:0:0:0:
256,192,6467,1,8,0:0:0:0:
256,192,6760,1,0,0:0:0:0:
256,192,6906,1,8,0:0:0:0:
256,192,7199,1,8,0:0:0:0:
256,192,7345,1,0,0:0:0:0:
256,192,7492,1,0,0:0:0:0:
256,192,7638,1,8,0:0:0:0:
256,192,8077,1,8,0:0:0:0:
256,192,8370,1,8,0:0:0:0:
256,192,8516,1,8,0:0:0:0:
256,192,8662,1,0,0:0:0:0:
256,192,8809,1,8,0:0:0:0:
112,128,9101,2,0,L|436:144,1,322.874990146637
256,192,9979,1,4,0:0:0:0:
256,192,10418,1,8,0:0:0:0:
256,192,10565,1,0,0:0:0:0:
256,192,10711,1,8,0:0:0:0:
256,192,10784,1,8,0:0:0:0:
256,192,10857,1,8,0:0:0:0:
256,192,11004,1,0,0:0:0:0:
256,192,11150,1,4,0:0:0:0:
256,192,11589,1,8,0:0:0:0:
256,192,11735,1,0,0:0:0:0:
256,192,11882,1,0,0:0:0:0:
256,192,11955,1,0,0:0:0:0:
256,192,12028,1,0,0:0:0:0:
256,192,12174,1,8,0:0:0:0:
256,192,12321,1,4,0:0:0:0:
256,192,12760,1,8,0:0:0:0:
256,192,12906,1,0,0:0:0:0:
256,192,13053,1,8,0:0:0:0:
256,192,13126,1,8,0:0:0:0:
256,192,13199,1,8,0:0:0:0:
256,192,13345,1,0,0:0:0:0:
256,192,13492,1,12,0:0:0:0:
256,192,13784,1,8,0:0:0:0:
256,192,13931,1,8,0:0:0:0:
256,192,14077,1,0,0:0:0:0:
256,192,14223,1,8,0:0:0:0:
256,192,14370,1,0,0:0:0:0:
256,192,14516,1,8,0:0:0:0:
256,192,14662,1,4,0:0:0:0:
256,192,15101,1,8,0:0:0:0:
256,192,15248,1,0,0:0:0:0:
256,192,15394,1,8,0:0:0:0:
256,192,15467,1,8,0:0:0:0:
256,192,15540,1,8,0:0:0:0:
256,192,15687,1,0,0:0:0:0:
256,192,15833,1,4,0:0:0:0:
256,192,16272,1,8,0:0:0:0:
256,192,16418,1,0,0:0:0:0:
256,192,16565,1,0,0:0:0:0:
256,192,16638,1,0,0:0:0:0:
256,192,16711,1,0,0:0:0:0:
256,192,16857,1,8,0:0:0:0:
256,192,17004,1,4,0:0:0:0:
256,192,17443,1,8,0:0:0:0:
256,192,17589,1,0,0:0:0:0:
256,192,17735,1,8,0:0:0:0:
256,192,17809,1,8,0:0:0:0:
256,192,17882,1,8,0:0:0:0:
256,192,18028,1,0,0:0:0:0:
256,192,18174,1,12,0:0:0:0:
256,192,18467,1,8,0:0:0:0:
256,192,18613,1,8,0:0:0:0:
256,192,18760,1,0,0:0:0:0:
256,192,18906,1,8,0:0:0:0:
256,192,19053,1,0,0:0:0:0:
256,192,19199,1,8,0:0:0:0:
256,192,19345,1,4,0:0:0:0:
256,192,19784,1,8,0:0:0:0:
256,192,20077,1,8,0:0:0:0:
256,192,20370,1,8,0:0:0:0:
256,192,20662,1,8,0:0:0:0:
256,192,20955,1,8,0:0:0:0:
256,192,21248,1,8,0:0:0:0:
256,192,21540,1,8,0:0:0:0:
256,192,21687,1,4,0:0:0:0:
256,192,22126,1,8,0:0:0:0:
256,192,22418,1,8,0:0:0:0:
256,192,22711,1,8,0:0:0:0:
256,192,23004,1,8,0:0:0:0:
256,192,23296,1,8,0:0:0:0:
256,192,23589,1,0,0:0:0:0:
256,192,23882,1,8,0:0:0:0:
256,192,24028,1,4,0:0:0:0:
256,192,24467,1,8,0:0:0:0:
256,192,24760,1,8,0:0:0:0:
256,192,25053,1,8,0:0:0:0:
256,192,25345,1,8,0:0:0:0:
256,192,25638,1,8,0:0:0:0:
256,192,25931,1,8,0:0:0:0:
256,192,26223,1,8,0:0:0:0:
256,192,26370,1,4,0:0:0:0:
256,192,26809,1,8,0:0:0:0:
256,192,27101,1,8,0:0:0:0:
256,192,27394,1,8,0:0:0:0:
256,192,27687,1,8,0:0:0:0:
256,192,27979,1,8,0:0:0:0:
256,192,28272,1,0,0:0:0:0:
256,192,28565,1,8,0:0:0:0:
256,192,28711,1,4,0:0:0:0:
256,192,29296,1,0,0:0:0:0:
256,192,29443,1,8,0:0:0:0:
256,192,29882,1,0,0:0:0:0:
256,192,30028,1,8,0:0:0:0:
256,192,30467,1,0,0:0:0:0:
256,192,30613,1,8,0:0:0:0:
256,192,31053,1,4,0:0:0:0:
256,192,31345,1,4,0:0:0:0:
256,192,31638,1,0,0:0:0:0:
256,192,31784,1,8,0:0:0:0:
256,192,32077,1,0,0:0:0:0:
256,192,32370,1,8,0:0:0:0:
256,192,32955,1,8,0:0:0:0:
256,192,33248,1,8,0:0:0:0:
256,192,33394,1,4,0:0:0:0:
256,192,33687,1,4,0:0:0:0:
256,192,34126,1,8,0:0:0:0:
256,192,34565,1,0,0:0:0:0:
256,192,34711,1,8,0:0:0:0:
256,192,35150,1,0,0:0:0:0:
256,192,35296,1,8,0:0:0:0:
256,192,35589,1,8,0:0:0:0:
256,192,35735,1,4,0:0:0:0:
256,192,36028,1,4,0:0:0:0:
256,192,36321,1,0,0:0:0:0:
256,192,36467,1,8,0:0:0:0:
256,192,36760,1,8,0:0:0:0:
256,192,36906,1,4,0:0:0:0:
256,192,37345,1,0,0:0:0:0:
256,192,37638,1,8,0:0:0:0:
256,192,37931,1,0,0:0:0:0:
256,192,38077,1,12,0:0:0:0:
256,192,38516,1,8,0:0:0:0:
256,192,38809,1,0,0:0:0:0:
256,192,38955,1,0,0:0:0:0:
256,192,39101,1,8,0:0:0:0:
256,192,39394,1,0,0:0:0:0:
256,192,39687,1,8,0:0:0:0:
256,192,39979,1,0,0:0:0:0:
256,192,40272,1,8,0:0:0:0:
256,192,40418,1,0,0:0:0:0:
256,192,40711,1,0,0:0:0:0:
256,192,40857,1,8,0:0:0:0:
256,192,41150,1,0,0:0:0:0:
256,192,41443,1,8,0:0:0:0:
256,192,41735,1,8,0:0:0:0:
256,192,42028,1,0,0:0:0:0:
256,192,42174,1,8,0:0:0:0:
256,192,42321,1,8,0:0:0:0:
256,192,42467,1,0,0:0:0:0:
256,192,42613,1,8,0:0:0:0:
256,192,42760,1,4,0:0:0:0:
256,192,43199,1,8,0:0:0:0:
256,192,43492,1,0,0:0:0:0:
256,192,43638,1,0,0:0:0:0:
256,192,43784,1,8,0:0:0:0:
256,192,44077,1,0,0:0:0:0:
256,192,44370,1,8,0:0:0:0:
256,192,44662,1,0,0:0:0:0:
256,192,44955,1,8,0:0:0:0:
256,192,45101,1,0,0:0:0:0:
256,192,45394,1,0,0:0:0:0:
256,192,45540,1,8,0:0:0:0:
256,192,45833,1,0,0:0:0:0:
256,192,46126,1,8,0:0:0:0:
256,192,46272,1,4,0:0:0:0:
256,192,46711,1,8,0:0:0:0:
256,192,47004,1,0,0:0:0:0:
256,192,47150,1,8,0:0:0:0:
256,192,47223,1,8,0:0:0:0:
256,192,47296,1,8,0:0:0:0:
256,192,47443,1,12,0:0:0:0:
256,192,47882,1,8,0:0:0:0:
256,192,48028,1,0,0:0:0:0:
256,192,48174,1,8,0:0:0:0:
256,192,48467,1,0,0:0:0:0:
256,192,48613,1,8,0:0:0:0:
256,192,48906,1,8,0:0:0:0:
256,192,49199,1,8,0:0:0:0:
256,192,49492,1,8,0:0:0:0:
256,192,49638,1,0,0:0:0:0:
256,192,49784,1,8,0:0:0:0:
256,192,50223,1,8,0:0:0:0:
256,192,50516,1,8,0:0:0:0:
256,192,50809,1,0,0:0:0:0:
256,192,50955,1,8,0:0:0:0:
256,192,51248,1,8,0:0:0:0:
256,192,51394,1,0,0:0:0:0:
256,192,51687,1,8,0:0:0:0:
256,192,51979,1,0,0:0:0:0:
256,192,52126,1,4,0:0:0:0:
256,192,52565,1,8,0:0:0:0:
256,192,52857,1,8,0:0:0:0:
256,192,53004,1,0,0:0:0:0:
256,192,53150,1,8,0:0:0:0:
256,192,53296,1,4,0:0:0:0:
256,192,53735,1,8,0:0:0:0:
256,192,54028,1,8,0:0:0:0:
256,192,54174,1,0,0:0:0:0:
256,192,54321,1,8,0:0:0:0:
256,192,54467,1,12,0:0:0:0:
256,192,54906,1,8,0:0:0:0:
256,192,55053,1,0,0:0:0:0:
256,192,55199,1,8,0:0:0:0:
256,192,55345,1,0,0:0:0:0:
256,192,55492,1,0,0:0:0:0:
256,192,55638,1,8,0:0:0:0:
256,192,56077,1,0,0:0:0:0:
256,192,56370,1,8,0:0:0:0:
256,192,56662,1,8,0:0:0:0:
256,192,56809,1,4,0:0:0:0:
256,192,57101,1,0,0:0:0:0:
256,192,57248,1,8,0:0:0:0:
256,192,57540,1,8,0:0:0:0:
256,192,57687,1,0,0:0:0:0:
256,192,57833,1,8,0:0:0:0:
256,192,57979,1,0,0:0:0:0:
256,192,58272,1,8,0:0:0:0:
256,192,58565,1,0,0:0:0:0:
256,192,58857,1,0,0:0:0:0:
256,192,59004,1,8,0:0:0:0:
256,192,59150,1,0,0:0:0:0:
256,192,59589,1,8,0:0:0:0:
256,192,59882,1,8,0:0:0:0:
256,192,60028,1,8,0:0:0:0:
256,192,60174,1,0,0:0:0:0:
256,192,60321,1,8,0:0:0:0:
256,192,60613,1,8,0:0:0:0:
256,192,60906,1,8,0:0:0:0:
256,192,61199,1,0,0:0:0:0:
256,192,61345,1,8,0:0:0:0:
256,192,61492,1,4,0:0:0:0:
256,192,61931,1,8,0:0:0:0:
256,192,62223,1,0,0:0:0:0:
256,192,62516,1,8,0:0:0:0:
256,192,62662,1,0,0:0:0:0:
256,192,62955,1,8,0:0:0:0:
256,192,63248,1,8,0:0:0:0:
256,192,63540,1,8,0:0:0:0:
256,192,63833,1,0,0:0:0:0:
256,192,64126,1,8,0:0:0:0:
256,192,64272,1,0,0:0:0:0:
256,192,64418,1,8,0:0:0:0:
256,192,64565,1,0,0:0:0:0:
256,192,64857,1,0,0:0:0:0:
256,192,65004,1,12,0:0:0:0:
256,192,65296,1,0,0:0:0:0:
256,192,65443,1,8,0:0:0:0:
256,192,65589,1,0,0:0:0:0:
256,192,65735,1,8,0:0:0:0:
256,192,65809,1,8,0:0:0:0:
256,192,65882,1,8,0:0:0:0:
256,192,66174,1,4,0:0:0:0:
256,192,66613,1,8,0:0:0:0:
256,192,66906,1,8,0:0:0:0:
256,192,67053,1,0,0:0:0:0:
256,192,67199,1,8,0:0:0:0:
256,192,67345,1,0,0:0:0:0:
256,192,67638,1,8,0:0:0:0:
256,192,67931,1,8,0:0:0:0:
256,192,68223,1,0,0:0:0:0:
256,192,68370,1,8,0:0:0:0:
256,192,68516,1,0,0:0:0:0:
256,192,68955,1,8,0:0:0:0:
256,192,69248,1,8,0:0:0:0:
256,192,69394,1,8,0:0:0:0:
256,192,69540,1,0,0:0:0:0:
256,192,69687,1,8,0:0:0:0:
256,192,69979,1,8,0:0:0:0:
256,192,70272,1,8,0:0:0:0:
256,192,70565,1,0,0:0:0:0:
256,192,70711,1,8,0:0:0:0:
256,192,70857,1,4,0:0:0:0:
256,192,71296,1,0,0:0:0:0:
256,192,71443,1,8,0:0:0:0:
256,192,71589,1,0,0:0:0:0:
256,192,71882,1,8,0:0:0:0:
256,192,72028,1,0,0:0:0:0:
256,192,72467,1,0,0:0:0:0:
256,192,72613,1,8,0:0:0:0:
256,192,72760,1,0,0:0:0:0:
256,192,73053,1,8,0:0:0:0:
256,192,73199,1,4,0:0:0:0:
256,192,73492,1,8,0:0:0:0:
256,192,73638,1,0,0:0:0:0:
256,192,73784,1,8,0:0:0:0:
256,192,73931,1,0,0:0:0:0:
256,192,74223,1,0,0:0:0:0:
256,192,74370,1,12,0:0:0:0:
80,112,74955,2,0,L|300:120,1,218.75
256,192,75540,1,4,0:0:0:0:
256,192,75979,1,8,0:0:0:0:
256,192,76126,1,0,0:0:0:0:
256,192,76272,1,8,0:0:0:0:
256,192,76345,1,8,0:0:0:0:
256,192,76418,1,8,0:0:0:0:
256,192,76565,1,0,0:0:0:0:
256,192,76711,1,4,0:0:0:0:
256,192,77150,1,8,0:0:0:0:
256,192,77296,1,0,0:0:0:0:
256,192,77443,1,0,0:0:0:0:
256,192,77516,1,0,0:0:0:0:
256,192,77589,1,0,0:0:0:0:
256,192,77735,1,8,0:0:0:0:
256,192,77882,1,4,0:0:0:0:
256,192,78321,1,8,0:0:0:0:
256,192,78467,1,0,0:0:0:0:
256,192,78613,1,8,0:0:0:0:
256,192,78687,1,8,0:0:0:0:
256,192,78760,1,8,0:0:0:0:
256,192,78906,1,0,0:0:0:0:
256,192,79053,1,12,0:0:0:0:
256,192,79345,1,8,0:0:0:0:
256,192,79492,1,8,0:0:0:0:
256,192,79638,1,0,0:0:0:0:
256,192,79784,1,8,0:0:0:0:
256,192,79931,1,0,0:0:0:0:
256,192,80077,1,8,0:0:0:0:
256,192,80223,1,4,0:0:0:0:
256,192,80662,1,8,0:0:0:0:
256,192,80809,1,0,0:0:0:0:
256,192,80955,1,8,0:0:0:0:
256,192,81028,1,8,0:0:0:0:
256,192,81101,1,8,0:0:0:0:
256,192,81248,1,0,0:0:0:0:
256,192,81394,1,4,0:0:0:0:
256,192,81833,1,8,0:0:0:0:
256,192,81979,1,0,0:0:0:0:
256,192,82126,1,0,0:0:0:0:
256,192,82199,1,0,0:0:0:0:
256,192,82272,1,0,0:0:0:0:
256,192,82418,1,8,0:0:0:0:
256,192,82565,1,4,0:0:0:0:
256,192,83004,1,8,0:0:0:0:
256,192,83150,1,0,0:0:0:0:
256,192,83296,1,8,0:0:0:0:
256,192,83370,1,8,0:0:0:0:
256,192,83443,1,8,0:0:0:0:
256,192,83589,1,0,0:0:0:0:
256,192,83735,1,4,0:0:0:0:
256,192,84028,1,0,0:0:0:0:
256,192,84174,1,8,0:0:0:0:
256,192,84467,1,8,0:0:0:0:
256,192,84613,1,8,0:0:0:0:
256,192,84687,1,8,0:0:0:0:
256,192,84760,1,8,0:0:0:0:
256,192,84906,1,4,0:0:0:0:
