osu file format v14

[General]
AudioFilename: Zetsubousei Hero Chiryouyaku.mp3
AudioLeadIn: 0
PreviewTime: 56077
Countdown: 0
SampleSet: Normal
StackLeniency: 0.7
Mode: 1
LetterboxInBreaks: 0
WidescreenStoryboard: 0

[Editor]
Bookmarks: 38077,66174
DistanceSpacing: 1.4
BeatDivisor: 2
GridSize: 16
TimelineZoom: 1.900001

[Metadata]
Title:Zetsubousei: Hero Chiryouyaku The Animation
TitleUnicode:絶望性:ヒーロー治療薬 The Animation
Artist:suzumu feat.soraru
ArtistUnicode:スズム feat.そらる
Creator:Stefan
Version:Vulkin's Kantan
Source:ダンガンロンパ The Animation
Tags:希望の学園と絶望の高校生 danganronpa kibou no gakuen to zetsubou no koukousei ending thenutritiousguy tng vulkin
BeatmapID:981753
BeatmapSetID:416567

[Difficulty]
HPDrainRate:7
CircleSize:5
OverallDifficulty:3
ApproachRate:5
SliderMultiplier:1.4
SliderTickRate:1

[Events]
//Background and Video events
0,0,"BG.jpg",0,65
//Break Periods
//Storyboard Layer 0 (Background)
//Storyboard Layer 1 (Fail)
//Storyboard Layer 2 (Pass)
//Storyboard Layer 3 (Foreground)
//Storyboard Sound Samples

[TimingPoints]
614,292.682926829268,4,1,0,40,1,0
9979,-100,4,1,0,80,0,0
28857,-100,4,1,0,70,0,0
56809,-100,4,1,0,80,0,1
74516,-100,4,1,0,70,0,0

[Colours]
Combo1 : 255,255,128
Combo2 : 255,128,128
Combo3 : 128,255,255
Combo4 : 128,255,128

[HitObjects]
256,192,614,5,0,0:0:0:0:
256,192,1784,1,0,0:0:0:0:
256,192,2955,1,0,0:0:0:0:
256,192,4126,1,0,0:0:0:0:
256,192,5296,1,8,0:0:0:0:
256,192,6467,1,8,0:0:0:0:
256,192,7638,1,8,0:0:0:0:
256,192,8516,1,0,0:0:0:0:
256,192,8809,1,8,0:0:0:0:
256,192,9979,1,4,0:0:0:0:
240,192,10711,1,8,0:0:0:0:
256,192,11150,1,4,0:0:0:0:
240,192,11882,1,8,0:0:0:0:
240,192,12321,1,4,0:0:0:0:
240,192,13053,1,8,0:0:0:0:
240,192,13492,1,12,0:0:0:0:
240,192,14662,1,4,0:0:0:0:
240,192,15394,1,8,0:0:0:0:
240,192,15833,1,4,0:0:0:0:
256,192,16565,1,8,0:0:0:0:
256,192,17004,1,4,0:0:0:0:
256,192,17735,1,8,0:0:0:0:
240,192,18174,1,12,0:0:0:0:
240,192,19345,1,4,0:0:0:0:
256,192,20077,1,8,0:0:0:0:
256,192,20662,1,8,0:0:0:0:
256,192,21248,1,8,0:0:0:0:
256,192,21687,1,4,0:0:0:0:
256,192,22418,1,8,0:0:0:0:
256,192,23004,1,8,0:0:0:0:
256,192,23589,1,0,0:0:0:0:
256,192,24028,1,4,0:0:0:0:
256,192,24760,1,8,0:0:0:0:
256,192,25345,1,8,0:0:0:0:
256,192,25931,1,8,0:0:0:0:
256,192,26370,1,4,0:0:0:0:
256,192,27101,1,8,0:0:0:0:
256,192,27687,1,8,0:0:0:0:
256,192,28272,1,0,0:0:0:0:
256,192,28711,1,12,0:0:0:0:
256,192,30028,1,0,0:0:0:0:
256,192,31053,1,8,0:0:0:0:
256,192,31345,1,8,0:0:0:0:
256,192,32370,1,0,0:0:0:0:
256,192,32955,1,0,0:0:0:0:
256,192,33394,1,8,0:0:0:0:
256,192,33687,1,8,0:0:0:0:
256,192,34711,1,0,0:0:0:0:
256,192,35735,1,8,0:0:0:0:
256,192,36028,1,8,0:0:0:0:
256,192,36906,1,12,0:0:0:0:
256,192,37638,1,8,0:0:0:0:
256,192,38077,1,4,0:0:0:0:
256,192,38809,1,0,0:0:0:0:
256,192,39394,1,0,0:0:0:0:
256,192,39979,1,8,0:0:0:0:
256,192,40418,1,0,0:0:0:0:
256,192,41150,1,0,0:0:0:0:
256,192,41735,1,8,0:0:0:0:
256,192,42321,1,8,0:0:0:0:
256,192,42760,1,0,0:0:0:0:
256,192,43492,1,0,0:0:0:0:
256,192,44077,1,0,0:0:0:0:
256,192,44662,1,8,0:0:0:0:
256,192,45101,1,0,0:0:0:0:
272,192,45833,1,0,0:0:0:0:
272,192,46272,1,12,0:0:0:0:
272,192,47443,1,4,0:0:0:0:
272,192,48174,1,8,0:0:0:0:
272,192,48613,1,0,0:0:0:0:
272,192,49345,1,8,0:0:0:0:
272,192,49784,1,0,0:0:0:0:
272,192,50516,1,0,0:0:0:0:
272,192,50955,1,8,0:0:0:0:
272,192,51687,1,0,0:0:0:0:
272,192,52126,1,12,0:0:0:0:
272,192,53296,1,12,0:0:0:0:
272,192,54467,1,12,0:0:0:0:
272,192,55199,1,0,0:0:0:0:
272,192,55638,1,8,0:0:0:0:
272,192,56809,1,4,0:0:0:0:
256,192,57248,1,0,0:0:0:0:
272,192,57540,1,0,0:0:0:0:
272,192,57979,1,8,0:0:0:0:
272,192,58565,1,8,0:0:0:0:
272,192,59150,1,0,0:0:0:0:
272,192,59882,1,0,0:0:0:0:
272,192,60321,1,8,0:0:0:0:
272,192,60613,1,8,0:0:0:0:
272,192,60906,1,8,0:0:0:0:
272,192,61492,1,4,0:0:0:0:
272,192,61931,1,8,0:0:0:0:
272,192,62223,1,0,0:0:0:0:
272,192,62662,1,8,0:0:0:0:
272,192,63248,1,8,0:0:0:0:
272,192,63833,1,0,0:0:0:0:
272,192,64565,1,0,0:0:0:0:
272,192,65004,1,12,0:0:0:0:
272,192,66174,1,4,0:0:0:0:
256,192,66613,1,0,0:0:0:0:
272,192,66906,1,0,0:0:0:0:
272,192,67345,1,8,0:0:0:0:
272,192,67931,1,8,0:0:0:0:
272,192,68516,1,0,0:0:0:0:
272,192,69248,1,0,0:0:0:0:
272,192,69687,1,8,0:0:0:0:
272,192,69979,1,8,0:0:0:0:
272,192,70272,1,8,0:0:0:0:
272,192,70857,1,4,0:0:0:0:
272,192,71589,1,0,0:0:0:0:
272,192,72028,1,8,0:0:0:0:
272,192,72760,1,8,0:0:0:0:
272,192,73199,1,12,0:0:0:0:
272,192,73931,1,8,0:0:0:0:
272,192,74370,1,0,0:0:0:0:
272,192,75540,1,4,0:0:0:0:
272,192,76272,1,0,0:0:0:0:
272,192,76711,1,12,0:0:0:0:
272,192,77443,1,0,0:0:0:0:
272,192,77882,1,12,0:0:0:0:
272,192,78613,1,8,0:0:0:0:
272,192,79053,1,12,0:0:0:0:
272,192,80223,1,4,0:0:0:0:
272,192,80955,1,0,0:0:0:0:
272,192,81394,1,12,0:0:0:0:
272,192,82126,1,0,0:0:0:0:
272,192,82565,1,12,0:0:0:0:
272,192,83296,1,8,0:0:0:0:
272,192,83735,1,12,0:0:0:0:
272,192,84906,1,4,0:0:0:0:
