osu file format v14

[General]
AudioFilename: Zetsubousei Hero Chiryouyaku.mp3
AudioLeadIn: 0
PreviewTime: 56077
Countdown: 0
SampleSet: Normal
StackLeniency: 0.7
Mode: 1
LetterboxInBreaks: 0
WidescreenStoryboard: 1

[Editor]
DistanceSpacing: 1.4
BeatDivisor: 4
GridSize: 16
TimelineZoom: 1.800001

[Metadata]
Title:Zetsubousei: Hero Chiryouyaku The Animation
TitleUnicode:絶望性:ヒーロー治療薬 The Animation
Artist:suzumu feat.soraru
ArtistUnicode:スズム feat.そらる
Creator:Stefan
Version:Oni
Source:ダンガンロンパ The Animation
Tags:希望の学園と絶望の高校生 danganronpa kibou no gakuen to zetsubou no koukousei ending thenutritiousguy tng vulkin
BeatmapID:902308
BeatmapSetID:416567

[Difficulty]
HPDrainRate:5
CircleSize:5
OverallDifficulty:6
ApproachRate:6
SliderMultiplier:1.4
SliderTickRate:1

[Events]
//Background and Video events
0,0,"BG.jpg",0,65
//Break Periods
//Storyboard Layer 0 (Background)
//Storyboard Layer 1 (Fail)
//Storyboard Layer 2 (Pass)
//Storyboard Layer 3 (Foreground)
//Storyboard Sound Samples

[TimingPoints]
614,292.682926829268,4,1,0,40,1,0
614,-125,4,1,0,40,0,0
4565,-121.951219512195,4,1,0,40,0,0
4857,-116.279069767442,4,1,0,40,0,0
5004,-113.636363636364,4,1,0,40,0,0
5296,-111.111111111111,4,1,0,40,0,0
9028,-111.111111111111,4,1,0,60,0,0
9321,-109.89010989011,4,1,0,70,0,0
9394,-108.695652173913,4,1,0,70,0,0
9467,-107.52688172043,4,1,0,80,0,0
9540,-106.382978723404,4,1,0,80,0,0
9613,-105.263157894737,4,1,0,80,0,0
9687,-104.166666666667,4,1,0,80,0,0
9760,-103.092783505155,4,1,0,80,0,0
9833,-102.040816326531,4,1,0,80,0,0
9906,-101.010101010101,4,1,0,80,0,0
9979,-100,4,1,0,80,0,0
55931,-100,4,1,0,70,0,0
56809,-100,4,1,0,80,0,1
74370,-100,4,1,0,70,0,0
74662,-99.009900990099,4,1,0,70,0,0
74809,-98.0392156862745,4,1,0,70,0,0
74955,-97.0873786407767,4,1,0,70,0,0
75101,-96.1538461538461,4,1,0,80,0,0
75174,-95.2380952380952,4,1,0,80,0,0
75248,-94.3396226415094,4,1,0,80,0,0
75321,-93.4579439252336,4,1,0,80,0,0
75394,-92.5925925925926,4,1,0,80,0,0
75467,-91.743119266055,4,1,0,80,0,0
75540,-90.9090909090909,4,1,0,80,0,0
84028,-90.0900900900901,4,1,0,70,0,0
84101,-89.2857142857143,4,1,0,70,0,0
84174,-88.4955752212389,4,1,0,70,0,0
84321,-87.719298245614,4,1,0,70,0,0
84467,-86.9565217391304,4,1,0,80,0,0
84540,-86.2068965517241,4,1,0,80,0,0
84613,-85.4700854700855,4,1,0,80,0,0
84687,-84.7457627118644,4,1,0,80,0,0
84760,-84.0336134453781,4,1,0,80,0,0
84906,-83.3333333333333,4,1,0,80,0,0

[Colours]
Combo1 : 255,255,128
Combo2 : 255,128,128
Combo3 : 128,255,255
Combo4 : 128,255,128

[HitObjects]
256,192,614,5,8,0:0:0:0:
256,192,906,1,0,0:0:0:0:
256,192,1053,1,8,0:0:0:0:
256,192,1345,1,8,0:0:0:0:
256,192,1492,1,8,0:0:0:0:
256,192,1638,1,0,0:0:0:0:
256,192,1784,1,8,0:0:0:0:
256,192,2077,1,0,0:0:0:0:
256,192,2223,1,8,0:0:0:0:
256,192,2516,1,8,0:0:0:0:
256,192,2662,1,8,0:0:0:0:
256,192,2809,1,0,0:0:0:0:
256,192,2955,1,8,0:0:0:0:
256,192,3248,1,0,0:0:0:0:
256,192,3394,1,8,0:0:0:0:
256,192,3687,1,8,0:0:0:0:
256,192,3833,1,8,0:0:0:0:
256,192,3979,1,0,0:0:0:0:
256,192,4126,1,8,0:0:0:0:
256,192,4418,1,0,0:0:0:0:
256,192,4565,1,8,0:0:0:0:
256,192,4857,1,8,0:0:0:0:
256,192,5004,1,8,0:0:0:0:
256,192,5296,1,8,0:0:0:0:
256,192,5589,1,0,0:0:0:0:
256,192,5735,1,8,0:0:0:0:
256,192,5882,1,0,0:0:0:0:
256,192,6028,1,8,0:0:0:0:
256,192,6174,1,8,0:0:0:0:
256,192,6248,1,0,0:0:0:0:
256,192,6321,1,0,0:0:0:0:
256,192,6467,1,8,0:0:0:0:
256,192,6760,1,0,0:0:0:0:
256,192,6906,1,8,0:0:0:0:
256,192,7053,1,0,0:0:0:0:
256,192,7199,1,8,0:0:0:0:
256,192,7272,1,8,0:0:0:0:
256,192,7345,1,8,0:0:0:0:
256,192,7492,1,0,0:0:0:0:
256,192,7638,1,8,0:0:0:0:
256,192,7931,1,0,0:0:0:0:
256,192,8077,1,8,0:0:0:0:
256,192,8223,1,0,0:0:0:0:
256,192,8370,1,8,0:0:0:0:
256,192,8516,1,8,0:0:0:0:
256,192,8589,1,0,0:0:0:0:
256,192,8662,1,0,0:0:0:0:
256,192,8809,1,8,0:0:0:0:
256,192,9101,1,0,0:0:0:0:
256,192,9174,1,0,0:0:0:0:
256,192,9248,1,8,0:0:0:0:
256,192,9321,1,8,0:0:0:0:
256,192,9394,1,0,0:0:0:0:
256,192,9540,1,8,0:0:0:0:
256,192,9613,1,8,0:0:0:0:
256,192,9687,1,8,0:0:0:0:
256,192,9760,1,8,0:0:0:0:
256,192,9833,1,8,0:0:0:0:
256,192,9906,1,8,0:0:0:0:
256,192,9979,1,4,0:0:0:0:
256,192,10272,1,0,0:0:0:0:
256,192,10418,1,8,0:0:0:0:
256,192,10565,1,0,0:0:0:0:
256,192,10711,1,8,0:0:0:0:
256,192,10784,1,8,0:0:0:0:
256,192,10857,1,0,0:0:0:0:
256,192,10931,1,0,0:0:0:0:
256,192,11004,1,8,0:0:0:0:
256,192,11150,1,4,0:0:0:0:
256,192,11443,1,0,0:0:0:0:
256,192,11589,1,8,0:0:0:0:
256,192,11735,1,0,0:0:0:0:
256,192,11882,1,0,0:0:0:0:
256,192,11955,1,8,0:0:0:0:
256,192,12028,1,0,0:0:0:0:
256,192,12101,1,8,0:0:0:0:
256,192,12174,1,0,0:0:0:0:
256,192,12321,1,4,0:0:0:0:
256,192,12613,1,0,0:0:0:0:
256,192,12760,1,8,0:0:0:0:
256,192,12906,1,0,0:0:0:0:
256,192,13053,1,8,0:0:0:0:
256,192,13126,1,8,0:0:0:0:
256,192,13199,1,0,0:0:0:0:
256,192,13272,1,0,0:0:0:0:
256,192,13345,1,8,0:0:0:0:
256,192,13492,1,12,0:0:0:0:
256,192,13784,1,8,0:0:0:0:
256,192,13857,1,8,0:0:0:0:
256,192,13931,1,8,0:0:0:0:
256,192,14077,1,0,0:0:0:0:
256,192,14223,1,8,0:0:0:0:
256,192,14370,1,0,0:0:0:0:
256,192,14516,1,8,0:0:0:0:
256,192,14662,1,4,0:0:0:0:
256,192,14955,1,0,0:0:0:0:
256,192,15101,1,8,0:0:0:0:
256,192,15248,1,0,0:0:0:0:
256,192,15394,1,8,0:0:0:0:
256,192,15467,1,8,0:0:0:0:
256,192,15540,1,0,0:0:0:0:
256,192,15613,1,0,0:0:0:0:
256,192,15687,1,8,0:0:0:0:
256,192,15833,1,4,0:0:0:0:
256,192,16126,1,0,0:0:0:0:
256,192,16272,1,8,0:0:0:0:
256,192,16418,1,0,0:0:0:0:
256,192,16565,1,0,0:0:0:0:
256,192,16638,1,8,0:0:0:0:
256,192,16711,1,0,0:0:0:0:
256,192,16784,1,8,0:0:0:0:
256,192,16857,1,0,0:0:0:0:
256,192,17004,1,4,0:0:0:0:
256,192,17296,1,0,0:0:0:0:
256,192,17443,1,8,0:0:0:0:
256,192,17589,1,0,0:0:0:0:
256,192,17735,1,8,0:0:0:0:
256,192,17809,1,8,0:0:0:0:
256,192,17882,1,0,0:0:0:0:
256,192,17955,1,0,0:0:0:0:
256,192,18028,1,8,0:0:0:0:
256,192,18174,1,12,0:0:0:0:
256,192,18467,1,8,0:0:0:0:
256,192,18540,1,8,0:0:0:0:
256,192,18613,1,8,0:0:0:0:
256,192,18760,1,0,0:0:0:0:
256,192,18906,1,8,0:0:0:0:
256,192,19053,1,0,0:0:0:0:
256,192,19199,1,8,0:0:0:0:
256,192,19345,1,4,0:0:0:0:
256,192,19638,1,0,0:0:0:0:
256,192,19784,1,8,0:0:0:0:
256,192,19931,1,0,0:0:0:0:
256,192,20077,1,8,0:0:0:0:
256,192,20223,1,0,0:0:0:0:
256,192,20370,1,8,0:0:0:0:
256,192,20516,1,0,0:0:0:0:
256,192,20662,1,8,0:0:0:0:
256,192,20809,1,0,0:0:0:0:
256,192,20955,1,8,0:0:0:0:
256,192,21101,1,0,0:0:0:0:
256,192,21248,1,8,0:0:0:0:
256,192,21321,1,8,0:0:0:0:
256,192,21394,1,0,0:0:0:0:
256,192,21540,1,8,0:0:0:0:
256,192,21687,1,4,0:0:0:0:
256,192,21979,1,0,0:0:0:0:
256,192,22126,1,8,0:0:0:0:
256,192,22272,1,0,0:0:0:0:
256,192,22418,1,8,0:0:0:0:
256,192,22565,1,0,0:0:0:0:
256,192,22711,1,8,0:0:0:0:
256,192,22857,1,0,0:0:0:0:
256,192,23004,1,8,0:0:0:0:
256,192,23150,1,0,0:0:0:0:
256,192,23296,1,8,0:0:0:0:
256,192,23443,1,0,0:0:0:0:
256,192,23589,1,0,0:0:0:0:
256,192,23662,1,0,0:0:0:0:
256,192,23735,1,0,0:0:0:0:
256,192,23882,1,8,0:0:0:0:
256,192,24028,1,4,0:0:0:0:
256,192,24321,1,0,0:0:0:0:
256,192,24467,1,8,0:0:0:0:
256,192,24613,1,0,0:0:0:0:
256,192,24760,1,8,0:0:0:0:
256,192,24906,1,0,0:0:0:0:
256,192,25053,1,8,0:0:0:0:
256,192,25199,1,0,0:0:0:0:
256,192,25345,1,8,0:0:0:0:
256,192,25492,1,0,0:0:0:0:
256,192,25638,1,8,0:0:0:0:
256,192,25784,1,0,0:0:0:0:
256,192,25931,1,8,0:0:0:0:
256,192,26004,1,8,0:0:0:0:
256,192,26077,1,0,0:0:0:0:
256,192,26223,1,8,0:0:0:0:
256,192,26370,1,4,0:0:0:0:
256,192,26662,1,0,0:0:0:0:
256,192,26809,1,8,0:0:0:0:
256,192,26955,1,0,0:0:0:0:
256,192,27101,1,8,0:0:0:0:
256,192,27248,1,0,0:0:0:0:
256,192,27394,1,8,0:0:0:0:
256,192,27540,1,0,0:0:0:0:
256,192,27687,1,8,0:0:0:0:
256,192,27833,1,0,0:0:0:0:
256,192,27979,1,8,0:0:0:0:
256,192,28126,1,0,0:0:0:0:
256,192,28272,1,0,0:0:0:0:
256,192,28345,1,0,0:0:0:0:
256,192,28418,1,0,0:0:0:0:
256,192,28565,1,8,0:0:0:0:
256,192,28711,1,4,0:0:0:0:
256,192,29296,1,0,0:0:0:0:
256,192,29443,1,8,0:0:0:0:
256,192,29735,1,8,0:0:0:0:
256,192,30028,1,8,0:0:0:0:
256,192,30321,1,8,0:0:0:0:
256,192,30613,1,8,0:0:0:0:
256,192,30906,1,8,0:0:0:0:
256,192,31053,1,4,0:0:0:0:
256,192,31199,1,8,0:0:0:0:
256,192,31345,1,4,0:0:0:0:
256,192,31492,1,8,0:0:0:0:
256,192,31784,1,8,0:0:0:0:
256,192,32077,1,8,0:0:0:0:
256,192,32370,1,8,0:0:0:0:
256,192,32662,1,8,0:0:0:0:
256,192,32955,1,8,0:0:0:0:
256,192,33248,1,8,0:0:0:0:
256,192,33394,1,4,0:0:0:0:
256,192,33540,1,8,0:0:0:0:
256,192,33687,1,4,0:0:0:0:
256,192,33833,1,8,0:0:0:0:
256,192,34126,1,8,0:0:0:0:
256,192,34418,1,8,0:0:0:0:
256,192,34711,1,8,0:0:0:0:
256,192,35004,1,8,0:0:0:0:
256,192,35296,1,8,0:0:0:0:
256,192,35589,1,8,0:0:0:0:
256,192,35735,1,4,0:0:0:0:
256,192,35882,1,8,0:0:0:0:
256,192,36028,1,4,0:0:0:0:
256,192,36174,1,8,0:0:0:0:
256,192,36467,1,8,0:0:0:0:
256,192,36760,1,8,0:0:0:0:
256,192,36906,1,4,0:0:0:0:
256,192,37199,1,8,0:0:0:0:
256,192,37272,1,8,0:0:0:0:
256,192,37345,1,8,0:0:0:0:
256,192,37492,1,8,0:0:0:0:
256,192,37638,1,0,0:0:0:0:
256,192,37711,1,0,0:0:0:0:
256,192,37784,1,0,0:0:0:0:
256,192,37857,1,0,0:0:0:0:
256,192,37931,1,0,0:0:0:0:
256,192,38077,1,12,0:0:0:0:
256,192,38516,1,8,0:0:0:0:
256,192,38662,1,0,0:0:0:0:
256,192,38735,1,0,0:0:0:0:
256,192,38809,1,8,0:0:0:0:
256,192,38955,1,0,0:0:0:0:
256,192,39101,1,8,0:0:0:0:
256,192,39248,1,0,0:0:0:0:
256,192,39321,1,0,0:0:0:0:
256,192,39394,1,8,0:0:0:0:
256,192,39540,1,0,0:0:0:0:
256,192,39687,1,8,0:0:0:0:
256,192,39833,1,0,0:0:0:0:
256,192,39979,1,8,0:0:0:0:
256,192,40053,1,0,0:0:0:0:
256,192,40199,1,0,0:0:0:0:
256,192,40272,1,8,0:0:0:0:
256,192,40418,1,0,0:0:0:0:
256,192,40711,1,0,0:0:0:0:
256,192,40857,1,8,0:0:0:0:
256,192,40931,1,0,0:0:0:0:
256,192,41004,1,0,0:0:0:0:
256,192,41150,1,8,0:0:0:0:
256,192,41296,1,0,0:0:0:0:
256,192,41443,1,8,0:0:0:0:
256,192,41662,1,0,0:0:0:0:
256,192,41735,1,8,0:0:0:0:
256,192,41882,1,0,0:0:0:0:
256,192,42028,1,8,0:0:0:0:
256,192,42174,1,0,0:0:0:0:
256,192,42321,1,8,0:0:0:0:
256,192,42394,1,0,0:0:0:0:
256,192,42467,1,0,0:0:0:0:
256,192,42613,1,8,0:0:0:0:
256,192,42760,1,4,0:0:0:0:
256,192,43053,1,8,0:0:0:0:
256,192,43345,1,0,0:0:0:0:
256,192,43418,1,0,0:0:0:0:
256,192,43492,1,8,0:0:0:0:
256,192,43638,1,0,0:0:0:0:
256,192,43784,1,8,0:0:0:0:
256,192,43931,1,0,0:0:0:0:
256,192,44004,1,0,0:0:0:0:
256,192,44077,1,8,0:0:0:0:
256,192,44223,1,0,0:0:0:0:
256,192,44370,1,8,0:0:0:0:
256,192,44516,1,0,0:0:0:0:
256,192,44662,1,8,0:0:0:0:
256,192,44735,1,0,0:0:0:0:
256,192,44882,1,0,0:0:0:0:
256,192,44955,1,8,0:0:0:0:
256,192,45101,1,0,0:0:0:0:
256,192,45394,1,0,0:0:0:0:
256,192,45540,1,8,0:0:0:0:
256,192,45687,1,0,0:0:0:0:
256,192,45833,1,8,0:0:0:0:
256,192,45979,1,0,0:0:0:0:
256,192,46053,1,0,0:0:0:0:
256,192,46126,1,8,0:0:0:0:
256,192,46272,1,4,0:0:0:0:
256,192,46565,1,0,0:0:0:0:
256,192,46711,1,8,0:0:0:0:
256,192,46784,1,8,0:0:0:0:
256,192,46857,1,0,0:0:0:0:
256,192,47004,1,0,0:0:0:0:
256,192,47077,1,0,0:0:0:0:
256,192,47150,1,0,0:0:0:0:
256,192,47223,1,0,0:0:0:0:
256,192,47296,1,0,0:0:0:0:
256,192,47443,1,12,0:0:0:0:
256,192,47735,1,0,0:0:0:0:
256,192,47882,1,8,0:0:0:0:
256,192,48028,1,0,0:0:0:0:
256,192,48174,1,8,0:0:0:0:
256,192,48248,1,8,0:0:0:0:
256,192,48321,1,0,0:0:0:0:
256,192,48394,1,0,0:0:0:0:
256,192,48467,1,8,0:0:0:0:
256,192,48613,1,8,0:0:0:0:
256,192,48906,1,8,0:0:0:0:
256,192,49199,1,8,0:0:0:0:
256,192,49492,1,8,0:0:0:0:
256,192,49565,1,0,0:0:0:0:
256,192,49638,1,0,0:0:0:0:
256,192,49784,1,12,0:0:0:0:
256,192,50077,1,0,0:0:0:0:
256,192,50223,1,8,0:0:0:0:
256,192,50296,1,8,0:0:0:0:
256,192,50370,1,0,0:0:0:0:
256,192,50516,1,8,0:0:0:0:
256,192,50589,1,8,0:0:0:0:
256,192,50662,1,0,0:0:0:0:
256,192,50735,1,0,0:0:0:0:
256,192,50809,1,8,0:0:0:0:
256,192,50955,1,8,0:0:0:0:
256,192,51248,1,8,0:0:0:0:
256,192,51394,1,0,0:0:0:0:
256,192,51540,1,8,0:0:0:0:
256,192,51687,1,0,0:0:0:0:
256,192,51833,1,8,0:0:0:0:
256,192,51906,1,8,0:0:0:0:
256,192,51979,1,0,0:0:0:0:
256,192,52126,1,4,0:0:0:0:
256,192,52418,1,0,0:0:0:0:
256,192,52565,1,8,0:0:0:0:
256,192,52711,1,0,0:0:0:0:
256,192,52784,1,0,0:0:0:0:
256,192,52857,1,8,0:0:0:0:
256,192,53004,1,8,0:0:0:0:
256,192,53077,1,0,0:0:0:0:
256,192,53150,1,8,0:0:0:0:
256,192,53296,1,4,0:0:0:0:
256,192,53589,1,0,0:0:0:0:
256,192,53735,1,8,0:0:0:0:
256,192,53882,1,0,0:0:0:0:
256,192,54028,1,8,0:0:0:0:
256,192,54101,1,0,0:0:0:0:
256,192,54174,1,8,0:0:0:0:
256,192,54321,1,0,0:0:0:0:
256,192,54467,1,12,0:0:0:0:
256,192,54760,1,0,0:0:0:0:
256,192,54906,1,8,0:0:0:0:
256,192,55053,1,0,0:0:0:0:
256,192,55199,1,8,0:0:0:0:
256,192,55272,1,8,0:0:0:0:
256,192,55345,1,8,0:0:0:0:
256,192,55418,1,0,0:0:0:0:
256,192,55492,1,0,0:0:0:0:
256,192,55565,1,0,0:0:0:0:
256,192,55638,1,8,0:0:0:0:
256,192,56077,1,0,0:0:0:0:
256,192,56370,1,8,0:0:0:0:
256,192,56516,1,0,0:0:0:0:
256,192,56589,1,0,0:0:0:0:
256,192,56662,1,8,0:0:0:0:
256,192,56809,1,4,0:0:0:0:
256,192,57101,1,0,0:0:0:0:
256,192,57248,1,8,0:0:0:0:
256,192,57394,1,0,0:0:0:0:
256,192,57540,1,8,0:0:0:0:
256,192,57613,1,8,0:0:0:0:
256,192,57687,1,0,0:0:0:0:
256,192,57760,1,0,0:0:0:0:
256,192,57833,1,8,0:0:0:0:
256,192,57979,1,0,0:0:0:0:
256,192,58272,1,8,0:0:0:0:
256,192,58418,1,0,0:0:0:0:
256,192,58492,1,0,0:0:0:0:
256,192,58565,1,8,0:0:0:0:
256,192,58711,1,0,0:0:0:0:
256,192,58857,1,0,0:0:0:0:
256,192,59004,1,8,0:0:0:0:
256,192,59150,1,4,0:0:0:0:
256,192,59443,1,0,0:0:0:0:
256,192,59589,1,8,0:0:0:0:
256,192,59735,1,0,0:0:0:0:
256,192,59882,1,8,0:0:0:0:
256,192,59955,1,0,0:0:0:0:
256,192,60028,1,8,0:0:0:0:
256,192,60174,1,0,0:0:0:0:
256,192,60321,1,12,0:0:0:0:
256,192,60613,1,12,0:0:0:0:
256,192,60906,1,12,0:0:0:0:
256,192,61199,1,0,0:0:0:0:
256,192,61272,1,0,0:0:0:0:
256,192,61345,1,8,0:0:0:0:
256,192,61492,1,4,0:0:0:0:
256,192,61784,1,0,0:0:0:0:
256,192,61931,1,8,0:0:0:0:
256,192,62077,1,0,0:0:0:0:
256,192,62223,1,8,0:0:0:0:
256,192,62296,1,0,0:0:0:0:
256,192,62370,1,0,0:0:0:0:
256,192,62516,1,8,0:0:0:0:
256,192,62662,1,0,0:0:0:0:
256,192,62955,1,8,0:0:0:0:
256,192,63028,1,0,0:0:0:0:
256,192,63101,1,0,0:0:0:0:
256,192,63248,1,8,0:0:0:0:
256,192,63394,1,0,0:0:0:0:
256,192,63540,1,8,0:0:0:0:
256,192,63613,1,0,0:0:0:0:
256,192,63687,1,0,0:0:0:0:
256,192,63833,1,4,0:0:0:0:
256,192,64126,1,8,0:0:0:0:
256,192,64199,1,0,0:0:0:0:
256,192,64272,1,8,0:0:0:0:
256,192,64345,1,0,0:0:0:0:
256,192,64418,1,8,0:0:0:0:
256,192,64565,1,8,0:0:0:0:
256,192,64711,1,0,0:0:0:0:
256,192,64857,1,8,0:0:0:0:
256,192,65004,1,4,0:0:0:0:
256,192,65296,1,0,0:0:0:0:
256,192,65443,1,8,0:0:0:0:
256,192,65589,1,0,0:0:0:0:
256,192,65735,1,8,0:0:0:0:
256,192,65809,1,8,0:0:0:0:
256,192,65882,1,0,0:0:0:0:
256,192,65955,1,0,0:0:0:0:
256,192,66028,1,8,0:0:0:0:
256,192,66174,1,4,0:0:0:0:
256,192,66467,1,0,0:0:0:0:
256,192,66613,1,8,0:0:0:0:
256,192,66760,1,0,0:0:0:0:
256,192,66906,1,8,0:0:0:0:
256,192,66979,1,0,0:0:0:0:
256,192,67053,1,8,0:0:0:0:
256,192,67126,1,0,0:0:0:0:
256,192,67199,1,8,0:0:0:0:
256,192,67345,1,0,0:0:0:0:
256,192,67638,1,8,0:0:0:0:
256,192,67784,1,0,0:0:0:0:
256,192,67857,1,0,0:0:0:0:
256,192,67931,1,8,0:0:0:0:
256,192,68077,1,0,0:0:0:0:
256,192,68223,1,8,0:0:0:0:
256,192,68370,1,0,0:0:0:0:
256,192,68516,1,4,0:0:0:0:
256,192,68809,1,0,0:0:0:0:
256,192,68955,1,8,0:0:0:0:
256,192,69101,1,0,0:0:0:0:
256,192,69248,1,8,0:0:0:0:
256,192,69321,1,0,0:0:0:0:
256,192,69394,1,0,0:0:0:0:
256,192,69540,1,8,0:0:0:0:
256,192,69687,1,4,0:0:0:0:
256,192,69979,1,4,0:0:0:0:
256,192,70272,1,4,0:0:0:0:
256,192,70565,1,0,0:0:0:0:
256,192,70638,1,0,0:0:0:0:
256,192,70711,1,8,0:0:0:0:
256,192,70857,1,4,0:0:0:0:
256,192,71296,1,8,0:0:0:0:
256,192,71443,1,0,0:0:0:0:
256,192,71589,1,8,0:0:0:0:
256,192,71735,1,0,0:0:0:0:
256,192,71809,1,0,0:0:0:0:
256,192,71882,1,8,0:0:0:0:
256,192,72028,1,8,0:0:0:0:
256,192,72321,1,0,0:0:0:0:
256,192,72467,1,0,0:0:0:0:
256,192,72540,1,0,0:0:0:0:
256,192,72613,1,8,0:0:0:0:
256,192,72760,1,0,0:0:0:0:
256,192,72906,1,0,0:0:0:0:
256,192,73053,1,8,0:0:0:0:
256,192,73199,1,4,0:0:0:0:
256,192,73492,1,8,0:0:0:0:
256,192,73638,1,8,0:0:0:0:
256,192,73711,1,0,0:0:0:0:
256,192,73784,1,8,0:0:0:0:
256,192,73857,1,0,0:0:0:0:
256,192,73931,1,8,0:0:0:0:
256,192,74077,1,0,0:0:0:0:
256,192,74223,1,8,0:0:0:0:
256,192,74370,1,4,0:0:0:0:
256,192,74662,1,0,0:0:0:0:
256,192,74809,1,8,0:0:0:0:
256,192,74955,1,0,0:0:0:0:
256,192,75101,1,8,0:0:0:0:
256,192,75174,1,8,0:0:0:0:
256,192,75248,1,8,0:0:0:0:
256,192,75321,1,8,0:0:0:0:
256,192,75394,1,8,0:0:0:0:
256,192,75467,1,8,0:0:0:0:
256,192,75540,1,4,0:0:0:0:
256,192,75833,1,0,0:0:0:0:
256,192,75979,1,8,0:0:0:0:
256,192,76126,1,0,0:0:0:0:
256,192,76272,1,8,0:0:0:0:
256,192,76345,1,8,0:0:0:0:
256,192,76418,1,0,0:0:0:0:
256,192,76492,1,0,0:0:0:0:
256,192,76565,1,8,0:0:0:0:
256,192,76711,1,4,0:0:0:0:
256,192,77004,1,0,0:0:0:0:
256,192,77150,1,8,0:0:0:0:
256,192,77296,1,0,0:0:0:0:
256,192,77443,1,0,0:0:0:0:
256,192,77516,1,8,0:0:0:0:
256,192,77589,1,0,0:0:0:0:
256,192,77662,1,8,0:0:0:0:
256,192,77735,1,0,0:0:0:0:
256,192,77882,1,4,0:0:0:0:
256,192,78174,1,0,0:0:0:0:
256,192,78321,1,8,0:0:0:0:
256,192,78467,1,0,0:0:0:0:
256,192,78613,1,8,0:0:0:0:
256,192,78687,1,8,0:0:0:0:
256,192,78760,1,0,0:0:0:0:
256,192,78833,1,0,0:0:0:0:
256,192,78906,1,8,0:0:0:0:
256,192,79053,1,12,0:0:0:0:
256,192,79345,1,8,0:0:0:0:
256,192,79418,1,8,0:0:0:0:
256,192,79492,1,8,0:0:0:0:
256,192,79638,1,0,0:0:0:0:
256,192,79784,1,8,0:0:0:0:
256,192,79931,1,0,0:0:0:0:
256,192,80077,1,8,0:0:0:0:
256,192,80223,1,4,0:0:0:0:
256,192,80516,1,0,0:0:0:0:
256,192,80662,1,8,0:0:0:0:
256,192,80809,1,0,0:0:0:0:
256,192,80955,1,8,0:0:0:0:
256,192,81028,1,8,0:0:0:0:
256,192,81101,1,0,0:0:0:0:
256,192,81174,1,0,0:0:0:0:
256,192,81248,1,8,0:0:0:0:
256,192,81394,1,4,0:0:0:0:
256,192,81687,1,0,0:0:0:0:
256,192,81833,1,8,0:0:0:0:
256,192,81979,1,0,0:0:0:0:
256,192,82126,1,0,0:0:0:0:
256,192,82199,1,8,0:0:0:0:
256,192,82272,1,0,0:0:0:0:
256,192,82345,1,8,0:0:0:0:
256,192,82418,1,0,0:0:0:0:
256,192,82565,1,4,0:0:0:0:
256,192,82857,1,0,0:0:0:0:
256,192,83004,1,8,0:0:0:0:
256,192,83150,1,0,0:0:0:0:
256,192,83296,1,8,0:0:0:0:
256,192,83370,1,8,0:0:0:0:
256,192,83443,1,0,0:0:0:0:
256,192,83516,1,0,0:0:0:0:
256,192,83589,1,8,0:0:0:0:
256,192,83735,1,4,0:0:0:0:
256,192,84028,1,0,0:0:0:0:
256,192,84101,1,0,0:0:0:0:
256,192,84174,1,8,0:0:0:0:
256,192,84321,1,0,0:0:0:0:
256,192,84467,1,8,0:0:0:0:
256,192,84540,1,0,0:0:0:0:
256,192,84613,1,0,0:0:0:0:
256,192,84687,1,8,0:0:0:0:
256,192,84760,1,8,0:0:0:0:
256,192,84906,1,4,0:0:0:0:
